#TITLE:SAINT GOES MARCHING (REMIX);
#ARTIST:THE SAINT;
#BANNER:SAINT GOES MARCHING (REMIX).png;
#BACKGROUND:SAINT GOES MARCHING (REMIX)-bg.png;
#JACKET:SAINT GOES MARCHING (REMIX)-jacket.png;
#MUSIC:SAINT GOES MARCHING (REMIX).ogg;
#SAMPLESTART:12.356;
#SAMPLELENGTH:20;
#DISPLAYBPM:110:175;
#BPMS:0=174.82,98=110.15,100=112.5,104=116.3,108=120.4,112=124.4,116=128.3,120=132.3,124=136.3,128=140.4,132=144.2,136=148.5,140=152.4,144=156.3,148=160.3,152=164.3,156=168.3,160=172.3,164=173.78;
#BGCHANGES:;

//---------------dance-single - ----------------
#NOTES:
     dance-single:
     :
     Beginner:
     2:
     :
0000
0000
0000
0000
,
0000
0000
0000
0000
,
0000
0000
0000
0000
,
0000
0000
0000
0000
,
0000
0000
0000
0000
,
0010
0000
0000
0000
,
0010
0000
0000
0000
,
0010
0000
0010
0000
,
0010
0010
0000
0000
,
0001
0000
0000
0000
,
1000
0000
0000
0000
,
0001
0000
0000
0000
,
1000
0000
0000
0000
,
0100
0000
0100
0000
,
0010
0000
0010
0000
,
1000
0000
0000
0000
,
0001
0000
0000
0000
,
0010
0000
0010
0000
,
0010
0000
0010
0000
,
0010
0000
0010
0000
,
0010
0000
0010
0000
,
0100
0000
0100
0000
,
0100
0000
0100
0000
,
0100
0000
0100
0000
,
0100
0000
0100
0000
,
0010
0000
0000
0000
,
0001
0000
0000
0000
,
1000
0000
0000
0000
,
0100
0000
0000
0000
,
0010
0000
0000
0000
,
0001
0000
0000
0000
,
1000
0000
0000
0000
,
0100
0000
0000
0000
,
1000
0000
0000
0000
,
0001
0000
0000
0000
,
1000
0000
0001
0000
,
0100
0000
0000
0000
,
1001
0000
0000
0000
,
0110
0000
0000
0000
,
1000
0000
0001
0000
,
0010
0000
0000
0000
,
1000
0000
1000
0000
,
0001
0000
0001
0000
,
1000
0000
0001
0000
,
1000
0000
1000
0000
,
0001
0000
1000
0000
,
0001
0000
1000
0000
,
0001
0000
1000
0000
,
0001
0001
0001
0000
,
1000
0000
0001
0000
,
1000
0000
0001
0000
,
1000
0000
0001
0000
,
0100
0100
0100
0000
,
0001
0000
1000
0000
,
0001
0000
1000
0000
,
0001
0000
1000
0000
,
0001
0000
0000
0000
,
1000
0000
0000
0000
;

//---------------dance-single - ----------------
#NOTES:
     dance-single:
     :
     Easy:
     6:
     :
0000
0000
0000
0000
,
0000
0000
0000
0000
,
0000
0000
0000
0000
,
0000
0000
0000
0000
,
0000
0000
0000
0000
,
0010
0000
0000
0000
,
0010
0000
0000
0000
,
0010
0000
0010
0000
,
0010
1001
0100
0010
,
0001
0000
0000
0000
,
1000
0000
0001
1000
,
0001
0000
1000
0001
,
0010
0010
0010
0010
,
0100
0100
0100
0100
,
1000
0001
1000
0001
,
1000
0000
0000
0000
,
0001
0000
0000
0000
,
0010
0010
0010
0010
,
0010
0010
0010
0010
,
0010
0010
0010
0010
,
0010
0010
0010
1001
,
0010
0010
0010
0010
,
0010
0010
0010
0010
,
0010
0010
0010
0010
,
0010
0010
0010
0000
,
0010
1000
0001
0010
,
0001
1000
0010
1000
,
0001
0000
1000
0000
,
0010
0010
0010
0000
,
0010
0001
1000
0010
,
1000
0001
0010
0001
,
1000
0000
0001
0000
,
0010
0010
0010
0000
,
1000
0001
1000
0001
,
1000
0001
0100
0010
,
1000
0000
0001
0000
,
0010
0010
0010
0010
,
1001
0000
0000
0000
,
0110
0000
0000
0000
,
1000
0000
0001
0000
,
0010
0010
0010
0010
,
1000
0000
0001
0000
,
1000
0000
0001
0000
,
1000
0100
0001
0100
,
1000
1000
1000
0000
,
0001
0000
1000
0000
,
0001
0000
1000
0000
,
0001
0100
1000
0100
,
0001
0001
0001
0000
,
1000
0000
0001
0000
,
1000
0000
0001
0000
,
1000
0001
1000
0001
,
0100
0100
0100
0000
,
0001
0000
1000
0000
,
0001
0000
1000
0000
,
0001
1000
0001
0100
,
0001
0000
0000
0000
,
1000
0000
0000
0000
;

//---------------dance-single - ----------------
#NOTES:
     dance-single:
     :
     Medium:
     8:
     :
0000
0000
0000
0000
,
0000
0000
0000
0000
,
0000
0000
0000
0000
,
0000
0000
0000
0000
,
0000
0000
0000
0000
,
0010
0010
1000
0001
,
0100
0100
0001
1000
,
0001
0100
1000
0100
,
0001
0100
1000
0100
,
0001
0001
0001
0001
,
1000
1000
1000
1000
,
0110
0000
1001
0000
,
0010
0000
0010
0000
0010
0000
0010
1000
,
0001
0100
0100
0100
,
0001
0000
1000
0000
0100
0000
0010
0001
,
0100
0010
0010
0010
,
1000
1000
1000
0000
,
0010
0010
0010
0010
,
0010
0010
0010
0010
,
1000
0001
1000
0001
,
1000
0001
1000
0001
,
1000
0001
1000
0001
1000
0001
1000
0001
,
0010
0001
0010
0001
0010
0001
0010
0001
,
1000
0010
1000
0010
1000
0010
1000
0010
,
1000
0001
1000
0001
1000
0000
0000
0000
,
0010
1000
1000
0000
,
0010
0001
0001
0000
,
1000
0000
0001
0000
,
0010
1000
0001
0000
,
0010
1000
1000
0000
,
0010
0001
0001
0000
,
0010
0000
1000
0000
,
0100
0001
0001
0000
,
0100
0100
0100
0100
,
0010
0010
0010
0010
,
1001
0000
0100
0000
,
1000
0001
0100
0010
,
1001
0000
0000
0000
,
0010
1000
0001
0100
,
1001
0000
1001
0000
,
0010
1000
0001
0000
,
0010
1000
0001
0100
,
0010
0001
1000
0100
,
0010
0001
1000
0010
,
1000
0001
1000
0000
,
0010
0001
0010
0001
,
0010
1000
0010
1000
,
0001
0001
1000
1000
,
0010
0010
0010
0000
,
1001
0100
0010
0100
,
0110
1000
0001
1000
,
1001
0100
0010
0100
,
1001
0100
0100
0000
,
1000
0000
0001
1000
0001
0000
0000
0000
,
0001
0000
1000
0001
1000
0000
0000
0000
,
0010
0000
1000
0001
1000
0001
1000
0000
,
0001
0100
0100
0100
,
1001
0000
0000
0000
;

//---------------dance-single - ----------------
#NOTES:
     dance-single:
     :
     Hard:
     13:
     :
0000
0000
0000
0000
,
0000
0000
0000
0000
,
0000
0000
0000
0000
,
0000
0000
0000
0000
,
0000
0000
0000
0000
,
0010
0000
0010
0000
0010
1000
0001
0000
,
0010
0000
0010
0000
0010
0001
1000
0000
,
0100
0010
0001
1000
,
0001
1000
0001
0100
0001
0000
1100
0000
,
0010
0001
1000
0100
0010
0001
1000
0100
,
0010
0001
0100
1000
0100
0001
0010
0001
,
0010
0001
1000
0100
0010
0001
1000
0100
,
0010
0001
0100
1000
0100
0001
1000
0100
,
0001
0100
1000
0010
1000
0100
0001
0100
,
1000
0001
0100
1000
0100
0001
1000
0100
,
0010
0001
1000
0010
1000
0100
0001
0100
,
1000
0001
1000
0100
1001
0000
0000
0000
,
0001
0010
0000
0000
0010
0001
0000
0000
0001
0100
0000
0000
0100
1000
0000
0000
,
1000
0100
0000
0000
0100
0001
0000
0000
0001
0010
0000
0000
0010
1000
0000
0000
,
1000
0010
0000
0000
0010
0001
0000
0000
0001
0100
0000
0000
0100
1000
0000
0000
,
1000
0100
0000
0000
0100
0001
0000
0000
0001
1000
0000
0000
1000
0001
0000
0000
,
0010
1000
0000
0000
1000
0010
0000
0000
0010
1000
0000
0000
1000
0100
0000
0000
,
0100
0010
0000
0000
0010
0001
0000
0000
0001
0010
0000
0000
0010
0001
0000
0000
,
0001
0100
0000
0000
0100
0001
0000
0000
0001
1000
0000
0000
1000
0100
0000
0000
,
0100
1000
0000
0000
1000
0001
0000
0000
1000
0000
0000
0000
0000
0000
0000
0000
,
0010
1100
0101
0010
,
0100
0101
1100
0010
,
1001
0100
0010
1001
,
0100
0011
0100
1001
,
0100
1010
0100
1001
,
1100
0010
1001
0101
,
0100
0011
0100
1001
,
0101
0010
1001
1100
,
0010
0101
1100
0010
,
1100
0100
0101
0100
,
0010
0001
1000
0100
,
1000
0100
0001
0000
1000
0100
0001
0000
,
1000
0100
0001
0000
1000
0100
0001
0000
,
0001
0100
1000
0000
0001
0100
1000
0000
,
0001
0100
1000
0000
0001
0100
1000
0000
,
1000
0100
0001
0100
1000
0100
0001
0100
,
1000
0100
0001
0100
1000
0100
0001
0100
,
0001
0100
1000
0100
0001
0100
1000
0100
,
0001
0100
1000
0100
0001
0100
1000
0100
,
0001
0010
1000
0100
0001
0010
1000
0100
,
0010
1000
0100
0001
0010
1000
0100
0001
,
1000
0010
0001
0100
1000
0010
0001
0100
,
0100
0010
1000
0001
0100
0010
1000
0100
,
0001
1000
0100
0100
0100
0000
0000
0000
,
0110
1100
0101
0010
,
1001
0000
0101
0000
1100
0000
0010
0001
,
0100
0101
1100
0010
,
1001
0000
1100
0000
0101
0000
0010
1000
,
0100
1010
0011
0100
,
1001
0000
0100
0000
0010
0000
1001
0100
,
0100
1100
0101
0100
,
0110
1001
0100
0100
,
1001
0000
0000
0000
;

//---------------dance-single - ----------------
#NOTES:
     dance-single:
     :
     Challenge:
     16:
     :
0000
0000
0000
0000
,
0000
0000
0000
0000
,
0000
0000
0000
0000
,
0000
0000
0000
0000
,
0000
0000
0000
0000
,
0010
0000
0000
0000
0001
0000
0000
0100
0000
0000
0010
0000
1000
0000
0000
0000
,
0100
0000
0000
0000
1000
0000
0000
0001
0000
0000
0010
0000
0001
0000
0100
0000
,
0010
0000
0000
0000
1000
0000
0000
0001
0000
0000
1000
0000
0100
0000
0000
0000
,
0010
0001
1000
0010
1000
0100
0001
0000
,
0010
0001
0000
0001
0100
0000
0100
0010
0000
0010
1000
0000
0001
0000
0100
0000
,
1000
0010
0000
0010
0100
0000
0100
0001
0000
0001
0010
0000
0001
1000
0010
0100
,
0001
1000
0000
1000
0100
0000
0100
0010
0000
0010
0001
0000
0100
0000
1000
0000
,
0010
0100
0000
0100
0001
0000
0001
1000
0000
1000
0010
0000
1000
0100
0010
0001
,
0100
0010
0000
0010
1000
0000
1000
0100
0000
0100
0010
0000
0001
0000
0100
0000
,
1000
0001
0000
0001
0100
0000
0100
0010
0000
0010
1000
0000
0010
0100
0001
1000
,
0001
0100
0000
0100
0010
0000
0010
1000
0000
1000
0100
0000
1000
0000
0001
0000
,
0010
0001
0000
0001
1000
0000
0010
1000
0100
0000
1000
0001
0100
0000
0010
0000
,
1000
1100
0001
0101
0010
0110
0010
1010
,
0100
1100
1000
1001
0010
0011
0001
0101
,
0010
0110
0100
1100
0001
0011
1000
1100
,
0010
0000
1001
0000
0100
0000
1001
0000
0010
0000
1000
0001
0100
0000
0010
0000
,
1000
0100
1000
0000
0001
0000
0010
0000
0100
1000
0100
0000
0010
0000
0001
0000
,
0100
0010
0100
0000
0001
0000
1000
0000
0010
1000
0010
0000
0100
0000
0001
0000
,
1000
0100
0001
0000
0010
0000
0100
0000
1000
0010
0001
0000
0100
0000
0010
0000
,
1000
0010
0001
0000
0101
0000
0110
0000
1010
0000
0001
0000
1000
0000
0100
0000
,
1001
0010
1000
0100
0001
1000
0010
0100
,
0110
0001
0010
0100
1000
0010
1000
0001
,
0101
1100
0101
1100
,
0101
0010
1000
0100
1000
0010
0001
0100
,
1010
0001
0100
0010
1000
0100
0010
0001
,
1001
0010
1000
0100
0001
1000
0010
0100
,
0101
1100
0101
1100
,
0101
0010
1000
0001
1000
0100
0010
0001
,
0011
1000
0100
0001
0010
1000
0100
0001
,
1010
0001
0010
1000
0100
0001
0010
1000
,
1100
0100
0101
0000
1100
0100
0101
0000
,
1100
0001
0010
1000
0100
0010
0001
1000
,
1010
0010
0100
0001
0101
0010
0001
0100
,
0110
0001
0010
1000
1001
0010
1000
0100
,
1100
0001
0101
1000
1100
0001
0101
1000
,
1100
0001
0010
1000
0100
0010
1000
0001
,
0011
0001
1100
0100
0101
0010
1000
0100
,
1001
0001
0011
1000
1010
0001
0100
0010
,
1010
0001
0101
0010
0011
1000
1100
0010
,
0101
0010
1100
0010
0101
1000
0100
0001
,
0011
1000
1100
0010
0110
0001
0010
1000
,
1100
0010
1001
0010
1100
0001
0010
1000
,
1100
0100
0011
1000
0101
0001
1010
0010
,
1100
0001
0101
1000
1100
0010
0100
0001
,
0011
0000
1000
0000
1100
0000
0001
0000
0100
0010
1000
0000
0001
1000
0100
0000
,
1001
0000
0010
0000
1010
0000
0001
0000
1000
0100
0010
0000
0001
0100
0010
0000
,
1010
0100
1010
0100
0011
0100
0011
0100
,
1001
0000
0010
0000
0101
0000
1000
0000
0010
0100
0001
0000
1000
0100
0010
0000
,
0011
0000
0100
0000
1001
0000
0010
0000
0101
0000
1000
0000
0100
1000
0001
0010
,
0100
0000
0010
0000
0011
0000
0001
0000
0101
0000
1000
0000
0010
0100
0001
1000
,
0100
1000
0001
0000
0100
0001
1000
0000
0100
1000
0001
0000
0100
0001
1000
0000
,
0110
0001
0010
1000
0100
1000
0010
0001
,
0101
0000
0000
0000
;

//---------------dance-double - ----------------
#NOTES:
     dance-double:
     :
     Easy:
     6:
     :
00000000
00000000
00000000
00000000
,
00000000
00000000
00000000
00000000
,
00000000
00000000
00000000
00000000
,
00000000
00000000
00000000
00000000
,
00000000
00000000
00000000
00000000
,
00010000
00000000
00010000
00000000
,
00001000
00000000
00001000
00000000
,
00010000
00000000
00001000
00000000
,
00100000
10000000
01000000
00010000
,
00001000
00000000
00010000
00000000
,
00001000
00000000
00010000
00000000
,
00001000
00000000
10010000
00000000
,
00100000
00100000
00010000
00010000
,
00000100
00000100
00000001
00000001
,
00010000
00001000
00010000
00001000
,
00000100
00000000
00000000
00000000
,
00000001
00000000
00000000
00000000
,
00100000
00100000
00100000
00100000
,
00010000
00010000
00010000
00010000
,
00001000
00001000
00001000
00001000
,
00000100
00000100
00000100
00001001
,
00000100
00000100
00000100
00000100
,
00001000
00001000
00001000
00001000
,
00010000
00010000
00010000
00010000
,
01000000
01000000
01000000
00000000
,
00100000
00010000
00001000
00000100
,
00000001
00001000
00000100
00010000
,
01000000
00000000
10000000
00000000
,
00100000
00100000
00100000
00000000
,
00100000
00010000
00001000
00010000
,
00000100
00001000
00000100
00000010
,
00000001
00000000
00001000
00000000
,
00001000
00011000
00010000
00000000
,
01000000
10000000
00010000
01000000
,
00010000
00000100
00000001
00001000
,
00000100
00000000
00010000
00000000
,
00100000
00100000
00100000
00010000
,
00011000
00000000
00000000
00000000
,
00001001
00000000
00000000
00000000
,
00001000
00000000
00010000
00000000
,
01000000
01000000
01000000
01000000
,
10000000
00000000
00010000
00000000
,
00000100
00000000
00010000
00000000
,
00100000
10000000
00010000
01000000
,
10000000
01000000
00010000
00000000
,
00000100
00000000
00000010
00000000
,
00001000
00000000
00010000
00000000
,
00010000
01000000
10000000
01000000
,
00100000
00100000
00100000
00000000
,
10010000
00000000
00100000
00000000
,
00011000
00000000
00001000
00000000
,
00001000
00000001
00001000
00000001
,
00000100
00000100
00000100
00000000
,
00010000
00000000
00001000
00000000
,
00010000
00000000
01000000
00000000
,
10000000
00010000
01000000
00010000
,
00001000
00000000
00000000
00000000
,
00011000
00000000
00000000
00000000
;

//---------------dance-double - ----------------
#NOTES:
     dance-double:
     :
     Medium:
     8:
     :
00000000
00000000
00000000
00000000
,
00000000
00000000
00000000
00000000
,
00000000
00000000
00000000
00000000
,
00000000
00000000
00000000
00000000
,
00000000
00000000
00000000
00000000
,
00100000
00100000
00010000
00001000
,
00000100
00000001
00001000
00000100
,
00010000
00001000
00010000
01000000
,
10000000
00100000
00010000
00001000
,
00010000
00001000
00010000
00010000
,
00001000
00001000
00001000
00001000
,
00011000
00000000
10010000
00000000
,
00100000
00000000
00100000
00000000
00010000
00000000
00010000
00001000
,
00010000
01000000
01000000
01000000
,
10000000
00000000
00010000
00000000
01000000
00000000
00100000
00010000
,
00001000
00000010
00000010
00000010
,
00001000
00001000
00001000
00000000
,
00000010
00000010
00001000
00001000
,
00010000
00010000
01000000
01000000
,
10000000
00010000
10000000
00010000
,
00000100
00000001
00001000
00000100
,
10000000
01000000
00010000
00000000
00001000
00000100
00000001
00000000
,
00000001
00000100
00001000
00000000
00010000
01000000
10000000
00000000
,
10000000
01000000
00010000
00000000
00001000
00000100
00000001
00000000
,
00000001
00000100
00001000
00000000
00011000
00000000
00000000
00000000
,
00100000
10000000
10000000
00000000
,
00100000
00010000
00010000
00000000
,
00001000
00000000
00000001
00000000
,
00000100
00010000
00001000
00000000
,
00100000
10000000
10000000
00000000
,
00100000
00010000
00010000
00000000
,
00001000
00000000
00000001
00000000
,
00000100
00010000
00001000
00000000
,
00010000
00010000
00001000
00001000
,
00000100
00000100
00010000
00001000
,
00011000
00000000
00000100
00000000
,
00000001
00000100
00010000
00000100
,
00011000
00000000
00000000
00000000
,
00100000
00010000
00001000
00000100
,
00011000
00000000
10010000
00000000
,
00100000
00010000
00001000
00000000
,
00000010
00001000
00000001
00000100
,
00010000
00100000
10000000
01000000
,
00100000
00010000
00001000
00000100
,
00000010
00000001
00001000
00000000
,
00100000
00010000
00100000
00010000
,
00000100
00001000
00000010
00000001
,
00001000
00001000
00010000
00010000
,
00100000
00100000
00100000
00000000
,
00011000
00000100
00010000
01000000
,
01100000
10000000
00010000
00001000
,
00001001
00000100
00010000
00001000
,
00010000
00000100
00001000
00000000
,
00010000
00000000
00001000
00010000
00001000
00000000
00000000
00000000
,
00010000
00000000
10000000
00010000
10000000
00000000
00000000
00000000
,
00100000
00000000
00010000
00001000
00010000
00001000
00000100
00000000
,
00010000
01000000
10000000
01000000
,
10010000
00000000
00000000
00000000
;

//---------------dance-double - ----------------
#NOTES:
     dance-double:
     :
     Hard:
     13:
     :
00000000
00000000
00000000
00000000
,
00000000
00000000
00000000
00000000
,
00000000
00000000
00000000
00000000
,
00000000
00000000
00000000
00000000
,
00000000
00000000
00000000
00000000
,
00010000
00000000
00010000
00000000
00001000
00010000
01000000
00000000
,
10000000
00000000
10000000
00000000
10000000
01000000
00010000
00000000
,
01000000
00100000
00010000
00001000
,
00000100
00001000
00000100
00000001
00001000
00000000
00000100
00000000
,
00010000
00001000
00010000
01000000
10000000
00010000
10000000
01000000
,
00010000
00001000
00000100
00000001
00001000
00000100
00010000
00001000
,
00100000
00010000
10000000
01000000
00100000
00010000
01000000
00010000
,
00100000
00001000
00000100
00000001
00000010
00001000
00010000
01000000
,
00010000
01000000
10000000
00100000
10000000
01000000
00010000
00001000
,
00000100
00000001
00000010
00001000
00010000
00100000
10000000
01000000
,
00100000
00010000
10000000
01000000
00010000
01000000
00010000
00001000
,
00000100
00000001
00001000
00000100
00010000
00000000
00000000
00000000
,
00100000
00010000
00000000
00000000
00010000
00001000
00000000
00000000
00001000
00010000
00000000
00000000
00010000
00001000
00000000
00000000
,
00001000
00000010
00000000
00000000
00000010
00000001
00000000
00000000
00000001
00000100
00000000
00000000
00000100
00001000
00000000
00000000
,
00001000
00010000
00000000
00000000
00010000
01000000
00000000
00000000
01000000
10000000
00000000
00000000
10000000
00100000
00000000
00000000
,
00100000
00010000
00000000
00000000
00010000
00001000
00000000
00000000
00001000
00010000
00000000
00000000
00010000
00001000
00000000
00000000
,
00001000
00000100
00000000
00000000
00000100
00000001
00000000
00000000
00000001
00001000
00000000
00000000
00001000
00000100
00000000
00000000
,
00000100
00010000
00000000
00000000
00010000
00001000
00000000
00000000
00001000
00010000
00000000
00000000
00010000
01000000
00000000
00000000
,
01000000
10000000
00000000
00000000
10000000
00010000
00000000
00000000
00010000
10000000
00000000
00000000
10000000
01000000
00000000
00000000
,
01000000
00010000
00000000
00000000
00010000
00100000
00000000
00000000
00100000
00000000
00000000
00000000
00000000
00000000
00000000
00000000
,
00100000
11000000
01010000
00100000
,
00010000
00110000
01010000
00001000
,
00000110
00001001
00000010
00001001
,
00000100
00001100
00001000
00011000
,
01000000
10100000
01000000
00010000
,
00100000
01000000
10010000
00110000
,
00010000
00001100
00001000
00011000
,
00001000
00000100
00011000
01010000
,
00100000
01010000
11000000
00100000
,
01010000
00010000
00011000
00000100
,
00001000
00010000
00100000
01000000
,
10000000
01000000
00010000
00000000
00001000
00000100
00000001
00000000
,
00000001
00000010
00001000
00000000
00010000
01000000
10000000
00000000
,
10000000
00100000
00010000
00000000
00001000
00000100
00000001
00000000
,
00000001
00000010
00001000
00000000
00010000
01000000
10000000
00000000
,
10000000
01000000
00010000
00000000
00001000
00000100
00000001
00000000
,
00000001
00000100
00001000
00000000
00010000
01000000
10000000
00000000
,
10000000
00010000
10000000
00000000
00010000
01000000
10000000
00000000
,
00100000
00010000
00001000
00000000
00010000
01000000
10000000
00000000
,
00010000
00001000
00000100
00000000
00001000
00000100
00000001
00000000
,
00000001
00000100
00001000
00000000
00000010
00001000
00010000
00000000
,
00001000
01000000
10000000
00000000
00100000
10000000
01000000
01000000
,
01000000
00000000
10000000
00000000
00100000
00010000
00001000
00000000
,
00001000
00010000
01000000
01000000
01000000
00000000
00000000
00000000
,
00100000
01010000
00110000
00010000
,
00011000
00000000
00001100
00000000
00000001
00000000
00001000
00000001
,
00000100
00001010
00001100
00001000
,
00011000
00000000
01010000
00000000
00110000
00000000
00010000
01000000
,
10000000
11000000
00110000
00010000
,
00011000
00000100
00000010
00011000
,
01000000
10100000
01010000
00010000
,
00001100
00011000
00110000
00010000
,
00011000
00000000
00000000
00000000
;

//---------------dance-couple - ----------------
#NOTES:
     dance-couple:
     :
     Medium:
     6:
     :
00000000
00000000
00000000
00000000
,
00000000
00000000
00000000
00000000
,
00000000
00000000
00000000
00000000
,
00000000
00000000
00000000
00000000
,
00100000
00000000
00000000
00000000
,
00000010
00000000
00000000
00000000
,
00100000
00000000
00000010
00000000
,
00100010
10011001
01000100
00100010
,
10000000
10000000
10000000
10000000
,
00000001
00000001
00000001
00000001
,
01100000
00000000
00001001
00000000
,
00100000
00000000
00100000
00000000
00100000
00000000
00100000
10000000
,
00010000
01000000
01000000
01000000
,
00000010
00000000
00000010
00000000
00000010
00000000
00000010
00001000
,
00000001
00000100
00000100
00000100
,
10000001
10000001
10000001
00000000
,
00010000
00100000
00000000
00000000
00000010
00000001
00000000
00000000
00010000
01000000
00000000
00000000
00000100
00001000
00000000
00000000
,
00100000
01000000
00000000
00000000
00000010
00000100
00000000
00000000
00010000
00100000
00000000
00000000
00000010
00001000
00000000
00000000
,
01000000
10000000
00000000
00000000
00000001
00000010
00000000
00000000
00010000
01000000
00000000
00000000
00000100
00001000
00000000
00000000
,
10000000
01000000
00000000
00000000
00000100
00000010
00000000
00000000
10000000
00010000
00000000
00000000
00000001
00001000
00000000
00000000
,
00100000
10000000
00000000
00000000
00000001
00000010
00000000
00000000
01000000
10000000
00000000
00000000
00000001
00000100
00000000
00000000
,
01000000
00100000
00000000
00000000
00000010
00001000
00000000
00000000
00010000
00100000
00000000
00000000
00000100
00001000
00000000
00000000
,
00010000
01000000
00000000
00000000
00000100
00001000
00000000
00000000
00010000
10000000
00000000
00000000
00000001
00000100
00000000
00000000
,
01000000
10000000
00000000
00000000
00000001
00001000
00000000
00000000
10000001
00000000
00000000
00000000
00000000
00000000
00000000
00000000
,
00100100
10000000
00010000
00100000
,
00010100
10000000
00100000
10000000
,
00010100
00000000
10000100
00000000
,
00100100
00100000
00100000
00000000
,
01000010
00000001
00001000
00000010
,
01001000
00000001
00000010
00000001
,
01001000
00000000
01000001
00000000
,
01000010
00000010
00000010
00000000
,
00100000
00100000
00100000
00100000
,
00000100
00000100
00000100
00000100
,
10011001
00000000
01000100
00000000
,
10001000
00010001
01000100
00100010
,
10011001
00000000
00000000
00000000
,
00100010
10001000
00010001
01000100
,
00001001
00000000
10010000
00000000
,
00100010
10001000
00010001
00000000
,
10000000
01000000
00010000
01000000
10000000
01000000
00010000
00000000
,
00001000
00000100
00000001
00000100
00001000
00000100
00000001
00000000
,
00010000
01000000
10000000
01000000
00010000
01000000
10000000
00000000
,
00000001
00000100
00001000
00000100
00000001
00000100
00001000
00000000
,
00100010
10001000
01000100
00010001
00100010
10001000
01000100
00010001
,
10001000
00100010
00010001
01000100
10001000
00100010
00010001
01000100
,
01000100
00100010
10001000
00010001
01000100
00100010
10001000
01000100
,
00010001
10001000
01000100
01000100
01000100
00000000
00000000
00000000
,
00100110
00001100
00000101
00000010
,
00101001
00000000
00000101
00000000
00001100
00000000
00000010
00000001
,
00100100
00000101
00101100
00000010
,
10011001
11001100
01010101
00100010
,
01100010
11000000
01010000
00100000
,
10010010
00000000
01010000
00000000
11000000
00000000
00100000
00010000
,
01000010
01010000
11000010
00100000
,
01100000
00001001
01000000
00000100
,
10011001
00000000
00000000
00000000
;

//---------------dance-solo - ----------------
#NOTES:
     dance-solo:
     :
     Easy:
     4:
     :
000000
000000
000000
000000
,
000000
000000
000000
000000
,
000000
000000
000000
000000
,
000000
000000
000000
000000
,
000000
000000
000000
000000
,
000100
000000
000000
000000
,
000100
000000
000000
000000
,
000100
000000
000100
000000
,
000100
100001
001000
000010
,
000001
000000
000000
000000
,
100000
000010
000000
100000
,
000001
000000
010000
000001
,
000100
000100
000100
000100
,
001000
001000
001000
001000
,
100000
000010
010000
000001
,
001000
000000
000000
000000
,
000100
000000
000000
000000
,
010000
010000
010000
010000
,
010000
010000
010000
010000
,
000010
000010
000010
000010
,
000010
000010
000010
100001
,
000100
000100
000100
000100
,
010000
010000
010000
010000
,
000010
000010
000010
000010
,
000100
000100
000100
000000
,
000100
010000
000010
000100
,
000001
100000
000100
100000
,
000001
000000
100000
000000
,
000100
000100
000100
000000
,
000100
000010
010000
001000
,
100000
000001
000100
000001
,
100000
000000
000001
000000
,
000100
000100
000100
000000
,
100000
000001
100000
000010
,
010000
000001
001000
000100
,
010000
000000
000010
000000
,
000100
000100
000100
000100
,
000010
001000
000000
000000
,
001100
000000
000000
000000
,
100000
000000
000001
000000
,
000100
000100
000100
000100
,
010000
000000
000010
000000
,
010000
000000
000010
000000
,
010000
001000
000001
010000
,
001000
001000
001000
000000
,
000001
000000
100000
000000
,
000001
000000
100000
000000
,
000010
001000
100000
001000
,
000001
000001
000001
000000
,
010000
000000
000010
000000
,
010000
000000
000010
000000
,
100000
000001
100000
000001
,
001000
001000
001000
000000
,
000001
000000
100000
000000
,
000010
000000
010000
000000
,
000010
100000
000001
001000
,
000010
000000
000000
000000
,
000100
000000
000000
000000
;

//---------------dance-solo - ----------------
#NOTES:
     dance-solo:
     :
     Medium:
     6:
     :
000000
000000
000000
000000
,
000000
000000
000000
000000
,
000000
000000
000000
000000
,
000000
000000
000000
000000
,
000000
000000
000000
000000
,
000100
000100
010000
000010
,
100000
001000
000001
001000
,
100000
000100
010000
001000
,
000010
001000
100000
000010
,
100000
100000
100000
100000
,
000001
000001
000001
000001
,
001100
000000
100001
000000
,
000100
000000
000100
000000
000100
000000
000100
010000
,
001000
000100
000100
000100
,
000001
000000
010000
000000
001000
000000
000100
000010
,
001000
000100
000100
000100
,
010000
010000
010000
000000
,
000100
000100
000100
000100
,
010000
010000
000010
000010
,
100000
000001
010000
000010
,
001000
000010
001000
010000
,
100000
000001
100000
000001
100000
000001
100000
000001
,
000100
000010
000100
000010
000100
000010
000100
000010
,
010000
000100
010000
000100
010000
000100
010000
000100
,
100000
001000
000001
010000
000010
000000
000000
000000
,
000100
010000
010000
000000
,
000100
000010
000010
000000
,
010000
000000
000010
000000
,
000100
100000
000001
000000
,
000100
010000
100000
000000
,
000100
000010
000001
000000
,
000100
000000
100000
000000
,
001000
000010
000010
000000
,
001000
001000
010000
010000
,
001000
001000
000010
000010
,
001000
000000
001000
000000
,
100000
000001
001000
000100
,
010010
000000
000000
000000
,
000100
100000
000001
001000
,
010010
000000
100001
000000
,
000100
100000
000001
000000
,
000100
010000
000010
001000
,
000100
000001
100000
001000
,
000100
000001
100000
000100
,
010000
000010
100000
000000
,
000100
000001
000100
100000
,
000100
000001
000100
100000
,
000010
000001
010000
100000
,
000100
000100
000100
000000
,
100001
001000
000100
000010
,
001000
100000
001000
000001
,
010010
001000
000100
001000
,
100001
001000
001000
000000
,
100000
000000
000010
100000
000010
000000
000000
000000
,
000001
000000
010000
000001
010000
000000
000000
000000
,
000100
000000
100000
000001
010000
000010
010000
000000
,
000010
001000
001000
001000
,
100001
000000
000000
000000
;

//---------------dance-solo - ----------------
#NOTES:
     dance-solo:
     :
     Hard:
     8:
     :
000000
000000
000000
000000
,
000000
000000
000000
000000
,
000000
000000
000000
000000
,
000000
000000
000000
000000
,
000000
000000
000000
000000
,
000100
000000
000100
000000
000100
010000
001000
000000
,
000100
000000
000100
000000
000100
000010
001000
000000
,
000100
010000
000010
001000
,
000001
100000
001000
000100
000001
000000
101000
000000
,
000100
000010
100000
001000
000100
000001
010000
001000
,
000100
000001
001000
010000
001000
000010
000100
000001
,
100000
001000
000010
001000
100000
000001
010000
001000
,
000100
000001
001000
100000
001000
000001
100000
001000
,
000001
001000
100000
000100
100000
001000
000010
001000
,
010000
000001
001000
100000
001000
000001
010000
001000
,
000100
000010
001000
010000
001000
000001
100000
001000
,
100000
000001
100000
001000
100001
000000
000000
000000
,
000001
000100
000000
000000
000100
000001
000000
000000
000001
001000
000000
000000
001000
010000
000000
000000
,
010000
001000
000000
000000
001000
000010
000000
000000
000010
000100
000000
000000
000100
100000
000000
000000
,
100000
000100
000000
000000
000100
000001
000000
000000
000001
001000
000000
000000
001000
100000
000000
000000
,
100000
001000
000000
000000
001000
000001
000000
000000
000001
100000
000000
000000
100000
000001
000000
000000
,
000001
010000
000000
000000
010000
000100
000000
000000
000100
100000
000000
000000
100000
001000
000000
000000
,
001000
000100
000000
000000
000100
000010
000000
000000
000010
000100
000000
000000
000100
000001
000000
000000
,
000001
001000
000000
000000
001000
000001
000000
000000
000001
100000
000000
000000
100000
001000
000000
000000
,
001000
100000
000000
000000
100000
000001
000000
000000
001000
000000
000000
000000
000000
000000
000000
000000
,
000100
101000
001001
000100
,
001000
001001
101000
000100
,
010010
001000
000100
100001
,
001000
000110
001000
100001
,
000100
010100
001000
100001
,
101000
000100
010010
001001
,
001000
000101
001000
100001
,
001001
000100
100001
101000
,
000100
001001
101000
000100
,
101000
001000
001001
001000
,
000100
000010
010000
001000
,
100000
001000
000001
000000
010000
001000
000001
000000
,
100000
001000
000001
000000
010000
001000
000001
000000
,
000001
001000
100000
000000
000010
001000
100000
000000
,
000001
001000
100000
000000
000010
001000
100000
000000
,
100000
001000
000001
001000
010000
001000
000001
001000
,
100000
001000
000010
001000
100000
001000
000001
001000
,
000001
001000
100000
001000
000010
001000
100000
001000
,
000001
001000
010000
001000
000001
001000
100000
001000
,
000001
000100
100000
001000
000001
000100
100000
001000
,
000100
010000
001000
000010
000100
100000
001000
000001
,
100000
000100
000001
001000
010000
000100
000010
001000
,
001000
000100
010000
000010
001000
000100
100000
001000
,
000001
100000
001000
001000
001000
000000
000000
000000
,
001100
101000
001001
000100
,
000010
000000
001001
000000
101000
000000
000100
000001
,
001000
001001
101000
000100
,
010000
000000
101000
000000
001001
000000
000100
100000
,
001000
010100
000110
001000
,
100001
000000
001000
000000
000100
000000
010000
001000
,
001000
101000
001001
001000
,
001100
100001
001000
001000
,
100001
000000
000000
000000
;
