#TITLE:SABER WING;
#SUBTITLE:(25th Anniversary Special);
#ARTIST:TAG;
#TITLETRANSLIT:;
#SUBTITLETRANSLIT:;
#ARTISTTRANSLIT:;
#GENRE:;
#CREDIT:;
#MUSIC:SABER WING (25th Anniversary Special).ogg;
#BANNER:SABER WING (25th Anniversary Special)-bn.png;
#BACKGROUND:SABER WING (25th Anniversary Special)-bg.png;
#CDTITLE:;
#SAMPLESTART:0.767;
#SAMPLELENGTH:20.000;
#SELECTABLE:YES;
#OFFSET:1.125;
#BPMS:0.000=222.000;
#STOPS:100.000=0.540
,280.000=1.352
;
#DISPLAYBPM:222.000;
#ORIGIN:;
#PREVIEWVID:;
#JACKET:SABER WING (25th Anniversary Special)-jacket.png;
#CDIMAGE:;
#DISCIMAGE:;
#BGCHANGES:;
#FGCHANGES:;

//--------------- dance-single - ----------------
#NOTES:
     dance-single:
     :
     Challenge:
     13:
     0.71706,0.760428,0.648898,0.792038,0,526,458,68,83,0,0,0,0,0,0.71706,0.760428,0.648898,0.792038,0,526,458,68,83,0,0,0,0,0:
0000
0000
0000
0000
,
0000
0000
1100
1001
,
0000
0010
0000
0100
0002
0000
1000
0000
,
0103
0000
0101
0000
0000
0010
0000
1000
,
0200
0001
0310
1100
,
0000
1000
0000
0010
2000
0000
0001
0000
,
3100
2010
0001
3100
,
0201
1000
0301
0110
,
0000
0010
0000
1000
0200
0000
0010
0000
,
0301
0000
1100
0000
0000
0001
0000
0100
,
0020
0000
0001
0000
1030
0000
1001
0100
,
0000
0010
0000
1000
0002
0000
0010
0000
,
0103
0210
1000
0301
,
0100
0010
0100
0001
1000
0000
1100
0000
,
0001
1000
0100
0000
0011
0000
0100
0001
,
0010
2000
3002
2003
,
3001
0100
0010
1000
0001
0000
0101
0000
,
0010
1000
0001
0000
1010
0000
1000
0100
,
0010
0002
0203
0320
,
2030
0000
3100
0010
0001
0000
1001
0000
,
1000
0010
0001
0000
0101
0000
0100
0001
,
0010
0200
2300
3200
,
0310
0001
1000
0001
0100
0000
0110
0000
,
1000
0001
0010
0000
1100
0000
1000
0010
,
0100
0000
1000
0001
1000
0010
0100
0001
,
1001
0000
0101
0000
1000
0010
0000
1000
,
0200
0010
0301
1100
,
0010
1000
0000
0001
2000
0000
0100
0000
,
3001
0000
1010
0000
0100
0001
0000
1000
,
0002
0010
0103
0210
,
1000
0301
0021
1000
,
0130
0000
1001
0000
0010
1000
0000
0001
,
0020
1000
0130
0110
,
0010
0001
0000
1000
0020
0000
0100
0000
,
1030
0000
0110
0001
0000
1000
0010
0100
,
0002
0000
0010
0000
1003
0000
0100
0001
,
0100
0010
1000
0001
0011
0000
0110
0000
,
1100
0000
0001
0100
0010
1000
0000
0100
,
2000
0000
3002
0000
1003
0010
0100
0010
,
0000
1000
0002
0000
0203
0000
0301
0100
,
0001
1000
0000
0010
2000
0000
3200
0000
,
0310
0001
0100
0001
0000
1000
0020
0000
,
0230
0000
0310
1000
0001
1000
0000
0100
,
0020
0000
0032
0000
0103
0001
0100
0010
,
0000
1000
0002
0000
2003
0000
3001
0010
,
0100
1000
0000
0010
2000
0000
3002
0000
,
1003
0010
0100
0010
0000
0100
0002
0000
,
2003
0000
3100
0010
0001
0100
0000
0001
,
1000
0000
0010
1000
0100
0010
0001
0100
,
0000
0001
1000
0000
0001
0100
0001
0100
,
0010
1000
0000
0100
0010
0000
0001
1000
,
0001
1000
0010
0100
0000
0010
1000
0000
,
0100
0010
0001
0000
0100
0010
0100
0001
,
0100
0000
0010
1000
0010
0100
0010
0000
,
1000
0001
1000
0100
0010
0000
0001
1000
,
0010
1000
0002
0000
0100
0000
0100
0000
,
1000
1000
1003
0022
,
0000
0030
2003
0100
,
3001
1001
0100
0010
,
1000
0001
1000
0010
,
0000
0100
0010
0100
0010
0000
0000
0000
,
0000
1000
0100
1000
,
0001
0000
0100
0010
,
0000
1000
0001
1000
0100
0000
0010
0000
,
0001
0101
0010
1000
,
1100
0001
1000
0110
,
0000
1000
0010
0100
0101
0000
0000
0000
,
0000
0011
0100
1000
,
1010
0100
0001
0101
,
1100
0101
1001
0110
,
1001
0000
0010
0000
2020
0000
0030
3001
,
0100
0202
0300
2003
,
3002
0000
0023
0000
0230
0000
1300
0001
,
1000
0000
0110
0000
0101
0000
0010
1000
,
0100
2100
0100
3002
,
2003
0000
3020
0000
0230
0000
0301
0010
,
0001
0010
0100
0000
1001
0000
1000
0001
,
0010
0012
0100
2003
,
3020
0000
2030
0000
3200
0000
0310
0001
,
0010
0000
0011
0000
1001
0000
1000
0010
,
1000
0220
0030
0302
,
2003
0000
3002
0000
2003
0000
3010
0100
,
0010
1000
0100
0010
0002
0000
0103
0010
,
1000
0001
1000
0010
1000
0001
0100
0000
,
0110
0000
1010
0000
1001
0000
1100
0010
,
0001
1000
0002
0000
0203
0000
0310
1000
,
0001
1000
0200
0000
0310
0001
1000
0000
,
0101
0000
1010
0000
1100
0000
0011
1000
,
0001
1000
0100
0000
1002
0000
0013
0001
,
0100
0001
2000
0000
0010
0000
3010
0000
,
2100
0000
3002
0000
2003
0000
3010
0100
,
0001
0000
0011
0000
0102
0000
1003
0010
,
1000
0001
1020
0000
0100
0000
0230
0000
,
0301
0010
0001
0100
0010
1000
1001
0000
;
