#TITLE:S.F.M;
#SUBTITLE:;
#ARTIST:KC hospital;
#TITLETRANSLIT:;
#SUBTITLETRANSLIT:;
#ARTISTTRANSLIT:;
#GENRE:;
#CREDIT:;
#BANNER:S.F.M-bn.png;
#BACKGROUND:S.F.M-bg.png;
#LYRICSPATH:;
#CDTITLE:;
#MUSIC:S.F.M.ogg;
#OFFSET:1.000000;
#SAMPLESTART:14.600000;
#SAMPLELENGTH:20.000000;
#SELECTABLE:YES;
#DISPLAYBPM:200.000000;
#BPMS:0.000000=200.000000
;
#STOPS:
;
#BGCHANGES:;
#KEYSOUNDS:;
#ATTACKS:;

//---------------dance-single - ----------------
#NOTES:
     dance-single:
     :
     Hard:
     13:
     0.636709,0.791541,0.211607,0.264508,0.059514,337.000000,321.000000,16.000000,20.000000,0.000000,0.000000,0.636709,0.791541,0.211607,0.264508,0.059514,337.000000,321.000000,16.000000,20.000000,0.000000,0.000000:
0000
0000
0000
0000
,
0000
0000
0000
0000
,
0000
0000
0000
0000
,
0000
0000
0000
0000
,
0000
0000
0000
0000
,
0000
0000
0000
0000
,
0000
0000
0000
0000
,
0000
0000
0000
0000
,
0000
0000
0000
0000
,
0000
0000
0000
0000
,
0000
0000
0000
0000
,
0010
0000
0010
0000
,
0010
0010
0010
0010
,
1001
0000
0100
0001
0100
0001
0100
0010
,
1000
0100
1000
0002
0000
0000
0000
0000
,
0013
0000
0001
0100
0001
1000
0100
0000
,
1000
0010
1000
0002
0000
0000
0013
0000
,
0110
0000
0100
1000
0100
1000
0001
1000
,
0001
0100
0010
2000
0000
0000
0100
0000
,
3100
0000
1000
0001
0020
0000
0000
0031
,
1000
0001
1000
0010
0100
0001
1000
0100
,
0010
0000
0001
1000
0001
0000
0100
0010
,
1000
0000
0100
1000
0001
0000
0010
0200
,
1000
1000
0001
0001
,
1300
0100
1100
0000
0001
0100
0101
0000
,
0010
0000
1000
0001
1000
0000
0100
0010
,
0001
0000
0010
0001
1000
0010
0100
0002
,
0010
1000
0010
1000
,
0013
0001
0011
0000
1000
0010
1010
0000
,
0100
0001
0100
0001
0100
0010
0100
0001
,
1000
0100
1000
0020
0000
0230
0000
0302
,
1000
0000
0010
0010
0000
0100
0100
0000
,
1003
0001
0010
0001
0100
0010
1000
0001
,
0200
0000
0010
0010
0010
0000
1000
0000
,
0301
0000
0010
0001
0010
0100
1000
0000
,
0001
0000
1000
0010
0100
0010
1000
0000
,
0101
0000
0000
0101
0000
0000
0000
0000
1000
0000
0010
0000
1000
0001
1000
0001
,
1000
0000
0010
0100
0010
1000
0010
0000
,
0100
0001
1000
0002
0010
0000
0100
0000
,
0013
0000
0001
1000
0001
0100
0010
0000
,
1000
0100
1000
0020
0100
0000
0001
0000
,
0130
0000
0010
0100
0001
1000
0100
0000
,
0010
0001
1000
0001
1000
0010
0100
0000
,
0001
0000
0010
0001
1000
0001
0100
0000
,
0010
0000
1000
0000
0100
0000
0010
0000
0001
0000
1000
0000
0001
0100
0001
0000
,
1000
0000
1010
0000
0001
0100
0001
0010
,
0100
1000
0001
0000
0011
0000
0100
2000
,
0001
0000
0010
0000
0001
0001
0001
0000
,
3100
1000
1100
0000
0010
0001
0011
0000
,
0100
0000
0001
0010
0001
0100
0010
1000
,
0100
0010
0100
0010
0100
1000
0001
0200
,
0010
0010
0010
0000
0001
0001
0301
0000
,
0100
0010
0110
0000
0001
1000
1001
0000
,
0010
0000
0001
1000
0001
0100
0010
1000
,
0100
1000
0010
0200
0000
0302
0000
2003
,
0001
0000
3010
1000
0100
0010
0001
1000
,
0001
0000
0100
0001
0010
0100
1000
0000
,
2001
0000
0010
0000
3001
0100
0001
1000
,
0010
1000
0100
0010
0001
0100
0001
1000
,
0001
0000
0010
0000
0001
0000
0100
0000
0010
0000
1000
0000
0100
0010
0100
0010
,
0100
0000
1000
0001
1000
0010
0100
0001
,
0021
0000
0000
0001
0000
0000
0001
0000
0031
0000
0100
0000
0010
0000
1000
0001
,
2000
0000
0000
0000
0000
0000
0000
0000
0000
0000
0000
0000
3000
0000
0010
0100
,
0010
0000
0000
0000
;

//---------------dance-single - ----------------
#NOTES:
     dance-single:
     :
     Medium:
     10:
     0.426992,0.583241,0.211607,0.423213,0.000000,226.000000,210.000000,16.000000,32.000000,0.000000,0.000000,0.426992,0.583241,0.211607,0.423213,0.000000,226.000000,210.000000,16.000000,32.000000,0.000000,0.000000:
0000
0000
0000
0000
,
0000
0000
0000
0000
,
0000
0000
0000
0000
,
0000
0000
0000
0000
,
0000
0000
0000
0000
,
0000
0000
0000
0000
,
0000
0000
0000
0000
,
0000
0000
0000
0000
,
0000
0000
0000
0000
,
0000
0000
0000
0000
,
0000
0000
0000
0000
,
0010
0000
0010
0000
,
0010
0010
0010
0010
,
1001
0000
0100
0001
0100
0001
0100
0000
,
0010
1000
0001
2000
0000
0000
0000
0000
,
0000
0000
3100
1000
0001
0200
0000
0000
,
0310
0100
0010
1000
0000
0000
0101
0000
,
1100
0000
0001
1000
0001
0200
0000
0000
,
0310
1000
0001
2000
0000
0000
0000
0000
,
0000
0000
3100
0020
0000
0000
0000
0031
,
1000
0100
1000
0002
0000
0000
0003
0000
,
0110
0000
0010
1000
0010
0000
0100
0001
,
0100
0000
0001
1000
0001
0000
0010
0200
,
0000
0000
0000
0000
,
1300
1100
0001
0101
,
0010
0000
1000
0100
1000
0000
0001
0010
,
0001
0000
0010
0100
0010
0001
1000
0200
,
0000
0000
0000
0000
,
0310
0011
1000
1010
,
0100
0000
0001
0010
0001
0010
0100
0000
,
1000
0001
1000
0020
0000
0230
0000
0302
,
0000
0000
0000
0010
0000
0000
0100
0000
,
1000
0000
0000
1000
0000
0000
0103
0000
,
0220
0000
0000
0300
,
1000
0000
0000
0100
0000
0000
1030
0000
,
0001
0000
0000
0010
0000
0000
0100
0000
,
2000
0000
0000
0000
3001
1000
0001
1000
,
0100
0000
0010
0001
0010
0001
0010
0000
,
0001
1000
0001
0200
0000
0000
0000
0000
,
0000
0000
0310
1000
0001
2000
0000
0000
,
3100
0010
0100
2000
0000
0000
3000
0000
,
1001
0000
0010
0100
0010
0200
0000
0000
,
0301
1000
0001
0020
0000
0000
0000
0000
,
0000
0000
0031
2000
0000
0000
0000
0000
,
3010
1000
0100
0020
0000
0000
0031
1000
,
0001
0000
2000
0000
3001
0010
0001
0010
,
0100
1000
0001
0000
0100
0000
0010
2000
,
0000
0000
3000
1100
,
0001
0101
1000
1100
,
0010
0000
0001
1000
0001
1000
0100
0000
,
0010
0001
0010
0100
1000
0000
0001
0200
,
0000
0000
0000
0000
,
0310
1010
0001
0011
,
0100
0000
1000
0001
1000
0001
1000
0000
,
0010
0100
0001
2000
0000
3200
0000
0320
,
0000
0000
0000
0001
0000
0000
1000
0000
,
0100
0000
0000
1000
0000
0000
0031
0000
,
0220
0000
0000
0030
,
0001
0000
0000
0010
0000
0000
1300
0000
,
0100
0000
0000
1000
0000
0000
0010
0100
,
0002
0000
0000
0000
1003
0001
1000
0001
,
0200
0000
0000
0000
0310
1000
0001
0010
,
0200
0000
0000
0000
0000
0000
0300
1000
,
0010
0000
0000
0000
;

//---------------dance-single - ----------------
#NOTES:
     dance-single:
     :
     Easy:
     6:
     0.275844,0.374940,0.158705,0.158705,0.000000,146.000000,134.000000,12.000000,12.000000,0.000000,0.000000,0.275844,0.374940,0.158705,0.158705,0.000000,146.000000,134.000000,12.000000,12.000000,0.000000,0.000000:
// measure 0
0000
0000
0000
0000
,  // measure 1
0000
0000
0000
0000
,  // measure 2
0000
0000
0000
0000
,  // measure 3
0000
0000
0000
0000
,  // measure 4
0000
0000
0000
0000
,  // measure 5
0000
0000
0000
0000
,  // measure 6
0000
0000
0000
0000
,  // measure 7
0000
0000
0000
0000
,  // measure 8
0000
0000
0000
0000
,  // measure 9
0000
0000
0000
0000
,  // measure 10
0000
0000
0000
0000
,  // measure 11
0000
0000
0000
0000
,  // measure 12
0000
0000
0000
0000
,  // measure 13
0010
1000
0010
0100
,  // measure 14
0001
0001
0002
0000
,  // measure 15
0013
0001
0100
0010
,  // measure 16
1000
1000
2000
0000
,  // measure 17
3001
0100
0001
0000
,  // measure 18
1000
0100
1000
0000
,  // measure 19
0010
0100
0010
0000
,  // measure 20
0100
0001
1000
0000
,  // measure 21
0001
0001
1000
1000
,  // measure 22
0001
0010
0001
0100
,  // measure 23
0020
0000
0000
0000
,  // measure 24
0030
1010
0000
0101
,  // measure 25
0000
1000
0100
1000
,  // measure 26
0010
0100
0001
1000
,  // measure 27
0200
0000
0000
0300
,  // measure 28
0010
0011
0000
1100
,  // measure 29
0000
0001
0010
0001
,  // measure 30
0100
0010
1000
0001
,  // measure 31
0200
0000
0000
0000
,  // measure 32
0000
0000
0000
0300
,  // measure 33
0020
0000
0000
0030
,  // measure 34
1000
0000
1000
0000
,  // measure 35
0001
0000
0001
0000
,  // measure 36
0110
0000
1001
0000
,  // measure 37
0100
0001
0010
0100
,  // measure 38
1000
0001
2000
0000
,  // measure 39
3010
1000
0010
0100
,  // measure 40
0001
0010
0200
0000
,  // measure 41
1300
0100
1000
0000
,  // measure 42
0001
0100
0001
0000
,  // measure 43
0100
0010
0100
0000
,  // measure 44
0010
1000
0001
0000
,  // measure 45
0000
0010
0001
0100
,  // measure 46
0010
1000
0001
1000
,  // measure 47
0200
0000
0000
1300
,  // measure 48
0000
1010
0000
0011
,  // measure 49
0000
0100
1000
0001
,  // measure 50
1000
0010
0100
0001
,  // measure 51
2000
0000
0000
0000
,  // measure 52
3000
1100
0000
0101
,  // measure 53
0000
0010
0100
0001
,  // measure 54
0010
0001
0100
0010
,  // measure 55
2000
0000
0000
0000
,  // measure 56
0000
0000
0000
3000
,  // measure 57
0002
0000
0000
0000
,  // measure 58
0103
0000
0010
0000
,  // measure 59
1000
0000
0010
0000
,  // measure 60
0110
0000
1001
0000
,  // measure 61
0001
0001
0001
0001
,  // measure 62
1000
1000
1000
1000
,  // measure 63
0010
0000
0000
0000
;

//---------------dance-single - ----------------
#NOTES:
     dance-single:
     :
     Beginner:
     1:
     0.119029,0.166640,0.000000,0.000000,0.000000,63.000000,63.000000,0.000000,0.000000,0.000000,0.000000,0.119029,0.166640,0.000000,0.000000,0.000000,63.000000,63.000000,0.000000,0.000000,0.000000,0.000000:
0000
0000
0000
0000
,
0000
0000
0000
0000
,
0000
0000
0000
0000
,
0000
0000
0000
0000
,
0000
0000
0000
0000
,
0000
0000
0000
0000
,
0000
0000
0000
0000
,
0000
0000
0000
0000
,
0000
0000
0000
0000
,
0000
0000
0000
0000
,
0000
0000
0000
0000
,
0000
0000
0000
0000
,
0000
0000
0000
0000
,
0010
0000
0000
0000
,
1000
0000
0000
0000
,
0001
0000
0000
0000
,
0100
0000
0000
0000
,
0001
0000
0000
0000
,
0010
0000
0000
0000
,
0100
0000
0000
0000
,
1000
0000
0000
0000
,
0000
0000
0010
0000
,
1000
0000
0010
0000
,
0100
0000
0000
0000
,
0000
0001
0000
0001
,
0000
0000
1000
0000
,
0010
0000
1000
0000
,
0001
0000
0000
0000
,
0000
0100
0000
0100
,
0000
0000
0010
0000
,
0100
0000
0001
0000
,
1000
0000
0000
0000
,
0001
0000
0000
0000
,
0100
0000
0000
0000
,
0010
0000
0000
0000
,
1000
0000
0001
0000
,
0100
0000
0000
0000
,
0001
0000
0000
0000
,
0010
0000
0000
0000
,
0100
0000
0000
0000
,
1000
0000
0000
0000
,
0100
0000
0000
0000
,
0010
0000
0000
0000
,
0001
0000
0000
0000
,
1000
0000
0000
0000
,
0000
0000
0001
0000
,
1000
0000
0100
0000
,
0010
0000
0000
0000
,
0000
0001
0000
0001
,
0000
0000
1000
0000
,
0100
0000
1000
0000
,
0010
0000
0000
0000
,
0000
0100
0000
0100
,
0000
0000
0001
0000
,
0010
0000
0100
0000
,
1000
0000
0000
0000
,
0001
0000
0000
0000
,
0100
0000
0000
0000
,
0010
0000
0000
0000
,
0100
0000
0001
0000
,
1000
0000
0000
0000
,
0010
0000
0000
0000
,
0010
0000
0000
0000
,
0010
0000
0000
0000
;
