#TITLE:Ryusei Honey;
#ARTIST:Akira Shintani;
#BANNER:Ryusei Honey-bn.png;
#BACKGROUND:Ryusei Honey-bg.png;
#JACKET:Ryusei Honey-jacket.png;
#MUSIC:Ryusei Honey.ogg;
#SAMPLESTART:12.938;
#SAMPLELENGTH:20;
#DISPLAYBPM:148;
#BPMS:0=148;
#BGCHANGES:;

//---------------dance-single - ----------------
#NOTES:
     dance-single:
     :
     Beginner:
     4:
     :
0000
0000
0000
0000
,
0000
0000
0000
0000
,
1000
0000
1000
0000
,
0001
0000
0001
0000
,
1000
0000
0100
0000
,
0010
0000
0001
0000
,
0100
0000
0100
0000
,
0010
0000
0010
0000
,
1000
0000
1000
0000
,
0001
0000
0001
0000
,
0010
0000
0001
0000
,
0100
0100
0100
0000
,
0010
0000
1000
0000
,
0001
0000
0000
0100
,
0100
0000
0010
0000
,
1000
0000
0001
0001
,
0000
1001
0000
0100
,
0000
0000
0010
0010
,
0000
0110
0000
0001
,
0000
0000
1000
1000
,
0000
1001
0000
0010
,
0000
0000
1000
1000
,
0000
0110
0000
0100
,
0000
0000
0010
0010
,
0000
0110
0000
0001
,
0000
0000
0010
0010
,
0000
1001
0000
1000
,
0000
0000
0100
0100
,
0000
0110
0000
1000
,
0000
0000
0001
0001
,
0000
1001
0000
1000
,
0000
0000
0010
0010
,
0020
0000
0000
0000
,
0000
0000
0030
0000
,
1000
0000
0001
0000
,
0100
0100
0100
0000
,
0001
0000
0010
0000
,
1000
0000
0000
0100
,
0100
0000
1000
0000
,
0001
0000
0100
0100
,
0100
0000
0010
0000
,
1000
0000
1000
0000
,
0100
0000
0010
0000
,
0001
0000
1000
0000
,
0001
0000
0001
0000
,
0100
0000
0010
0000
,
0100
0000
0001
0000
,
1000
0000
1000
0000
,
0000
0000
0010
0000
,
1000
0000
0001
0000
,
1000
0000
0100
0000
,
1000
0000
0010
0000
,
0000
0000
0100
0000
,
0001
0000
0010
0000
,
0001
0000
0100
0000
,
0010
0000
1000
0000
,
0002
0000
0000
0000
,
0000
0000
0003
0000
,
1000
0000
0001
0000
,
1000
1000
1000
0000
,
0010
0010
0010
0000
,
0100
0100
0100
0000
,
0010
0000
1000
0000
,
0100
0100
0100
0000
,
0010
0000
0001
0000
,
0010
0000
0001
0000
,
0100
0000
0010
0000
,
1000
1000
1000
0000
,
0001
0000
0010
0000
,
0001
0000
0000
1000
,
1000
0000
0010
0000
,
1000
0000
0001
0001
,
0001
0000
0000
0000
;

//---------------dance-single - ----------------
#NOTES:
     dance-single:
     :
     Easy:
     7:
     :
0000
0000
0000
0000
,
0000
0000
0000
0000
,
1000
1000
0001
0001
,
1000
0001
0100
0000
,
0001
0001
1000
1000
,
0010
1000
0100
0000
,
0010
0010
0100
0100
,
0010
0001
1000
0000
,
0001
0100
0010
0100
,
0001
0010
0001
1000
,
0100
0100
1000
0010
,
1001
0110
1001
0000
,
0001
0010
0100
1000
,
0010
1000
0001
0100
,
0010
0010
1000
0001
,
0110
1001
0110
0000
,
0000
0000
1001
0000
0000
0000
0100
0010
,
0000
0000
2000
0002
,
3003
0000
0110
0000
0000
0000
0001
1000
,
0000
0000
0200
2000
,
3300
0000
1010
0000
0000
0000
0100
0001
,
0000
0000
0020
0002
,
0033
0000
0011
0000
0000
0000
1000
0001
,
0000
0000
0000
0000
0100
0010
0100
0000
,
0000
0000
0101
0000
0000
0000
0010
0100
,
0000
0000
0002
2000
,
3003
0000
1100
0000
0000
0000
1000
0010
,
0000
0000
0000
0000
0100
0001
0100
0001
,
0000
0000
0011
0000
0000
0000
1000
0001
,
0000
0000
2000
0020
,
3030
0000
1010
0000
0000
0000
0100
0010
,
0000
0000
2000
3002
,
0013
0001
0100
0010
,
1000
0100
0001
1000
,
0010
0010
1000
1000
,
1100
0110
0011
0000
,
0100
0001
0100
0010
,
1000
0100
1000
0001
,
0010
0010
0001
1000
,
0101
1100
0101
0000
,
0010
0000
1000
0000
,
0100
1000
0001
0000
,
0010
0000
0001
0000
,
0100
0100
0010
0000
,
0100
0000
0001
0000
,
0010
0100
1000
0000
,
0010
0000
1000
0000
,
0001
0001
1000
0100
,
1000
0010
1000
0001
,
0010
0100
1000
0000
,
2020
0030
0002
3003
,
0202
0300
2000
3003
,
0010
1000
0100
1000
,
0001
0010
1000
0000
,
2200
0300
0002
3003
,
0022
0030
0200
0303
,
1000
1000
1000
0100
,
1000
1000
0001
0001
,
0100
0100
0010
1000
,
0001
0001
0001
0000
,
1001
1010
1100
0000
,
1001
0101
0011
0000
,
1000
0010
0001
0100
,
0010
0010
1010
0000
,
1000
0001
1000
0010
,
0100
0001
0010
0100
,
1000
0010
1000
0001
,
0100
0010
2000
3002
,
0013
0001
0100
0010
,
0100
0001
0010
0100
,
1000
0010
1000
0001
,
0100
0010
1000
0001
,
0220
0000
0000
0000
,
0000
0000
0000
0000
,
0000
0000
0000
0000
,
0000
0000
0000
0000
,
0330
0000
0000
0000
;

//---------------dance-single - ----------------
#NOTES:
     dance-single:
     :
     Medium:
     10:
     :
0000
0000
0000
0000
,
0000
0000
0000
0000
,
1000
0000
0001
0000
1000
0100
0010
0000
,
0001
0000
0100
0000
0010
1000
0001
0000
,
0100
0110
0010
1010
,
1000
0000
1001
0000
0001
0100
0010
0000
,
1000
1100
0010
0011
,
0100
0000
0101
0000
0001
1000
0100
0000
,
0010
0000
0001
0000
1000
0000
0001
0100
,
0010
1000
0100
0001
,
1001
0000
0110
0000
1000
0100
0001
0100
,
1000
1010
0101
0000
,
0002
0000
0013
0000
2000
0000
3100
0010
,
0002
1000
0100
1003
,
0011
0000
1100
0000
0001
0100
1000
0100
,
0002
1003
0110
1001
,
0010
0000
1100
0000
0000
0000
1000
0001
,
0100
0010
2000
3002
,
0013
0000
0011
0000
0000
0000
1000
0001
,
0100
0000
0000
0000
0001
0010
1000
0000
,
0100
0000
1010
0000
0000
0000
0100
0010
,
1000
0001
2000
3200
,
0310
0000
0011
0000
0000
0000
0001
0010
,
0100
0000
0000
0000
1000
0010
0001
0000
,
0100
0000
1001
0000
0010
0000
1000
0100
,
0010
0001
0100
0000
0002
0000
2003
0000
,
3010
0000
1010
0000
0100
0000
0001
0010
,
0100
0000
0000
0000
1000
0001
1000
0001
,
0000
0000
0101
0000
0000
0000
0010
1000
,
0100
0000
0010
0000
0001
0100
1000
0000
,
0010
0000
1001
0000
0100
0000
0001
1000
,
0100
0010
0002
2003
,
3010
0000
1000
0000
0100
0000
1000
0001
,
0010
0100
1000
0001
,
0101
0000
1100
0000
0001
0100
1000
0100
,
0001
0011
1100
0000
,
0020
0000
1030
0000
0002
0000
0013
0100
,
2000
0010
0001
3010
,
1010
0000
0011
0000
1000
0100
0001
0100
,
2000
0010
0001
3100
,
0010
0000
0000
1000
0001
0000
0000
0000
,
0011
0000
0101
0000
1000
0001
0000
0000
,
0100
0000
0000
0010
1000
0000
0000
0000
,
0200
0000
0320
0000
0031
1000
0000
0000
,
0010
0000
0000
0100
0001
0000
0000
0000
,
1010
0000
1100
0000
0001
1000
0000
0000
,
0001
0000
0000
1000
0100
0000
0000
0000
,
2000
0000
3002
0000
0103
0010
0100
0010
,
0100
0000
0002
0000
0013
0100
2000
0000
,
3010
1000
0002
0000
1003
0100
0010
0000
,
0012
0000
0100
0000
1003
0001
0100
0000
,
2010
0000
0001
0000
3010
1000
0100
0000
,
0000
0001
2000
0000
3010
1000
0200
0000
,
0310
0001
2000
0000
3001
1000
0100
0000
,
1002
0000
0010
0000
1003
0001
0100
0000
,
0120
0000
1000
0000
0130
0001
0010
0000
,
0001
0000
0001
0000
0001
0000
1000
0100
,
0001
0001
1000
1000
,
0010
0000
0100
0000
0001
1000
0001
1000
,
0001
0110
1001
0000
,
1100
0110
0011
0100
,
0011
0110
1100
0010
,
1000
0001
0100
0000
0001
1000
0100
0000
,
0010
0001
0100
0000
1000
0000
0000
0000
,
0010
0000
1000
0000
0100
0000
1000
0010
,
0001
0100
0010
1000
,
1100
0000
0101
0000
0010
1000
0100
1000
,
0001
0011
2100
3002
,
0203
0000
0310
0000
2000
0000
3001
1000
,
0200
0001
1300
0110
,
0012
0000
0103
0000
1000
0010
0100
0010
,
2000
3001
1010
0100
,
0202
0000
0000
0000
,
0000
0000
0000
0000
,
0000
0000
0000
0000
,
0000
0000
0000
0000
,
0303
0000
0000
0000
;

//---------------dance-single - ----------------
#NOTES:
     dance-single:
     :
     Hard:
     12:
     :
0000
0000
0000
0000
,
0000
0000
0000
0000
,
1000
0100
0001
0000
0010
0001
0100
0000
,
0001
0000
0010
0000
1000
0000
0000
0000
0100
0000
1000
0000
0001
0000
0100
0010
,
0100
0000
0110
0001
1000
0010
1000
0001
,
0010
0000
1100
0010
1000
0001
0100
0000
,
0001
0010
1000
0010
1000
0100
0001
0000
,
0010
0001
0100
0001
0010
0100
1000
0000
,
1001
0000
1100
0000
0101
0000
0010
1000
,
0100
0110
0011
0101
,
1001
0000
0110
0000
1000
0100
0001
0100
,
1000
0000
1010
0000
0101
0010
1000
0000
,
0002
0100
0103
0001
2000
0100
3100
0010
,
0002
1000
0103
0011
,
2100
0000
3010
0000
2000
0001
3001
0100
,
0020
1030
0101
1100
,
0001
0100
1001
0000
0010
0000
1000
1000
,
0100
0010
0001
0000
2000
0001
3002
0000
,
0103
0000
0110
0000
0010
0000
1000
0001
,
0010
0100
1000
0000
0002
0100
0203
0000
,
0310
1000
1010
0000
0100
0001
0010
0100
,
1000
0001
0100
0010
2000
0001
3002
0000
,
0013
0000
0011
0000
1000
0000
0001
0100
,
0010
1000
0100
0010
0002
1000
2003
0000
,
3010
0100
0101
0000
0010
1000
0001
1000
,
0100
0010
0001
0000
0100
0001
2000
0000
,
3010
0100
1001
0000
0010
1000
0100
0001
,
0100
1000
0001
0000
0100
0010
0100
0010
,
1000
0000
0101
0001
0010
0000
1000
0100
,
0001
0010
0100
0000
1000
0001
0200
0000
,
0310
0000
0110
0001
1000
0000
0100
0010
,
0001
0100
0010
0000
2000
0001
3002
0000
,
0013
0001
0100
0010
1000
0000
0100
1000
,
0010
0100
1000
0100
0001
0000
1000
0000
,
1100
0000
0011
0000
0100
0010
1000
0001
,
0010
0000
1100
0000
0101
0010
1000
0000
,
0002
0010
0013
0100
2000
0001
3001
0100
,
0020
0000
1000
0000
0031
0010
1010
0000
,
1001
0100
0010
0000
2000
0001
3001
0100
,
0002
0000
0010
0000
0013
0000
0000
0000
2000
0000
0001
0000
3001
0000
1000
0100
,
1000
0000
0000
0001
0100
0000
0000
0000
,
0001
0010
1000
0001
1000
0100
0001
0000
,
0010
0000
0000
0001
1000
0000
0000
0000
,
1000
0010
0000
0000
1000
0001
0000
0000
0100
0000
0100
0000
0010
0000
0000
0000
,
0100
0000
0000
0001
0010
0000
0000
0000
,
0001
0100
1000
0001
1000
0010
0001
0000
,
1000
0000
0000
0100
0010
0000
0000
0000
,
0001
0100
0000
0000
0001
1000
0000
0000
0010
0000
0010
0000
0010
0000
0010
0000
,
1000
0100
0001
0010
0001
0100
1000
0000
,
1010
0100
0001
0000
0011
0100
1000
0000
,
0002
0100
0103
0010
2000
0001
3001
0000
,
0020
1000
1030
0001
2000
0100
3100
0000
,
0010
0001
0100
1000
0010
1000
0001
0000
,
0110
0001
1000
0000
1001
0010
0100
0000
,
0002
0010
0013
1000
0002
0100
0103
0000
,
0020
1000
1030
0100
0020
0001
0031
0000
,
1001
0000
0011
0000
1100
0000
0001
1000
,
0010
1100
0110
0011
,
1100
0000
0101
0000
0001
0010
1000
0010
,
0001
0101
1010
0000
,
1001
0000
1010
0000
1100
0000
0001
1000
,
1001
0000
0101
0000
0011
0000
0100
0010
,
1000
0000
0100
0000
0001
0000
0100
0000
1000
0010
1000
0010
1000
0010
1000
0010
,
1000
0100
0001
0100
1000
0000
0000
0000
,
0011
0000
1001
0000
1010
0000
0100
0001
,
0010
1001
0101
0110
,
1010
0000
1100
0000
0001
0100
1000
0100
,
0001
0000
0011
0000
1100
0001
0100
0000
,
0020
1000
1030
0000
0002
0000
0103
0010
,
2000
0001
0001
0000
3100
0000
1100
0000
,
1002
0000
0010
0000
1003
0001
0010
0100
,
2000
3001
1010
0100
,
0202
0000
0000
0000
,
0000
0000
0000
0000
,
0000
0000
0000
0000
,
0000
0000
0000
0000
,
0303
0000
0000
0000
;
