#TITLE:Rude Boy;
#ARTIST:Rihanna;
#BANNER:Rude Boy-bn.png;
#BACKGROUND:Rude Boy-bg.png;
#JACKET:Rude Boy-jacket.png;
#MUSIC:Rude Boy.ogg;
#OFFSET:-0.25;
#SAMPLESTART:66.457;
#SAMPLELENGTH:20;
#DISPLAYBPM:174;
#BPMS:0=174;
#BGCHANGES:;

//---------------dance-single - ----------------
#NOTES:
     dance-single:
     :
     Beginner:
     4:
     :
0000
0000
0000
0000
,
0000
0000
0000
0000
,
0000
0000
0000
0000
,
0000
0000
0000
0000
,
1001
0000
0000
0000
,
0000
0010
0000
0010
,
0000
0000
0000
0000
,
0000
0100
0000
0100
,
0000
0000
0000
0001
,
0001
0000
1000
0000
,
0010
0000
0000
0100
,
0100
0000
0010
0000
,
1000
0000
1000
0000
,
0001
0000
0001
0000
,
0100
0000
0100
0000
,
0010
0000
0010
0000
,
1000
0000
0001
0001
,
0001
0000
0010
0000
,
0001
0000
0100
0100
,
0100
0000
0010
0000
,
1000
0000
0001
0000
,
0100
0000
0010
0000
,
1000
0000
0100
0000
,
0010
0000
0001
0000
,
0000
0000
0110
0000
,
0001
0000
1000
0000
,
0000
0000
1001
0000
,
0010
0000
0100
0000
,
0000
0000
0110
0000
,
0010
0000
1000
0000
,
0000
0000
0010
0000
,
0010
0000
0010
0000
,
0000
0000
0100
0000
,
0001
0000
1000
0000
,
0000
0000
0001
0000
,
0010
0000
0100
0000
,
0000
0000
1000
0000
,
0010
0000
0100
0000
,
0001
0000
1000
0000
,
0000
0010
0010
0000
,
1000
1000
1000
0000
,
0001
0001
0001
0000
,
0100
0100
0100
0000
,
0010
0010
0010
0000
,
1000
1000
1000
0000
,
0100
0100
0100
0000
,
1001
0000
0000
0000
,
0110
0000
0000
0000
,
0001
0000
0000
0010
,
0010
0000
0100
0000
,
1000
0000
0000
0010
,
0010
0000
1000
0000
,
0010
0000
0100
0000
,
0010
0000
0100
0000
,
0001
0000
1000
0000
,
0001
0000
1000
0000
,
0100
0000
0000
1000
,
1000
0000
0001
0000
,
0010
0000
0000
0100
,
0100
0000
0010
0000
,
0001
0000
1000
0000
,
0001
0000
1000
0000
,
0010
0000
0100
0000
,
0010
0000
0100
0000
,
0000
0000
0001
0000
,
0001
0000
0001
0000
,
0000
0000
1000
0000
,
1000
0000
1000
0000
,
0010
0000
1000
0000
,
0001
0000
0100
0000
,
0010
0010
0010
0010
,
0000
0000
0000
0000
,
0000
0000
0100
0000
,
0001
0000
0001
0000
,
0000
0000
0010
0000
,
0100
0000
0100
0000
,
1000
0000
0010
0000
,
1000
0000
0010
0000
,
0100
0000
0001
0000
,
0010
0000
0100
0000
,
0010
0000
0000
0000
;

//---------------dance-single - ----------------
#NOTES:
     dance-single:
     :
     Easy:
     7:
     :
0000
0000
0000
0000
,
0000
0000
0000
0000
,
0000
0000
0000
0000
,
0000
0000
0000
0000
,
1001
0000
0010
0100
,
0001
2000
3000
1000
,
0110
0000
0010
1000
,
0001
0100
0001
0100
,
0000
1000
0001
1001
,
1001
0100
1000
0010
,
0000
0010
0001
0110
,
0110
1000
0010
0100
,
0001
0001
1000
1000
,
0010
0010
0100
0100
,
0001
0010
0100
1000
,
0010
0100
0001
1000
,
0000
0100
1000
1010
,
1010
0001
1000
0010
,
0000
1000
0100
0011
,
0011
0100
0010
1000
,
0001
0001
1000
1000
,
0100
0100
0010
0010
,
0001
0100
0010
1000
,
0001
0010
0100
1000
,
0010
0000
1001
0100
,
0001
0010
0001
1000
,
0100
0000
0110
0010
,
0001
0100
0001
1000
,
0000
0010
1000
0001
,
1000
0100
0001
0001
,
0000
0001
0010
1000
,
0010
0100
0010
0100
,
1000
0010
0010
0100
,
0001
0010
0001
1000
,
0000
0100
0100
1000
,
0010
1000
0001
0001
,
0000
0100
0001
1000
,
0010
0100
0001
1000
,
0100
0010
0001
1000
,
0000
0010
0010
0010
,
1010
0101
1010
0001
,
1100
0011
1100
0000
,
0001
0100
0010
1000
,
1001
0110
1001
0110
,
0001
0001
0001
0110
,
1000
1000
1000
0010
,
0202
0000
0000
0300
,
1000
1000
1000
1003
,
0010
1000
0001
0101
,
0101
0100
0010
1000
,
0100
1000
0010
1001
,
1001
0010
1000
0100
,
1000
1000
0010
0010
,
0100
0100
0001
0001
,
1000
0001
1000
0001
,
0100
0010
0100
0010
,
1000
0100
1000
1100
,
1100
0010
1000
0001
,
0100
0010
1000
0110
,
0110
0001
0010
1000
,
0100
0100
0010
0010
,
0001
0001
1000
1000
,
0010
0100
0001
1000
,
0001
0010
0100
1000
,
0000
0010
1000
0001
,
2000
0000
0000
3020
0000
0000
0230
0000
,
0300
0010
1000
0001
,
0100
0000
0000
0010
0000
0000
1000
0000
,
0001
0001
1000
1000
,
0010
0010
0100
0100
,
0002
0023
0230
2300
,
0000
0010
0000
3010
,
0000
1000
0001
0100
,
0001
0000
0000
0010
0000
0000
0100
0000
,
0000
0010
0001
0100
,
0010
0000
0000
1000
0000
0000
0001
0000
,
1000
1000
0010
0010
,
0001
0001
0010
0010
,
0100
0100
1000
1000
,
0001
0001
0100
0100
,
0010
0000
0000
0000
;

//---------------dance-single - ----------------
#NOTES:
     dance-single:
     :
     Medium:
     10:
     :
0000
0000
0000
0000
,
0000
0000
0000
0000
,
0000
0000
0000
0000
,
0000
0000
0000
0000
,
1001
0000
0000
0000
0001
0100
0010
0000
,
1000
0001
0200
0000
0000
0000
0310
0000
,
0110
0000
0000
0000
0001
1000
0001
1000
,
0010
0100
0002
0000
1000
0000
0103
0000
,
0010
1000
0000
1000
0100
0010
0000
0010
,
0001
0000
1000
0010
0000
0100
0001
0000
,
0010
0001
0000
0001
0100
0000
0010
1000
,
0010
0100
0010
1000
0000
0000
0001
0100
,
0020
1000
2030
0001
,
3002
0100
0203
0010
,
0320
2030
3002
0203
,
0302
0023
0230
2300
,
3010
0000
0000
0000
1000
0100
0010
0001
,
0100
0000
0010
1000
0000
1000
0001
0000
,
0010
0001
0000
0001
1000
0000
1000
0010
,
0100
0000
0100
0001
0000
0001
1000
0000
,
0200
0010
0320
0001
,
0032
1000
2003
0100
,
3200
2300
3002
0203
,
0320
2030
3002
0023
,
0130
0000
0000
1000
0001
0000
0100
0000
,
0010
1000
0002
0000
0100
0000
0013
0000
,
1000
0000
0000
0001
0100
0000
0010
0000
,
1000
0100
2000
0000
0010
0000
3001
0000
,
0100
0000
0101
0000
1100
0000
0010
1000
,
0100
0010
0001
0000
0002
0000
2003
0000
,
3010
0000
1000
0100
0010
0000
0001
0100
,
0010
0000
1000
0001
0010
0000
0100
0000
,
1000
0000
1010
0000
0101
0000
0010
1000
,
0100
0010
0002
0000
0103
0000
0020
0000
,
1030
0000
1010
0000
0011
0000
0100
0010
,
0100
0001
2000
0000
3010
0000
0200
0000
,
0301
0000
0011
0000
1100
0000
0010
1000
,
0100
0010
0001
0000
2000
0000
3020
0000
,
0130
0001
1000
0000
0020
0000
0230
0000
,
0301
0000
0100
0010
0100
0010
0100
0010
,
2000
0000
3002
0000
0203
0000
0301
0010
,
0200
2300
3002
0003
,
0100
0001
1000
0000
0100
1000
0001
0000
,
1001
0000
0110
0000
1001
0000
0010
0100
,
0002
0000
0023
0000
0230
0000
1300
0010
,
2000
3002
0203
0310
,
0220
0030
0001
0001
,
0301
1000
0010
0100
0001
1000
0010
0100
,
0001
1000
0000
0010
0100
0000
1001
0000
,
1001
0000
0010
1000
0100
1000
0010
0000
,
0100
0001
0000
0100
0010
0000
1000
0001
,
0010
0100
1000
0000
0010
0000
0100
0000
,
0001
0002
0010
0023
,
0100
0230
1000
2300
,
0010
0100
0010
0100
,
3002
2003
3002
2003
,
3010
0000
1000
0001
0100
0000
0110
0000
,
0110
0000
0010
0100
0001
0100
0010
0000
,
1000
0001
0000
1000
0100
0000
0010
0001
,
0100
0010
1000
0000
0100
0010
0001
0000
,
1000
2000
0001
3002
,
0100
0203
0010
0320
,
1000
0001
1000
0001
,
0230
0320
2030
3002
,
0013
0002
2003
3020
,
2030
0000
3001
0100
0000
0001
0100
0000
,
0000
0002
2003
3200
,
0320
0000
0031
1000
0000
0001
1000
0000
,
0020
1030
0002
0103
,
0002
0013
0200
1300
,
1001
0101
1100
0101
,
0010
1000
0002
0000
0000
0000
0203
0000
,
0310
0000
0200
0000
0302
0000
1003
0100
,
1000
0000
0010
0100
0000
0010
0100
0000
,
0000
0000
0002
0000
0023
0000
0130
1000
,
0001
0000
1000
0010
0000
1000
0010
0000
,
1100
1100
1100
1100
,
0101
0101
0101
0101
,
1000
0010
0100
0010
2000
0000
3002
0000
,
0013
0001
0010
0100
1000
0010
1000
0002
,
0020
0000
0000
0000
,
0000
0000
0000
0000
,
0003
0000
0000
0000
,
0000
0000
0000
0030
;

//---------------dance-single - ----------------
#NOTES:
     dance-single:
     :
     Hard:
     13:
     :
0000
0000
0000
0000
,
0000
0000
0000
0000
,
0000
0000
0000
0000
,
0000
0000
0000
0000
,
1001
0000
0000
0000
0001
0100
1000
0100
,
0001
0100
0020
0000
1000
0000
0031
0000
,
0110
0000
0000
0000
0001
0010
0100
1000
,
0010
0100
0010
0100
0001
1000
0001
1000
,
0100
0000
1000
0010
0001
0000
1001
0000
,
1001
0000
0001
0100
1000
0100
0010
0000
,
0000
0000
0001
1000
0010
0000
0101
0000
,
0101
0000
1000
0100
0001
0100
1000
0000
,
0020
1000
2030
0001
,
3002
0100
0203
0010
,
0320
0000
2030
0000
3001
0100
0010
1000
,
0100
0010
0100
0010
0001
1000
0001
1000
,
0010
0000
1000
0001
0100
0000
1010
0000
,
1010
0000
0001
0100
1000
0100
0010
0000
,
1000
0000
0001
0010
0100
0000
1100
0000
,
1100
0000
0010
1000
0100
1000
0010
0000
,
1000
0100
0001
0000
0001
0100
1000
0000
,
1000
0010
0001
0000
0001
0010
1000
0000
,
0100
0010
0001
0000
0001
0100
0010
1000
,
0100
0010
0100
0010
0001
1000
0001
1000
,
0010
0000
0000
1000
0002
0000
0013
0100
,
1000
0010
1000
0010
0100
0001
1000
0000
,
0100
0000
0000
1000
0020
0000
0130
0001
,
0010
1000
0010
0001
0100
0010
1000
0000
,
0100
0000
2000
0000
3002
0000
0013
0001
,
0100
0010
1000
0100
0001
0100
1000
0000
,
0001
0000
1000
0100
0020
0000
0031
0100
,
0020
0000
1030
0001
0020
0000
0130
0000
,
1000
0000
0002
0000
0203
0000
0310
1000
,
0100
0010
0001
0000
0110
0000
1001
0000
,
0010
0000
2000
0000
3200
0000
1300
0001
,
0100
0010
0100
0010
1000
0100
0001
0000
,
0010
0000
0002
0000
2003
0000
3010
0100
,
0001
0010
1000
0010
0001
0100
0001
0000
,
1000
0100
0001
0100
1000
0010
1000
0000
,
0100
0010
0001
0100
0001
1000
0010
0100
,
0101
0000
1100
0000
0101
0000
0010
1000
,
1100
0101
1100
0000
,
0010
1000
0010
0100
0010
0001
0010
0000
,
1010
0000
0101
0000
1010
0000
0001
1000
,
1010
0000
0011
0000
1010
1000
0100
1000
,
1100
0000
0101
0000
1100
0001
0100
0000
,
2020
0000
0030
0000
3001
1000
0010
0100
,
0001
0010
0001
0010
0100
1000
0100
1000
,
0001
0000
0010
0100
1000
0000
1001
0000
,
1001
0000
0001
0100
1000
0100
0010
0100
,
0001
0000
1000
0010
0100
0000
0110
0000
,
0110
0000
0010
1000
0001
1000
0100
0010
,
0002
2003
3020
0230
,
0301
0010
1000
0000
0001
0100
1000
0000
,
2000
3200
0320
0032
,
0203
0320
2030
3002
,
0013
0000
0001
0100
1000
0000
1010
0000
,
1010
0000
0001
0100
1000
0100
0010
0100
,
0001
0000
0010
0100
1000
0000
0011
0000
,
0011
0000
0100
0001
0010
0001
1000
0010
,
0200
0320
2030
3002
,
0013
0001
0100
0000
0010
1000
0100
0000
,
2000
0000
3002
0000
0103
0010
1000
0001
,
1000
0010
1000
0010
0100
0001
0100
0001
,
0010
0002
2003
3010
,
1000
0100
0010
0001
0000
0100
0100
0000
,
0010
2000
3200
0310
,
0001
1000
0010
0100
0000
0001
0001
0000
,
0020
0230
0320
0230
,
2300
3002
2003
3002
,
0013
0000
0010
0000
0001
0100
1000
0000
,
0010
1000
0002
0000
0103
0000
0020
0000
,
1030
0000
0200
0000
0320
0000
0031
0100
,
0001
1000
0010
1000
0000
0100
0100
0000
,
1000
0000
0002
0000
2003
0000
3010
0100
,
0010
1000
0001
0100
0000
0010
0010
0000
,
1000
0100
0001
0100
0010
0000
0110
0000
,
0001
1000
0100
1000
0010
0000
0110
0000
,
0001
1000
0100
0010
0001
0100
0010
1000
,
0001
0100
0010
1000
0100
0010
0001
2000
,
0020
0000
0000
0000
,
0000
0000
0000
0000
,
3000
0000
0000
0000
,
0000
0000
0000
0030
;

//---------------dance-single - ----------------
#NOTES:
     dance-single:
     :
     Challenge:
     15:
     :
0000
0000
0000
0000
,
0000
0000
0000
0000
,
0000
0000
0000
0000
,
0000
0000
0000
0000
,
1001
0000
0000
0000
0001
0100
0010
1000
,
0100
0010
0001
1000
0001
0100
0010
0000
,
0110
0000
0000
0000
1000
0001
0100
0010
,
1000
0000
0100
0000
0010
0000
0001
0100
0010
1000
0010
1000
0010
1000
0010
0000
,
0100
0001
0010
0100
1000
0010
1000
0001
,
0100
0001
0010
0001
1000
0100
0010
0001
,
0100
0001
0010
0100
1000
0010
1000
0001
,
0100
1000
0100
0001
0010
0100
1000
0001
,
0010
0001
0100
0010
1000
0100
1000
0001
,
0010
0100
1000
0010
1000
0100
1000
0001
,
0010
0100
1000
0010
0100
0001
1000
0001
,
0010
0000
0100
0000
1000
0000
0010
0100
0001
0100
0001
0100
0001
1000
0001
1000
,
0010
0000
1000
0001
1000
0001
0100
0010
,
0100
1000
0100
0001
1000
0100
0010
0001
,
0100
1000
0100
0001
0010
0100
1000
0010
,
1000
0001
1000
0100
0010
0001
0010
0100
,
1000
0010
0001
0100
0001
0010
1000
0000
,
0100
1000
0001
1000
0100
0010
0001
0000
,
0100
0010
0100
0001
0010
0100
1000
0001
,
0010
0000
0001
0000
0100
0000
0001
1000
0100
1000
0100
1000
0100
0010
0100
0010
,
0001
1000
0000
0010
1000
0100
1000
0001
,
0010
0100
0010
0001
1000
0010
0100
0000
,
0001
0010
0001
0100
0010
1000
0001
1000
,
0100
0001
0100
0010
0001
0100
0010
1000
,
0001
1000
1010
0000
0101
0100
0010
1000
,
0100
0001
0100
1000
0001
0100
0010
0000
,
1000
0000
0001
0100
0010
0100
0001
1000
,
0010
0100
0001
1000
0010
0100
0001
1000
,
0100
0000
0011
0000
1100
0010
1000
0001
,
0100
0010
1000
0100
1000
0010
0001
0000
,
0100
0000
0110
0000
1001
0100
0010
1000
,
0001
0001
0001
0001
0001
0100
1000
0010
,
0100
0000
0001
0010
1000
0010
0001
0100
,
0010
1000
0001
1000
0100
0010
0001
0000
,
0100
0001
0010
0001
1000
0100
0010
0100
,
1000
0001
1000
0100
0001
0100
0010
0100
,
1100
0000
0110
0000
0011
0001
0100
0010
,
1010
1000
1001
0001
0101
0100
0010
0000
,
1000
0100
0001
0010
1000
0100
0001
0000
,
1001
0000
0110
0000
1001
0010
0100
0001
,
0011
0001
0101
0001
1001
1000
0010
0100
,
0110
0010
1010
1000
1100
0001
0100
0000
,
2020
0000
0030
0000
3001
0100
0010
1000
,
0100
0000
0010
0000
0001
0000
1000
0010
1000
0100
1000
0100
0010
0001
0010
0001
,
0100
0000
0010
0000
1000
0000
0100
0000
0010
0000
0001
0000
0100
0010
0100
0000
,
0001
1000
0001
0000
0010
0000
0100
0000
1000
0000
0001
0000
0010
0000
0001
0000
,
0100
0000
1000
0000
0100
0000
0001
0000
0010
0000
0100
0000
1000
0010
1000
0000
,
0001
0100
0001
0000
0010
0000
0100
0000
1000
0000
0010
0000
1000
0000
0001
0000
,
0100
0010
0100
1000
0100
0001
0010
0100
,
0001
0100
0010
1000
0010
0001
0100
0010
,
0001
0010
1000
0001
0010
1000
0010
0100
,
0010
1000
0010
0100
0010
0001
0100
0000
,
0010
0000
0000
0000
1000
0000
0001
0000
0010
0000
0100
0000
1000
0010
0100
0000
,
0001
0010
0100
0000
1000
0000
0001
0000
1000
0000
0100
0000
0010
0000
0001
0000
,
0100
0000
0010
0000
1000
0000
0001
0000
0010
0000
0100
0000
1000
0001
0100
0000
,
0001
1000
0010
0000
0100
0000
0010
0000
1000
0000
0010
0000
0100
0000
0001
0000
,
0010
0100
0001
0100
1000
0010
0001
0010
,
0100
1000
0100
0001
0010
0100
0001
0100
,
0010
1000
0010
0001
0100
0010
1000
0001
,
1000
0000
0100
0000
0010
0000
0001
0100
0010
1000
0010
1000
0100
0010
0100
0010
,
0001
0100
0010
0100
0001
1000
0010
1000
,
0100
1000
0001
1000
0010
0100
0001
0000
,
0010
0001
0010
0100
1000
0010
1000
0001
,
1000
0100
0010
0001
0010
0100
1000
0000
,
0001
0100
0010
0100
0001
0010
0100
0010
,
1000
0100
0010
0100
1000
0010
0100
0010
,
1000
0001
0100
0010
1000
0100
0001
0100
,
1000
0010
0200
0000
0301
0010
0200
0000
,
1300
0000
0001
0100
1000
0100
0010
0100
,
0001
0010
1000
0001
0010
0100
1000
0000
,
0010
0000
0100
0001
0010
0001
1000
0100
,
1000
0010
0100
0001
1000
0100
0001
0000
,
0010
0001
1000
0001
0010
0000
1001
0000
,
0100
0001
1000
0001
0010
0000
0110
0000
,
1000
1000
0010
0010
0100
0100
0001
0001
,
0010
0000
0010
0000
0100
0000
0100
1000
0001
1000
0001
1000
0001
0100
0010
0200
,
0020
0000
0000
0000
,
0000
0000
0000
0000
,
0300
0000
0000
0000
,
0000
0000
0000
0030
;
