#TITLE:Rock the Casbah;
#ARTIST:The Clash;
#BANNER:Rock the Casbah-bn.png;
#BACKGROUND:Rock the Casbah-bg.png;
#JACKET:Rock the Casbah-jacket.png;
#MUSIC:Rock the Casbah.ogg;
#OFFSET:0.875;
#SAMPLESTART:45.18;
#SAMPLELENGTH:20;
#DISPLAYBPM:127:132;
#BPMS:0=129.81,8=131,36=129,44=128,48=128.875,52=128.3,60=128.54,64=129.31,68=130.03,84=129.8,92=127,106=129.315,109=130.2,111=131.5,116=130.41,136=129.995,140=127.81,155=128.84,158=127.44,160=130.014,180=129.18,188=128.145,190=128.557,204=130.011,208=132,212=130.711,226=129.878,235=130.105,239=131.675,252=130.542;
#BGCHANGES:;

//---------------dance-single - ----------------
#NOTES:
     dance-single:
     :
     Beginner:
     3:
     :
0000
0000
0000
0000
,
0000
0000
0000
0000
,
0000
0000
0000
0000
,
0000
0000
0000
0000
,
0000
0000
0000
0000
,
1000
1000
1000
1000
,
0000
0000
0000
0000
,
1001
0000
0000
0000
,
0110
0000
0000
0000
,
1000
1000
1000
1000
,
0000
0000
0000
0000
,
0001
0001
0001
0000
,
0100
0000
0000
0000
,
0010
0010
0010
0000
,
1000
0000
0000
0000
,
0100
0100
0100
0000
,
1000
0000
0000
0000
,
0001
0001
0001
0001
,
0000
0000
0000
0000
,
0010
0010
0010
0000
,
0000
0000
0000
0000
,
0100
0100
0100
0000
,
0000
0000
0000
0000
,
1000
1000
1000
0000
,
0110
0000
1001
0000
,
0001
0000
1000
0000
,
0000
0000
0000
0000
,
1001
0000
0000
0000
,
0110
0000
0000
0000
,
1000
0000
0010
0000
,
0000
0000
0000
0000
,
0110
0000
0000
0000
,
1001
0000
0000
0000
,
0100
0100
0100
0000
,
0000
0000
0000
0000
,
0001
0001
0001
0000
,
1000
0000
0000
0000
,
0010
0010
0010
0010
,
0000
0000
0000
0000
,
1000
1000
1000
0000
,
0100
0000
0000
0000
,
0010
0000
0010
0000
,
0001
0000
1000
0000
,
0100
0000
1000
0000
,
0001
0001
0001
0000
,
0100
0000
0010
0000
,
0100
0100
0100
0000
,
0001
0001
0001
0001
,
0001
0001
0001
0000
,
1000
0000
0100
0000
,
0000
0000
0000
0000
,
1001
0000
0000
0000
,
0110
0000
0000
0000
,
0001
0000
0010
0000
,
0000
0000
0000
0000
,
0110
0000
0000
0000
,
1001
0000
0000
0000
,
0010
0000
0100
0000
,
0001
0001
0001
0000
,
1001
0000
1000
0000
,
0110
0000
0001
0000
,
1000
0000
0001
0000
,
0010
0010
0010
0000
,
0110
0000
0010
0000
,
1001
0000
0100
0000
;

//---------------dance-single - ----------------
#NOTES:
     dance-single:
     :
     Easy:
     7:
     :
0000
0000
0000
0000
,
0000
0000
0000
0000
,
0000
0000
0000
0000
,
0000
0000
0000
0000
,
0000
0000
0000
0000
,
1001
0110
1000
0001
,
0000
0100
0000
0010
,
1001
0000
1000
0000
,
0110
0100
0001
1000
,
0010
0010
1000
0001
,
0000
0010
0000
0100
,
1000
0000
0001
0000
0000
0200
0000
0000
,
0310
0000
1000
0000
0000
0001
0001
0000
,
1000
0100
0001
0010
,
1000
0001
0000
0100
,
0010
0000
1000
0000
0000
0002
0000
0000
,
0013
0000
0100
0000
0000
1000
1000
0000
,
0001
0100
0110
1001
,
0000
1000
0000
0001
,
0010
0100
2000
3002
,
0103
0000
0010
0000
0000
1000
1000
0000
,
0001
0010
0110
0000
,
1000
0001
0000
0100
,
0001
0010
0002
2003
,
3010
0000
1001
0000
,
2000
3200
0320
0032
,
0103
0000
0000
0010
0000
1000
0000
0000
,
1001
0000
0000
0010
0000
0100
0000
0000
,
0110
0000
0000
0001
0000
1000
0000
0000
,
0002
0023
0230
2300
,
3010
0000
0000
1000
0000
0001
0000
0000
,
0110
0000
0000
0100
0000
0001
0000
0000
,
1001
0000
0000
1000
0000
0010
0000
0000
,
1000
0100
1001
0100
,
0010
1000
0000
0001
,
0010
0001
1000
0020
,
0130
0000
0110
0000
0000
0100
0100
0000
,
0001
0010
1001
0110
,
0000
1000
0000
0100
,
0010
0001
1000
0020
,
0130
0000
0001
0000
0000
1000
1000
0000
,
0001
0010
1000
0000
,
0100
0100
0100
0000
,
1000
1000
0001
0100
,
0001
0001
1000
0000
,
0010
1000
0100
0000
,
2000
3002
0203
0300
,
0001
0001
2000
3020
,
0230
0302
2003
3000
,
0020
2030
3002
0203
,
0301
0000
0000
0010
0000
0100
0000
0000
,
1001
0000
0000
1000
0000
0001
0000
0000
,
0110
0000
0000
0010
0000
0100
0000
0000
,
0002
2003
3200
0320
,
0130
0000
0000
0010
0000
0001
0000
0000
,
0110
0000
0000
1000
0000
0100
0000
0000
,
1001
0000
0000
0010
0000
0001
0000
0000
,
2000
3002
0023
0230
,
1300
0001
1000
0000
0110
0000
1001
0000
,
0110
0000
0000
0001
0000
0100
0000
0000
,
1001
0000
0000
0010
0000
1000
0000
0000
,
0200
0320
0032
2003
,
3001
0100
0001
0000
1001
0000
0110
0000
,
1001
0000
0000
0010
0000
1000
0000
0000
,
0110
0000
0000
0001
0000
0100
0000
0000
;

//---------------dance-single - ----------------
#NOTES:
     dance-single:
     :
     Medium:
     10:
     :
0000
0000
0000
0000
,
0000
0000
0000
0000
,
0000
0000
0000
0000
,
0000
0000
0000
0000
,
0000
0000
0000
0000
,
0011
0000
1100
0000
1000
0100
0001
0000
,
0010
0000
0001
1000
0000
0001
0000
0100
,
1001
0000
0010
1000
0100
1000
0001
0000
,
1000
0010
0001
0000
0100
0000
0110
0010
,
1000
0000
1000
0100
0001
0100
1000
0000
,
0000
0000
0101
0000
0000
1000
0010
1000
,
0100
0010
0100
1000
0000
0002
0000
0000
,
0013
0000
1001
0000
0100
0010
0010
0000
,
1000
0100
1000
0100
0010
0001
0100
0010
,
1000
0000
1010
0000
0000
0000
0001
1000
,
0001
0100
0010
1000
0000
0200
0000
0000
,
0310
0000
0110
0000
0001
1000
1000
0000
,
0010
1000
0100
0000
1000
0001
0100
0000
,
0000
0000
0101
0000
0000
1000
0001
0000
,
0010
0100
0010
0100
2000
0001
3001
0000
,
0000
0000
1010
0000
0000
0001
0001
0100
,
0010
1000
0100
1000
0001
0100
0010
0000
,
0000
0000
0110
0000
0000
0000
1000
0001
,
1000
0100
0010
0001
0100
0010
0100
0001
,
2000
0000
3000
0000
1001
0000
0000
0010
,
2000
0000
3002
0000
2003
0100
3100
0000
,
0010
0000
0001
1000
0000
0001
0000
0100
,
1001
0000
0010
1000
0000
0001
0000
0000
,
0110
0000
0001
1000
0000
0100
0000
1000
,
0020
0000
0230
0000
0302
1000
1003
0000
,
0001
0000
1000
0010
0000
1000
0000
0100
,
0110
0000
0001
1000
0000
0010
0000
0000
,
1001
0000
1000
0100
0000
0010
0000
0001
,
0100
0010
0100
0001
1000
1000
0000
0000
,
0100
0000
1100
0000
0001
1000
0001
0000
,
0010
0001
0010
0100
0000
2000
0000
0000
,
3001
0000
0011
0000
1000
0001
0001
0000
,
0100
0010
1000
0001
0101
0000
1100
0000
,
0000
0000
1001
0000
0000
0020
0000
0130
,
0001
1000
0001
0010
0000
0000
0200
0000
,
1300
0000
1100
0000
0000
0010
0010
0000
,
0100
0001
0100
0001
0100
0001
0000
0000
,
1000
0100
0001
0100
1000
0000
0000
0000
,
0001
0100
0001
0100
0010
1000
0010
1000
,
0001
0010
0100
0010
0001
0000
0000
0000
,
0020
0000
0031
0100
0010
1000
0000
0000
,
2000
3002
0203
0300
,
0010
1000
0010
1000
0001
0100
0001
0100
,
0001
0010
1000
0010
0002
0000
0003
0100
,
0020
0000
2030
0000
3002
0010
0013
0000
,
0100
0000
1000
0001
0000
0010
0000
0100
,
1001
0000
0010
0001
0000
0100
0000
0000
,
0110
0000
1000
0010
0000
0100
0000
0001
,
2000
0000
3200
0000
0320
0001
0031
0000
,
0100
0000
0001
1000
0000
0010
0000
0100
,
0110
0000
0010
1000
0000
0001
0000
0000
,
1001
0000
1000
0100
0000
0010
0000
0001
,
0200
0000
0320
0000
2030
0001
3002
0000
,
1003
0100
0010
0000
0011
0000
1100
0000
,
0101
0000
1000
0001
0000
0100
0000
0000
,
1010
0000
0100
0001
0000
0010
0000
0100
,
2000
0000
3020
0000
0230
0001
0302
0000
,
1003
0100
0001
0100
1000
0000
0010
0000
,
0101
0000
0010
1000
0000
0100
0000
0000
,
1100
0000
0001
1000
0000
0100
0000
0000
;

//---------------dance-single - ----------------
#NOTES:
     dance-single:
     :
     Hard:
     12:
     :
0000
0000
0000
0000
,
0000
0000
0000
0000
,
0000
0000
0000
0000
,
0000
0000
0000
0000
,
0000
0000
0000
0000
,
0011
0000
0000
0000
1100
0000
0000
0001
1000
0000
0100
0000
0010
0000
0000
0000
,
0001
0000
1000
0100
1000
0000
0001
0000
0100
0000
1000
0000
0100
0000
0001
0000
,
1001
0000
0010
1000
0010
0100
0001
0010
,
0100
1000
0001
0000
0100
0000
0110
0010
,
1000
0000
1000
0100
0001
0100
1000
0000
,
0001
0100
1000
0000
0010
1000
0010
0100
,
0001
0001
0001
0100
0000
1010
0100
0001
,
1000
0010
0000
0000
0100
0000
0001
0000
1000
0000
0010
0000
0010
0000
0000
0000
,
0001
0010
1000
0010
0001
0100
0010
1000
,
0001
0000
0000
0000
0101
0000
0010
0000
1000
0100
0000
0000
1000
0000
0001
0000
,
0100
0100
0100
0010
0000
1010
0100
0001
,
1000
0100
0000
0000
0010
0000
0001
0000
1000
0000
0010
0000
0010
0000
0000
0000
,
0010
0100
1000
0100
0001
1000
0100
0000
,
0001
1000
0000
0000
0110
0000
1000
0000
0001
0000
0010
0000
0100
0000
0000
0000
,
1000
0001
0100
0001
2000
0010
3010
0000
,
0001
0010
1000
0000
0010
0001
0001
0100
,
0010
1000
0001
0010
0100
1000
0001
0000
,
0100
1000
0000
0000
1001
0000
0100
0000
0010
0000
0000
0000
0011
0000
0001
0000
,
1000
1000
0001
0010
0002
0100
0103
0010
,
1000
0001
0100
0000
1002
0000
0103
0010
,
1000
0100
0001
0100
2000
0001
3001
0000
,
0010
0000
0001
0100
0001
0000
1000
0000
0000
0000
0010
0000
0000
0000
0001
0000
,
1001
1000
0100
0010
0001
0100
1000
0000
,
0110
0001
1000
0010
1000
0100
0000
0001
,
0010
1000
0010
0001
2000
0100
3100
0000
,
0010
0000
0001
0100
0001
0000
1000
0000
0000
0000
0010
0000
0000
0000
0100
0000
,
0110
0001
1000
0010
1000
0100
0001
0000
,
1001
0001
0010
1000
0100
0010
0000
0001
,
0100
0010
0100
0001
1000
0100
0001
0000
,
0010
0100
0000
0000
1100
0000
0001
0000
0100
0000
0000
0000
1010
0000
0000
0000
,
1000
0100
1000
0001
0000
0011
1000
0001
,
0100
0010
0000
0000
1000
0000
0001
0000
0010
0000
0100
0000
0100
0000
1000
0000
,
0001
0100
0010
1000
1100
0001
0100
0000
,
0010
1000
0000
0000
1001
0000
0001
0000
0010
0000
0200
0000
0000
0000
1300
0000
,
0001
0100
0001
0010
0000
1100
1000
0001
,
0100
0001
0000
0000
0011
0000
1000
0000
0001
0000
0100
0000
0100
0000
0010
0000
,
1000
0000
0100
0000
0001
0000
0100
0000
1000
0000
0001
0000
0000
0000
0010
0100
,
0010
0001
1000
0001
0100
0010
0010
1000
,
0001
0001
1000
1000
0010
0010
0100
0100
,
0001
0001
0001
1000
0100
0010
0010
0000
,
0002
1000
1003
0010
1000
0100
0001
0000
,
0020
0000
2030
0000
3002
0100
0103
0000
,
0110
0010
1000
0010
0001
0010
1000
0100
,
0001
0100
0010
0100
2000
0000
3001
0100
,
0010
1000
0100
0001
0200
1000
1300
0000
,
0001
0000
1000
0010
1000
0000
0100
0000
0000
0000
0010
0000
0000
0000
0001
0000
,
1001
0010
0001
0100
1000
0001
0100
0000
,
0110
0001
0010
1000
0100
1000
0000
0001
,
0010
1000
0010
0001
2000
0100
3100
0000
,
0010
0000
0001
1000
0001
0000
0100
0000
0000
0000
0010
0000
0000
0000
1000
0000
,
0110
1000
0100
1000
0010
0100
0001
0000
,
1001
0001
0010
0100
1000
0001
0000
0100
,
0010
1000
0100
1000
0002
0010
0013
0000
,
0001
0001
0001
0000
1001
0100
0010
0000
,
1010
0001
1000
0100
0010
0001
0100
0000
,
0101
0010
1000
0001
1000
0100
0000
0010
,
0001
0100
0010
0100
0001
0010
0100
1000
,
0001
0001
1000
1000
0010
1000
0100
0000
,
0011
0100
0001
0010
1000
0100
0001
0000
,
1100
0010
0001
1000
0001
0100
0000
0000
;
