#TITLE:Rock This Town;
#ARTIST:Stray Cats;
#BANNER:Rock This Town.png;
#BACKGROUND:Rock This Town-bg.png;
#JACKET:Rock This Town-jacket.png;
#MUSIC:Rock This Town.ogg;
#SAMPLESTART:67.952;
#SAMPLELENGTH:20;
#DISPLAYBPM:193:235;
#BPMS:0=198.1,4=201.117,20=198.347,36=204.461,52.0625=203.551,60=203.39,64=215.569,68=202.247,76=200.837,92=199.723,108=198.074,124=194.595,128=193.548,132=203.008,156=202.185,172.0625=204.327,188=200.557,204=200,228=194.595,244=198.074,260=195.298,272=211.765,276=197.531,292=194.858,308=194.595,316=192.513,320=234.857,322.0625=209.302,324.0625=199.136,328=195.509,333.0625=210.043;
#BGCHANGES:;

//---------------dance-single - ----------------
#NOTES:
     dance-single:
     :
     Beginner:
     2:
     :
0000
0000
0000
0000
,
0000
0000
0000
0000
,
0000
0000
0000
0000
,
0000
0000
0000
0000
,
0000
0000
0000
0000
,
0001
0000
0000
0000
,
0100
0000
0000
0000
,
0010
0000
0000
0000
,
0000
0000
0000
0000
,
0010
0000
0000
0000
,
1000
0000
0000
0000
,
0001
0000
0000
0000
,
0000
0000
0000
0000
,
0100
0000
0000
0000
,
0010
0000
0000
0000
,
1000
0000
1000
0000
,
0001
0000
0001
0000
,
0100
0000
0000
0000
,
0010
0000
0000
0000
,
1000
0000
0000
0000
,
0000
0000
0000
0000
,
0001
0000
0000
0000
,
0000
0000
0000
0000
,
0100
0000
0000
0000
,
0010
0000
0000
0000
,
0100
0000
0000
0000
,
0000
0000
0000
0000
,
0001
0000
0000
0000
,
1000
0000
0000
0000
,
0010
0000
0000
0000
,
0000
0000
0000
0000
,
0100
0000
0000
0000
,
0100
0000
0000
0000
,
1000
0000
1000
0000
,
0001
0000
0001
0000
,
0100
0000
0000
0000
,
0010
0000
0000
0000
,
0100
0000
0000
0000
,
0000
0000
0000
0000
,
0001
0000
0000
0000
,
1000
0000
0000
0000
,
0010
0000
0000
0000
,
1000
0000
0000
0000
,
0001
0000
0000
0000
,
1000
0000
0000
0000
,
0100
0000
0000
0000
,
0100
0000
0000
0000
,
1000
0000
0000
0000
,
1000
0000
0000
0000
,
0001
0000
0000
0000
,
0100
0000
0000
0000
,
0010
0000
0000
0000
,
0010
0000
0000
0000
,
0010
0000
0000
0000
,
0100
0000
0000
0000
,
0001
0000
0000
0000
,
1000
0000
0000
0000
,
0010
0000
0000
0000
,
1000
0000
0000
0000
,
0001
0000
0000
0000
,
0000
0000
0000
0000
,
0100
0000
0000
0000
,
0010
0000
0000
0000
,
1000
0000
0000
0000
,
0000
0000
0000
0000
,
0001
0000
0000
0000
,
1000
0000
0000
0000
,
0001
0000
0001
0000
,
1000
0000
1000
0000
,
0010
0000
0000
0000
,
0100
0000
0000
0000
,
0001
0000
0000
0000
,
0000
0000
0000
0000
,
0010
0000
0000
0000
,
0010
0000
0000
0000
,
0100
0000
0000
0000
,
0000
0000
0000
0000
,
0001
0000
0000
0000
,
1000
0000
0000
0000
,
0100
0000
0000
0000
,
0000
0000
0000
0000
,
1001
0000
0000
0000
,
0000
0000
0000
0000
,
0000
1001
0000
0000
;

//---------------dance-single - ----------------
#NOTES:
     dance-single:
     :
     Easy:
     4:
     :
0000
0000
0000
0000
,
0000
0000
0000
0000
,
0000
0000
0000
0000
,
0000
0000
0000
0000
,
0000
0000
0000
0000
,
1000
0000
1000
0000
,
0010
0000
0010
0000
,
0200
0000
0000
0300
,
0000
0000
0000
0000
,
0100
0000
0100
0000
,
0001
0000
0001
0000
,
2000
0000
0000
3000
,
0000
0000
0000
0000
,
0010
0000
0010
0000
,
0100
0000
0100
0000
,
0001
0001
0001
0000
,
1000
1000
1000
0000
,
0010
0000
0010
0000
,
0100
0000
0100
0000
,
0002
0000
0000
0003
,
0000
0000
0000
0000
,
2000
0000
0000
3000
,
0000
0000
0000
0000
,
0010
0000
0010
0000
,
0100
0000
0100
0000
,
0020
0000
0000
0030
,
0000
0000
0000
0000
,
1000
0000
1000
0000
,
0001
0000
0001
0000
,
0200
0000
0000
0300
,
0000
0000
0000
0000
,
0010
0000
0000
0000
,
1000
0000
0000
0000
,
0001
0001
0001
0000
,
1000
1000
1000
0000
,
0010
0000
0010
0000
,
0100
0000
0100
0000
,
0020
0000
0000
0030
,
0000
0000
0000
0000
,
1000
0000
1000
0000
,
0001
0000
0001
0000
,
0100
0000
0100
0000
,
0001
0000
0000
0000
,
1000
0000
1000
0000
,
0001
0000
0001
0000
,
0010
0000
0100
0000
,
0010
0000
0100
0000
,
0001
0000
1000
0000
,
0001
0000
0001
0000
,
1000
0000
1000
0000
,
0010
0000
0010
0000
,
0100
0000
0000
0000
,
0100
0000
0000
0000
,
0100
0000
0000
0000
,
0010
0000
0000
0000
,
1000
0000
0000
0000
,
0001
0000
0000
0000
,
0100
0000
0100
0000
,
0001
0000
0001
0000
,
1000
0000
1000
0000
,
1000
0000
1000
0000
,
0010
0000
0010
0000
,
0100
0000
0100
0000
,
0002
0000
0003
0000
,
0000
0000
0000
0000
,
1000
0000
0000
0000
,
0001
0000
0000
0000
,
1000
1000
1000
0000
,
0001
0001
0001
0000
,
0100
0000
0100
0000
,
0010
0000
0010
0000
,
1000
0000
0000
0000
,
0001
0000
0000
0000
,
0100
0000
0100
0000
,
0100
0000
0010
0000
,
0100
0000
0000
0000
,
0001
0000
0000
0000
,
1000
0000
1000
0000
,
0001
0000
0001
0000
,
0020
0000
0000
0030
,
0000
0000
0000
0000
,
1001
0000
0000
0000
,
0000
0000
0000
0000
,
0000
0110
0000
0000
;

//---------------dance-single - ----------------
#NOTES:
     dance-single:
     :
     Medium:
     8:
     :
0000
0000
0000
0000
,
0000
0000
0000
0000
,
0000
0000
0000
0000
,
0000
0000
0000
0000
,
0000
0000
0000
0000
,
0001
0001
0100
0001
,
0010
0000
1000
0000
,
0100
0100
1000
0010
,
0100
0100
0010
0000
,
0001
0001
0100
0000
,
0010
0010
0100
1000
,
0001
0001
0001
0001
,
1000
1000
1000
0000
,
0100
0001
0100
0001
,
1000
0010
1000
0000
,
0001
0100
0001
0100
,
0001
0010
0001
0000
,
0100
0100
0100
0000
,
0010
0010
0010
0100
,
1000
1000
0001
0001
,
1000
1000
0001
0001
,
0200
0310
0100
0001
,
2000
3001
1000
0000
,
2000
3100
2000
0000
,
3002
0013
0002
0003
,
0200
0000
0302
0000
,
0023
0000
0031
0000
,
2000
3100
2000
0000
,
3002
0103
0002
0003
,
0020
0000
0032
0000
,
0203
0000
0310
0000
,
1001
1000
0000
0000
,
1001
0001
0000
0000
,
1000
0010
1010
1010
,
0100
0001
0101
0101
,
0002
0013
2000
3010
,
0110
0000
0110
0000
,
0100
0010
0001
0100
,
0010
1000
0010
0000
,
2000
0100
3002
0000
,
1003
1000
0001
0001
,
0020
0030
0020
0030
,
0010
0010
0200
0300
,
2000
3000
0200
0300
,
2000
3000
0002
0003
,
0001
0010
0001
0010
,
1000
0010
1000
1000
,
0010
0000
0110
0000
,
1000
1000
0100
1000
,
0100
0000
0110
0000
,
0100
0100
0010
0010
,
0100
0000
0110
0000
,
0010
0001
0010
0010
,
0002
1003
2000
3001
,
0002
2003
3002
2003
,
3001
0001
0010
0010
,
1000
1000
0010
0010
,
0010
1000
0100
0000
,
1000
0010
0100
0100
,
0001
0000
0002
0000
,
2003
0000
3001
0000
,
0100
0001
0010
0000
,
0001
0010
0100
0100
,
2000
0000
3200
0000
,
2300
0000
3100
0000
,
1100
0000
1100
0000
,
0100
0001
0010
0000
,
0210
0000
0301
0000
,
1000
0010
0001
0100
,
0010
1000
0100
0000
,
0100
1000
0100
1000
,
0002
0000
2003
0000
,
3020
0000
1030
0000
,
0001
0001
0100
0000
,
0010
0100
1000
0100
,
0200
0000
0320
0000
,
0032
0000
0103
0000
,
0010
0010
1000
0000
,
1000
1000
0100
0100
,
0010
0001
0010
0001
,
0100
0010
1000
0000
,
2002
0000
0000
0000
,
0000
3003
0000
0000
,
0000
1001
0000
0000
;

//---------------dance-single - ----------------
#NOTES:
     dance-single:
     :
     Hard:
     12:
     :
0000
0000
0000
0000
,
0000
0000
0000
0000
,
0000
0000
0000
0000
,
0000
0000
0000
0000
,
0000
0000
0000
0000
,
0010
0000
1000
0010
0000
0200
0000
0000
0000
0301
0000
1000
,
0001
0000
0000
0011
0000
0000
0001
0000
0100
0010
0000
1000
,
0000
0000
0100
1000
0000
0001
0000
0000
0100
0010
0000
1000
,
0000
0000
0001
0010
0000
0100
0000
0000
1000
0010
0000
1000
,
0100
0000
0000
1001
0000
0000
0110
0000
0000
0001
0000
1000
,
0001
0000
0010
0100
0000
1000
0000
0000
1000
0000
0000
0002
,
0000
0000
0103
0010
0000
0000
1000
0000
0001
0000
0000
1000
,
0010
0000
0100
0001
0000
1000
0000
0000
0101
0000
0000
0010
,
1000
0000
1000
0100
0000
0100
0010
0000
0000
0001
0000
1000
,
0001
0000
0001
1000
0000
1000
0100
0000
0000
0000
0000
0010
,
0001
0000
0001
0100
0000
0100
0010
0000
0010
1000
0000
1000
,
0100
0000
0100
0010
0000
0010
0001
0000
1000
0001
0000
0100
,
0000
0000
0110
0000
0000
0001
0000
0000
1000
0100
0000
0010
,
0001
0000
0100
0010
0000
0000
1000
0000
0100
1000
0000
0001
,
0100
0101
0100
1100
,
0100
0000
0100
0001
0000
0001
1000
0000
1000
0100
0000
0100
,
0010
0011
0010
1010
,
0010
0000
0010
0001
0000
0001
1000
0000
1000
0010
0000
0010
,
0100
0000
0001
1000
0000
0100
0000
0000
1100
0000
0000
0001
,
1000
0000
1000
0010
0000
0010
2000
0000
0000
3002
0000
0000
,
0103
0000
0000
0001
0000
0010
0002
0000
0000
2003
0000
0000
,
3100
0000
0000
1000
0000
0010
1000
0000
0001
0100
0000
0010
,
1000
0000
0000
1100
0000
0000
1000
0000
0010
0100
0000
0001
,
0010
0000
0000
1001
0000
0000
0100
0000
0010
0100
0000
0001
,
1000
0000
0100
0000
0000
1000
0000
0000
0001
0000
0000
0010
,
0000
0000
0001
0000
0000
0011
0000
0000
1100
0000
0000
0000
,
0001
0000
0100
0010
0000
1000
0000
0000
0000
0000
0000
0000
,
1000
0000
0100
0010
0000
0001
0000
0000
0000
0000
0000
0000
,
0100
0000
0010
0100
0000
0010
0100
0000
0010
0100
0000
0010
,
1000
0000
1000
0001
0000
0001
1000
0000
0100
0010
0000
0001
,
0100
0000
0000
0101
0000
0000
1010
0000
0000
0000
0000
0001
,
0000
0000
0010
0000
0000
1000
0000
0000
0100
0000
0000
0010
,
0000
0000
0001
0100
0000
0010
1000
0000
0001
1000
0000
0100
,
0000
0000
0110
0000
0000
1001
0000
0000
0001
1000
0000
0001
,
1000
0000
0100
0010
0000
0000
0011
0000
0000
0000
0000
0101
,
0000
0000
1000
0010
0000
0100
0001
0000
0100
0001
0000
1000
,
0000
0000
0001
0000
0000
0010
0100
0000
1000
0010
0000
1000
,
0100
0000
0100
0010
0000
0001
0000
0000
1000
0000
0000
0010
,
1000
0000
0100
0000
0010
0000
0001
0000
0100
0000
0010
0000
,
1000
0000
0001
0000
1000
0000
0100
0000
0010
0001
0000
1000
,
0001
0000
0000
0100
0000
0100
0010
0000
0010
1000
0000
1000
,
0001
0000
0010
0001
0000
1000
0001
0000
0200
0000
0000
0310
,
2000
0000
0000
3002
0000
0000
0023
0000
0000
0130
0000
1000
,
0000
0000
1100
0000
0000
0101
0000
0000
1000
0001
0000
0000
,
0100
0000
0010
0100
0000
0001
0000
0000
1000
0000
0000
0001
,
0000
0000
1000
0100
0000
0100
1000
0000
1000
0001
0000
0100
,
0000
0000
0010
1000
0000
0010
1000
0000
0010
1000
0000
0010
,
1000
0000
1000
0001
0000
0001
1000
0000
0001
0100
0000
0000
,
0001
0011
1000
1010
,
0001
0000
0001
1000
0000
1000
0010
0000
0010
0100
0000
0100
,
0001
0101
1000
1100
,
1000
0000
1000
0010
0000
0010
0100
0000
0100
0001
0000
0001
,
0010
0000
0000
0110
0000
0000
1001
0000
0000
0000
0000
1000
,
0000
0000
0010
0000
0000
0001
0000
0000
0100
0000
0000
0010
,
0000
0000
1000
0001
0000
0000
1000
0000
0100
0010
0000
0001
,
0000
0000
0100
0001
0000
1000
0000
0000
0001
0010
0000
0100
,
1000
0000
0000
1100
0000
0000
0011
0000
0000
0000
0000
1000
,
0000
0000
0010
0000
0000
0100
0000
0000
0001
0000
0000
0010
,
0100
0000
1000
0000
0000
0001
0000
0000
0010
0000
0000
0001
,
0000
0000
0100
0000
0000
1000
0000
0000
0010
0100
0000
0000
,
1001
0100
1010
0100
,
0101
0000
0000
1100
0000
0000
0001
0000
0001
1000
0000
1000
,
0100
0000
0000
1000
0000
0010
1000
0000
0010
1000
0000
0001
,
0100
0000
0100
0010
0000
0010
1000
0000
1000
0001
0000
0001
,
0010
0000
0000
0110
0000
0000
1100
0000
0000
0000
0000
0001
,
0000
0000
0010
0000
0000
0100
0000
0000
1000
0000
0000
0001
,
0000
0000
0100
0010
0000
0000
1000
0000
0010
1000
0000
0000
,
0001
0000
0001
1000
0000
1000
0001
0000
0100
0001
0000
0100
,
0010
0000
0000
1010
0000
0000
0101
0000
0000
0000
0000
1000
,
0000
0000
0100
0000
0000
1000
0000
0000
0010
0000
0000
0001
,
0100
0000
0010
0100
0000
0000
0001
0000
1000
0100
0000
0000
,
1000
0000
1000
0001
0000
0001
0010
0000
0010
0100
0000
0100
,
1000
0000
0000
1001
0000
0000
0011
0000
0000
0000
0000
1000
,
0000
0000
0010
0000
0000
0100
0000
0000
0001
0000
0000
0020
,
0000
0000
0031
1000
0000
0100
1000
0000
0001
0100
0000
0000
,
0010
0000
1000
0001
0000
0100
0000
0000
0000
0000
0000
0000
,
0101
0000
0000
1000
,
0100
0010
0002
0000
,
0003
1001
0000
0000
;

//---------------dance-single - ----------------
#NOTES:
     dance-single:
     :
     Challenge:
     15:
     :
0000
0000
0000
0000
,
0000
0000
0000
0000
,
0000
0000
0000
0000
,
0000
0000
0000
0000
,
0000
0000
0000
0000
,
0001
0000
0010
0001
0000
1000
0100
0000
0100
0010
0000
0001
,
0100
0000
0010
1000
0000
0010
1000
0000
0100
0010
0000
0001
,
0100
0000
0100
0001
0000
0001
0100
0000
0100
0001
0000
0001
,
1000
0000
1000
0100
0000
0100
1000
0000
1000
0010
0000
0100
,
0001
0000
0010
0001
0000
1000
0001
0000
1000
0100
0000
0010
,
0100
0000
0010
0100
0000
1000
0010
0000
1000
0100
0000
0001
,
0010
0000
0100
1000
0000
0010
1000
0000
0001
1000
0000
0100
,
0010
0000
0001
0100
0000
0001
1000
0000
0100
2000
0000
0000
,
3001
0000
0001
0010
0000
0010
0100
0000
0100
1000
0000
1000
,
0010
0000
1000
0001
0000
1000
0100
0000
0010
0001
0000
0100
,
0001
0000
0001
1000
0000
1000
0010
0000
0010
1000
0000
1000
,
0100
0000
0100
0010
0001
0010
0001
0010
0100
1000
0010
0100
,
0001
0000
1000
0100
0000
0001
0010
0000
0100
0010
0000
0001
,
1000
0000
1000
0001
0000
0001
1000
0000
0100
1000
0010
0100
,
0001
0000
0001
1000
0000
1000
0010
0000
0010
0100
0000
0100
,
0001
0000
0001
0010
0000
0010
0100
0000
0100
1000
0010
0100
,
0001
0000
0001
1000
0000
1000
0100
0000
0100
0010
0000
0010
,
0100
0000
0100
1000
0000
1000
0001
0000
0001
0100
0010
1000
,
0001
0000
0010
0001
0000
0100
0010
0000
0100
0001
0000
1000
,
0100
0000
0100
0010
0000
0010
0001
0000
0100
1000
0000
0010
,
1000
0000
0010
1000
0000
0001
1000
0000
0100
0010
0000
0000
,
0011
0000
0000
1100
0000
0001
1000
0000
0010
0100
0000
0010
,
1000
0000
1000
0100
0000
0100
0010
0000
0010
0001
0000
0001
,
0100
0000
0001
1000
0000
0001
0010
0000
0100
1000
0000
0001
,
0100
0000
0010
0100
0000
0001
1000
0000
0100
1000
0000
0001
,
0010
0000
0001
0100
0000
0010
1000
0000
0001
0200
0000
0000
,
0301
0000
0010
0100
0000
1000
0000
0000
0010
0100
0000
0000
,
0001
0000
0100
0010
0000
1000
0000
0000
0001
1000
0000
0000
,
1001
0000
1000
0010
0000
1000
0010
0000
0100
0001
0000
1000
,
0001
0010
0001
1000
0010
1000
0001
0010
0001
1000
0010
1000
,
0100
0000
0000
0110
0000
0010
0001
0000
0100
1000
0000
0001
,
0100
0000
0010
0100
0000
0001
1000
0000
0010
1000
0000
0001
,
0010
0000
0100
0010
0000
0001
0010
0000
0100
1000
0000
0010
,
1000
0000
1000
0001
0000
0001
1000
0000
1000
0001
0000
0001
,
0010
0000
0100
0010
0000
0001
1000
0000
0100
0000
0000
1000
,
0010
0000
1000
0001
0000
0010
0001
0000
0100
0010
0000
1000
,
0000
0000
0100
1000
0010
0100
0001
0000
1000
0001
0000
0100
,
0010
0000
1000
0001
0000
0010
0001
0000
0100
0000
0000
0010
,
1000
0000
0200
0000
0310
0001
1000
0000
0002
0000
0103
0001
,
0010
0000
0200
0000
1300
0001
1000
0000
0010
1000
0000
0010
,
0100
0000
0000
0001
0000
0001
0010
0000
0010
0100
0000
0100
,
1000
0000
0001
1000
0000
0010
0100
0000
0001
0010
0000
0100
,
1000
0000
0010
1000
0000
0001
1000
0000
0100
0010
0000
0001
,
0100
0000
0010
0100
0000
0001
1000
0000
0001
0010
0000
0100
,
1000
0000
0010
1000
0000
0001
0010
0000
0100
1000
0000
0010
,
1000
0000
0100
1000
0000
0001
1000
0000
0100
0010
0000
0001
,
0100
0000
0010
1000
0000
0001
1000
0100
0010
0100
0010
0001
,
1000
0010
1000
0001
0000
0010
0100
0000
1000
0001
0000
0000
,
1000
0000
0010
1000
0000
0010
0100
0000
0001
0100
0000
0001
,
1000
0000
0100
1000
0000
0100
0010
0000
0001
0010
0000
0001
,
0100
0000
0010
0100
0000
0010
1000
0000
0001
1000
0000
0001
,
0010
0000
0010
0100
0000
0100
1000
0000
0001
1000
0000
0001
,
0100
0000
0000
0101
0000
0000
1010
0000
1000
0100
0000
0010
,
0001
0000
0100
0001
0000
0010
0001
0000
0100
0010
0000
1000
,
0100
0000
1000
0001
0000
1000
0010
0000
0100
0010
0000
1000
,
0001
0000
0010
0001
0000
0100
0001
0000
0010
0100
0000
1000
,
0001
0000
0000
0011
0000
0000
1100
0000
0010
1000
0000
0001
,
1000
0000
1000
0100
0000
0100
0010
0000
0010
0001
0000
0001
,
1000
0000
0001
0010
0000
0001
0100
0000
0010
1000
0000
0001
,
1000
0000
0100
0010
0000
0001
0100
0000
0010
1000
0001
1000
,
0100
0000
0000
0011
0000
0000
1001
0000
0100
0010
0000
0000
,
1010
0000
1000
0001
0000
1000
0100
0000
0010
0001
0000
0100
,
0010
0000
0000
1000
0000
1000
0001
0000
0001
1000
0000
0001
,
1000
0100
0010
0001
0100
0010
1000
0001
0010
0100
1000
0001
,
0100
0000
0000
0110
0000
0000
1001
0000
0010
1000
0000
0001
,
1000
0000
1000
0001
0000
0001
0010
0000
0010
0100
0000
0100
,
1000
0000
0001
1000
0000
0010
0100
0000
0001
0010
0000
0100
,
1000
0000
1000
0001
0000
0001
0010
0000
0001
0100
0000
0010
,
1000
0000
0000
1100
0000
0000
0101
0000
0010
1000
0000
0001
,
1000
0000
1000
0100
0000
0100
0010
0000
0010
0001
0000
0001
,
0100
0000
0010
0100
0000
0001
1000
0000
0010
1000
0000
0001
,
0010
0000
0010
0100
0000
0100
1000
0000
0001
1000
0000
0001
,
0100
0000
0010
1000
0000
0000
1001
0000
0001
0010
0000
0100
,
1000
0000
0010
1000
0000
0001
0010
0000
0100
1000
0000
0002
,
0000
0000
0103
0010
0000
0100
0001
0000
0001
1000
0000
1000
,
0100
0000
0010
0001
0000
1000
0000
0000
0000
0000
0000
0000
,
1010
0000
0000
0011
,
1100
0101
1100
0000
,
0000
1001
0000
0000
;

//---------------dance-double - ----------------
#NOTES:
     dance-double:
     :
     Easy:
     4:
     :
00000000
00000000
00000000
00000000
,
00000000
00000000
00000000
00000000
,
00000000
00000000
00000000
00000000
,
00000000
00000000
00000000
00000000
,
00000000
00000000
00000000
00000000
,
00000001
00000000
00001000
00000000
,
00000010
00000000
00001000
00000000
,
00000200
00000000
00000000
00000300
,
00000000
00000000
00000000
00000000
,
00010000
00000000
00001000
00000000
,
00010000
00000000
00001000
00000000
,
00200000
00000000
00000000
00300000
,
00000000
00000000
00000000
00000000
,
00010000
00000000
10000000
00000000
,
00010000
00000000
10000000
00000000
,
00100000
00100000
00100000
00000000
,
01000000
01000000
01000000
00000000
,
00010000
00000000
00100000
00000000
,
00001000
00000000
00010000
00000000
,
00000200
00000000
00000000
00000300
,
00000000
00000000
00000000
00000000
,
00000020
00000000
00000000
00000030
,
00000000
00000000
00000000
00000000
,
00000100
00000000
00000100
00000000
,
00001000
00000000
00001000
00000000
,
00000002
00000000
00000000
00000003
,
00000000
00000000
00000000
00000000
,
00000100
00000000
00000100
00000000
,
00000010
00000000
00000010
00000000
,
00020000
00000000
00000000
00030000
,
00000000
00000000
00000000
00000000
,
00001000
00000000
00000000
00000000
,
00100000
00000000
00000000
00000000
,
00010000
00010000
00010000
00000000
,
01000000
01000000
01000000
00000000
,
00010000
00000000
10000000
00000000
,
00100000
00000000
01000000
00000000
,
00020000
00000000
00000000
00030000
,
00000000
00000000
00000000
00000000
,
10000000
00000000
01000000
00000000
,
00010000
00000000
00001000
00000000
,
00000010
00000000
00000001
00000000
,
00000010
00000000
00000000
00000000
,
00000001
00000000
00000100
00000000
,
00000010
00000000
00010000
00000000
,
00001000
00000000
00010000
00000000
,
00000100
00000000
00000010
00000000
,
00000001
00000000
00000100
00000000
,
00000010
00000000
00000010
00000000
,
00001000
00000000
00001000
00000000
,
00000100
00000000
00010000
00000000
,
00001000
00000000
00000000
00000000
,
00100000
00000000
00000000
00000000
,
01000000
00000000
00000000
00000000
,
10000000
00000000
00000000
00000000
,
00100000
00000000
00000000
00000000
,
01000000
00000000
00000000
00000000
,
00001000
00000000
00001000
00000000
,
00010000
00000000
00010000
00000000
,
00000100
00000000
00001000
00000000
,
00000010
00000000
00000100
00000000
,
00000001
00000000
00000001
00000000
,
00001000
00000000
00001000
00000000
,
00000020
00000000
00000000
00000030
,
00000000
00000000
00000000
00000000
,
00000100
00000000
00000000
00000000
,
00000010
00000000
00000000
00000000
,
00010000
00001000
00010000
00000000
,
00001000
00010000
00001000
00000000
,
01000000
00000000
00010000
00000000
,
00100000
00000000
01000000
00000000
,
00100000
00000000
00000000
00000000
,
00010000
00000000
00000000
00000000
,
01000000
00000000
00001000
00000000
,
00010000
00000000
00000100
00000000
,
00001000
00000000
00000000
00000000
,
00000100
00000000
00000000
00000000
,
00000010
00000000
00000010
00000000
,
00000001
00000000
00000001
00000000
,
00002000
00000000
00000000
00003000
,
00000000
00000000
00000000
00000000
,
00001001
00000000
00000000
00000000
,
00000000
00000000
00000000
00000000
,
00000000
00000110
00000000
00000000
;

//---------------dance-double - ----------------
#NOTES:
     dance-double:
     :
     Medium:
     8:
     :
00000000
00000000
00000000
00000000
,
00000000
00000000
00000000
00000000
,
00000000
00000000
00000000
00000000
,
00000000
00000000
00000000
00000000
,
00000000
00000000
00000000
00000000
,
00000010
00000010
00001000
00000100
,
00010000
00000000
00001000
00000000
,
00010000
00010000
00001000
00100000
,
00010000
00010000
10000000
00000000
,
00100000
00100000
01000000
00000000
,
00010000
00010000
00100000
00001000
,
00010000
00010000
00010000
00010000
,
00001000
00001000
00001000
00000000
,
00010000
00000100
00010000
00000100
,
00001000
00000001
00001000
00000000
,
00000001
00000100
00000001
00000100
,
00000010
00010000
00000010
00000000
,
00001000
00001000
00001000
00000000
,
00000010
00000010
00000010
00010000
,
00001000
00001000
00010000
00010000
,
00001000
00001000
00100000
00100000
,
00020000
10030000
00100000
10000000
,
00020000
01030000
00100000
00000000
,
20000000
30010000
20000000
00000000
,
30200000
01300000
00002000
00003000
,
00020000
00000000
00030200
00000000
,
00002300
00000000
00003001
00000000
,
00000200
00000310
00000002
00000000
,
00002003
00003010
00000200
00000300
,
00000020
00000000
00020030
00000000
,
00032000
00000000
00013000
00000000
,
00011000
00001000
00000000
00000000
,
01100000
01000000
00000000
00000000
,
00100000
10000000
10100000
10100000
,
01000000
00010000
01010000
01010000
,
00200000
00310000
00200000
00301000
,
00011000
00000000
00011000
00000000
,
00010000
00001000
00000100
00000010
,
00000100
00000001
00000100
00000000
,
00000002
00000100
00002003
00000000
,
00003010
00000010
00010000
00010000
,
00002000
00003000
00020000
00030000
,
00001000
00001000
02000000
03000000
,
00020000
00030000
02000000
03000000
,
00200000
00300000
00020000
00030000
,
00100000
10000000
00100000
10000000
,
00010000
00100000
00001000
00001000
,
00010000
00000000
00011000
00000000
,
00001000
00001000
00000100
00000010
,
00001000
00000000
00001001
00000000
,
00001000
00001000
00000100
00000100
,
00010000
00000000
00011000
00000000
,
00010000
00001000
00100000
00100000
,
00020000
10030000
02000000
03100000
,
00020000
20030000
30020000
20030000
,
31000000
00010000
00001000
00000100
,
00000001
00000001
00001000
00001000
,
00001000
00000100
00000010
00000000
,
00000001
00001000
00000100
00000100
,
00010000
00000000
00002000
00000000
,
00023000
00000000
00031000
00000000
,
01000000
00100000
00010000
00000000
,
00100000
10000000
01000000
01000000
,
00200000
00000000
00320000
00000000
,
00230000
00000000
00301000
00000000
,
00011000
00000000
00011000
00000000
,
00001000
00010000
01000000
00000000
,
00021000
00000000
00030100
00000000
,
00001000
00000100
00001000
00000010
,
00000100
00000001
00000010
00000000
,
00000001
00001000
00000001
00001000
,
00000020
00000000
00000000
00000000
00000000
00000000
00000000
00000000
00000000
00000000
00000000
00000000
00000000
00000000
00000000
00000000
00000000
00000000
00000000
00000000
00000000
00000000
00000000
00000000
00000000
00000000
00000000
00000000
00000000
00000000
00000000
00000030
00000000
00002000
00000000
00000000
00000000
00000000
00000000
00000000
00000000
00000000
00000000
00000000
00000000
00000000
00000000
00000000
00000000
00000000
00000000
00000000
00000000
00000000
00000000
00000000
00000000
00000000
00000000
00000000
00000000
00000000
00000000
00000000
,
00003200
00000000
00010300
00000000
,
00001000
00001000
00010000
00000000
,
00001000
01000000
00100000
01000000
,
00020000
00000000
20030000
00000000
,
30200000
00000000
01300000
00000000
,
00010000
00010000
00100000
00000000
,
00001000
00001000
00010000
00010000
,
00001000
00000100
00001000
00000100
,
00000001
00000010
00000100
00000000
,
00000220
00000000
00000000
00000000
,
00000000
00000330
00000000
00000000
,
00000000
00011000
00000000
00000000
;

//---------------dance-double - ----------------
#NOTES:
     dance-double:
     :
     Hard:
     12:
     :
00000000
00000000
00000000
00000000
,
00000000
00000000
00000000
00000000
,
00000000
00000000
00000000
00000000
,
00000000
00000000
00000000
00000000
,
00000000
00000000
00000000
00000000
,
10000000
00000000
00100000
10000000
00000000
00020000
00000000
00000000
00000000
01030000
00000000
00000000
,
01001000
00000000
00000000
00010100
00000000
00000000
00001000
00000000
00000010
00001000
00000000
00000001
,
00000000
00000000
00000100
00000010
00000000
00001000
00000000
00000000
00000100
00010000
00000000
00001000
,
00000000
00000000
01000000
00010000
00000000
00100000
00000000
00000000
00010000
01000000
00000000
00100000
,
10000000
00000000
00000000
10010000
00000000
00000000
01100000
00000000
00000000
01000000
00000000
00100000
,
01000000
00000000
00100000
10000000
00000000
01000000
00000000
00000000
00100000
00000000
00000000
00010000
,
00000000
00000000
00000100
00000002
00000000
00000000
00000013
00000000
00000100
00000000
00000000
00001000
,
00000000
00000000
00000001
00000000
00000000
00000110
00000000
00000000
00001010
00000000
00000000
00000000
,
00000001
00000000
00000001
00000100
00000000
00000100
00000010
00000000
00000000
00010000
00000000
00010000
,
00001000
00000000
00001000
01000000
00000000
01000000
00100000
00000000
00000000
00000000
00000000
10000000
,
01000000
00000000
01000000
00100000
00000000
00100000
00010000
00000000
00010000
01000000
00000000
01000000
,
00001000
00000000
00001000
00010000
00000000
00010000
00000010
00000000
00000010
00000100
00000000
00000100
,
00000010
00000000
00002000
00000000
00000000
00003002
00000000
00000000
00000013
00000001
00000000
00000100
,
00000010
00000000
00001000
00000100
00000000
00000000
00001000
00000000
00000010
00001000
00000000
00000001
,
00000100
00001010
00000100
00000011
,
00001000
00000000
00001000
00000100
00000000
00000100
00010000
00000000
00010000
00001000
00000000
00001000
,
01000000
10100000
01000000
00110000
,
01000000
00000000
01000000
10000000
00000000
10000000
00010000
00000000
00010000
01000000
00000000
01000000
,
00100000
00000000
10000000
00010000
00000000
10000000
00000000
00000000
11000000
00000000
00000000
00100000
,
00010000
00000000
01000000
00010000
00000000
00100000
00001000
00000000
00010000
00000100
00000000
00000000
,
00000110
00000000
00000000
00000001
00000000
00000001
00001000
00000000
00000010
00000100
00000000
00000000
,
00000001
00000000
00000000
00000001
00000000
00001000
00000100
00000000
00001000
00000010
00000000
00001000
,
00000100
00000000
00000000
00001001
00000000
00000000
00000010
00000000
00001000
00000001
00000000
00001000
,
00000100
00000000
00000000
00011000
00000000
00000000
00001000
00000000
00010000
00001000
00000000
00200000
,
00000000
00000000
02300000
00000000
00000000
23000000
00000000
00000000
30020000
00000000
00000000
01030000
,
00000000
00000000
00100000
00000000
00000000
01001000
00000000
00000000
00010100
00000000
00000000
00000000
,
00001000
00000000
00000010
00000100
00000000
00000001
00000000
00000000
00000000
00000000
00000000
00000000
,
00010000
00000000
00100000
01000000
00000000
10000000
00000000
00000000
00000000
00000000
00000000
00000000
,
00001000
00000000
00001000
01000000
00000000
01000000
00100000
00000000
00100000
10000000
00000000
10000000
,
01000000
00000000
01000000
00100000
00000000
00100000
00001000
00000000
00001000
00010000
00000000
00010000
,
00000010
00000000
00000000
00001001
00000000
00000000
00010010
00000000
00000000
00000000
00000000
00001000
,
00000000
00000000
00010000
00000000
00000000
00000100
00000000
00000000
00001000
00000000
00000000
00000010
,
00000000
00000000
00000100
00000001
00000000
00001000
00010000
00000000
01000000
10000000
00000000
00100000
,
00000000
00000000
01000000
00000000
00000000
00010000
00000000
00000000
10000000
01000000
00000000
10000000
,
00010000
00000000
00010000
01000000
00000000
00000000
10100000
00000000
00000000
00000000
00000000
01010000
,
00000000
00000000
01000000
00100000
00000000
10000000
00010000
00000000
00100000
00001000
00000000
00000100
,
00000000
00000000
00000002
00000000
00000000
00000013
00000001
00000000
00000100
00000010
00000000
00001000
,
00000100
00000000
00000010
00000100
00000000
00001000
00000000
00000000
00000002
00000000
00000000
00001003
,
00000100
00000000
00010000
00000000
00001000
00000000
01000000
00000000
00100000
00000000
10000000
00000000
,
00010000
00000000
00100000
00000000
00001000
00000000
00010000
00000000
00000010
00000100
00000000
00000010
,
00001000
00000000
00000000
00000001
00000000
00000001
00001000
00000000
00001000
00000100
00000000
00000100
,
00010000
00000000
00010000
00000010
00000000
00000010
00010000
00000000
00002000
00000000
00000000
01003000
,
00200000
00000000
00000000
20300000
00000000
00000000
32000000
00000000
00000000
03100000
00000000
00010000
,
00000000
00000000
01010000
00000000
00000000
00101000
00000000
00000000
00010000
00001000
00000000
00000000
,
00000010
00000000
00001000
00000010
00000000
00000200
00000000
00000000
00000301
00000000
00000000
00002000
,
00000000
00000000
00003010
00001000
00000000
00001000
00000100
00000000
00000100
00010000
00000000
00001000
,
00010000
00000000
00010000
00000010
00000000
00000010
00001000
00000000
00001000
00000100
00000000
00000100
,
00010000
00000000
00001000
00010000
00000000
00001000
01000000
00000000
01000000
00100000
00000000
00000000
,
10000000
10100000
00010000
00110000
,
01000000
00000000
01000000
00001000
00000000
00001000
00010000
00000000
00010000
00000010
00000000
00000010
,
00001000
00001100
00000001
00000101
,
00001000
00000000
00001000
00000010
00000000
00000010
00010000
00000000
00010000
00001000
00000000
00001000
,
01000000
00000000
00000000
10100000
00000000
00000000
01010000
00000000
00000000
00000000
00000000
10000000
,
00000000
00000000
00100000
00000000
00000000
10000000
00000000
00000000
01000000
00000000
00000000
00010000
,
00000000
00000000
00001000
00000100
00000000
00000000
00000001
00000000
00000010
00000001
00000000
00000100
,
00000000
00000000
00000010
00001000
00000000
00000001
00000000
00000000
00001000
00000100
00000000
00000010
,
00000001
00000000
00000000
00000101
00000000
00000000
00001010
00000000
00000000
00000000
00000000
00010000
,
00000000
00000000
00001000
00000000
00000000
00100000
00000000
00000000
00010000
00000000
00000000
10000000
,
00100000
00000000
01000000
00100000
00000000
10000000
00000000
00000000
00010000
00000000
00000000
00100000
,
00000000
00000000
00001000
00000000
00000000
00010000
00000000
00000000
00000010
00000100
00000000
00000000
,
00001001
00000100
00010010
00000100
,
00011000
00000000
00000000
01001000
00000000
00000000
00100000
00000000
10000000
00100000
00000000
01000000
,
00001000
00000000
00000000
00010000
00000000
00010000
00000010
00000000
00000010
00000100
00000000
00000100
,
00000001
00000000
00000010
00000100
00000000
00001000
00010000
00000000
00100000
01000000
00000000
10000000
,
00100000
00000000
00000000
01001000
00000000
00000000
00101000
00000000
00000000
00000000
00000000
00010000
,
00000000
00000000
00001000
00000000
00000000
01000000
00000000
00000000
00100000
00000000
00000000
10000000
,
00000000
00000000
00010000
00100000
00000000
00000000
00010000
00000000
01000000
00001000
00000000
00000000
,
00010000
00000000
00010000
00000010
00000000
00000010
00001000
00000000
00001000
00000100
00000000
00000100
,
00000010
00000000
00000000
00000011
00000000
00000000
00010100
00000000
00000000
00000000
00000000
00001000
,
00000000
00000000
00000010
00000000
00000000
00001000
00000000
00000000
00000100
00000000
00000000
00000001
,
00000010
00000000
00000000
00000100
00000000
00000000
00010000
00000000
00010000
00001000
00000000
00000000
,
00010000
00000000
00010000
01000000
00000000
01000000
10000000
00000000
10000000
00100000
00000000
00100000
,
01000000
00000000
00000000
01100000
00000000
00000000
10010000
00000000
00000000
00000000
00000000
10000000
,
00000000
00000000
00100000
00000000
00000000
10000000
00000000
00000000
00010000
00000000
00000000
00000200
,
00000000
00000000
00000301
00000010
00000000
00000010
00000001
00000000
00000001
00001000
00000000
00000100
,
00010000
00000000
00001000
00010000
00000000
00000100
00000000
00000000
00000000
00000000
00000000
00000000
,
00001010
00000000
00000000
00010000
,
00001000
00010000
00000200
00000000
,
00000300
00001100
00000000
00000000
;

//---------------dance-double - ----------------
#NOTES:
     dance-double:
     :
     Challenge:
     15:
     :
00000000
00000000
00000000
00000000
,
00000000
00000000
00000000
00000000
,
00000000
00000000
00000000
00000000
,
00000000
00000000
00000000
00000000
,
00000000
00000000
00000000
00000000
,
00000100
00000000
00001000
00000010
00000000
00001000
00000100
00000000
00010000
00001000
00000000
01000000
,
00100000
00000000
10000000
01000000
00000000
00100000
01000000
00000000
10000000
00010000
00000000
01000000
,
00001000
00000000
00010000
00000010
00000000
00001000
00000100
00000000
00010000
00001000
00000000
01000000
,
00100000
00000000
01000000
00001000
00000000
00010000
00000100
00000000
00000010
00000001
00000000
00000100
,
00000010
00000000
00001000
00000100
00000000
00010000
00001000
00000000
00010000
01000000
00000000
00100000
,
01000000
00000000
10000000
00010000
00000000
00100000
00001000
00000000
00010000
00000100
00000000
00000001
,
00000100
00000000
00001000
00000010
00000000
00010000
00001000
00000000
00100000
10000000
00000000
00100000
,
00010000
00000000
01000000
00001000
00000000
00020000
00000000
00000000
00032000
00000000
00000000
01003000
,
00010000
00000000
10000000
00100000
00000000
10000000
01000000
00000000
10000000
00100000
00000000
01000000
,
00001000
00000000
00010000
01000000
00000000
00010000
00000010
00000000
00000100
00000001
00000000
00001000
,
00000100
00000000
00000100
00000010
00000000
00000010
00000001
00000000
00000100
00000001
00000000
00001000
,
00000100
00000000
00010000
00001000
00100000
00010000
01000000
10000000
01000000
00001000
00010000
00000010
,
00000100
00000000
00000010
00001000
00000000
00000002
00000000
00000000
00000013
00000100
00000000
00010000
,
00001000
00000000
00010000
00000010
00000000
00000100
00000010
00000000
00001000
00000100
00010000
00100000
,
10000000
00000000
10000000
01000000
00000000
01000000
10000000
00000000
10000000
01000000
00000000
01000000
,
00100000
00000000
00100000
00001000
00000000
00001000
00010000
00000000
00010000
00000100
00000000
00000100
,
00001000
00000000
00001000
00000010
00000000
00000010
00001000
00000000
00001000
00000010
00000000
00000010
,
00010000
00000000
00010000
00001000
00000000
00001000
01000000
00000000
01000000
00100000
00000000
10000000
,
00010000
00000000
00100000
00001000
00000000
00000100
00000001
00000000
00000010
00000001
00000000
00000100
,
00000010
00000000
00010000
00001000
00000000
00001000
01000000
00000000
00100000
10000000
00000000
01000000
,
10000000
00000000
00010000
00100000
00000000
00010000
01000000
00000000
01000000
00100000
00000000
00000000
,
01010000
00000000
00000000
11000000
00000000
10000000
00010000
00000000
00100000
00001000
00000000
00010000
,
00000001
00000000
00000010
00000001
00000000
00000100
00000010
00000000
00010000
00000100
00000000
00001000
,
00000010
00000000
00000100
00000001
00000000
00000100
00000001
00000000
00001000
00000100
00000000
00010000
,
01000000
00000000
10000000
00100000
00000000
01000000
00100000
00000000
01000000
00001000
00000000
10000000
,
01000000
00000000
10000000
00100000
00000000
01000000
00100000
00000000
10000000
00020000
00000000
00000000
,
10030000
00000000
01000000
00100000
00000000
00010000
00000000
00000000
00001000
00010000
00000000
00000000
,
00000001
00000000
00000010
00000100
00000000
00001000
00000000
00000000
00010000
00001000
00000000
00000000
,
10010000
00000000
01000000
00010000
00000000
01000000
00010000
00000000
01000000
00010000
00000000
10000000
,
00100000
10000000
01000000
00100000
00001000
00010000
00000010
00001000
00000100
00010000
00001000
00100000
,
01000000
00000000
00000000
11000000
00000000
00000000
00101000
00000000
00010000
00000010
00000000
00000001
,
00000010
00000000
00000100
00000010
00000000
00010000
00001000
00000000
00010000
00000100
00000000
00000010
,
00000001
00000000
00000100
00000010
00000000
00001000
00000100
00000000
00001000
01000000
00000000
10000000
,
00010000
00000000
01000000
00100000
00000000
10000000
00000000
00000000
00010000
00100000
00000000
00001000
,
00000100
00000000
00000001
00000010
00000000
00000000
00010100
00000000
00010000
00001000
00000000
02000000
,
00000000
00000000
03100000
10000000
00000000
01000000
10000000
00000000
00100000
10000000
00000000
00010000
,
00000000
00000000
01000000
00001000
00010000
00000010
00100000
00000000
00010000
10000000
00000000
01000000
,
00100000
00000000
00010000
01000000
00000000
00001000
00010000
00000000
00000020
00000000
00000130
00000001
,
00001000
00000000
00000200
00000000
00010300
00001000
01000000
00000000
00200000
00000000
10300000
00010000
,
00100000
00000000
00002000
00000000
00013000
00000001
00000010
00000000
00000100
00010000
00000000
00010000
,
00002000
00000000
00000000
01003000
00000000
00000100
00010000
00000000
00001000
00010000
00000000
00000010
,
00000100
00000001
00000100
00000010
00001000
00000100
00010000
00000000
00002000
00000000
00000000
01003000
,
00100000
00000000
10000000
00100000
00000000
01000000
00010000
00000000
00100000
00010000
00000000
10000000
,
00000000
00000000
11000000
00000000
00000000
10000000
00010000
00000000
01000000
00100000
00000000
01000000
,
00001000
00000000
00010000
00000010
00000000
00000200
00000000
00000000
00000301
00000000
00000000
00001001
,
00000000
00000000
00001000
00000100
00000010
00000001
00000100
00000000
00000010
00010000
00000000
00001000
,
00010000
00000000
00000010
00000100
00000000
00000001
00000010
00000100
00001000
00000100
00010000
01000000
,
10000000
00100000
10000000
00001000
00000000
00010000
00001000
00000000
01000000
00100000
00000000
00000000
,
01000000
00000000
01000000
00001000
00000000
00001000
00010000
00000000
00010000
00000100
00000000
00000100
,
00000010
00000000
00000010
00010000
00000000
00010000
01000000
00000000
01000000
10000000
00000000
10000000
,
00010000
00000000
00010000
01000000
00000000
01000000
00001000
00000000
00001000
00010000
00000000
00010000
,
00000100
00000000
00000100
00000010
00000000
00000010
00000001
00000000
00000001
00000100
00000000
00000010
,
00010000
00000000
00000000
00010100
00000000
00000000
01001000
00000000
01000000
00100000
00000000
10000000
,
01000000
00000000
10000000
00010000
00000000
00100000
00001000
00000000
01000000
00100000
00000000
10000000
,
01000000
00000000
00100000
00010000
00000000
01000000
00010000
00000000
01000000
00100000
00000000
10000000
,
00000000
00000000
01000000
00100000
00000000
00001000
00000000
00000000
00010000
00000100
00000000
00001000
,
00000001
00000000
00000000
00000011
00000000
00000000
00001010
00000000
00000100
00000001
00000000
00001000
,
00000100
00000000
00010000
00000010
00000000
00100000
00010000
00000000
10000000
00001000
00000000
01000000
,
00100000
10000000
00010000
00100000
00000000
01000000
10000000
00000000
00100000
01000000
00000000
00010000
,
10000000
00000000
00100000
01000000
00000000
00010000
00100000
00000000
00001000
00010000
00000010
00000100
,
00000001
00000000
00000000
00000011
00000000
00000000
00011000
00000000
00010000
00000100
00000000
00000000
,
00010010
00000000
00000000
00101000
00000000
00000000
11000000
00000000
10000000
00100000
00000000
01000000
,
00001000
00000000
00000000
00010000
00000000
00001000
01000000
00000000
01000000
00100000
00000000
00100000
,
10000000
01000000
00010000
00000100
00000001
00000010
00000100
00010000
00001000
01000000
10000000
01000000
,
00010000
00000000
00000000
00110000
00000000
00000000
01001000
00000000
00010000
00001000
00000000
01000000
,
00100000
00000000
00001000
00000100
00000000
00000001
00000010
00000000
00000100
00001000
00000000
00000001
,
00000100
00000000
00000100
00000010
00000000
00000010
00010000
00000000
00010000
00001000
00000000
00001000
,
10000000
00000000
10000000
01000000
00000000
01000000
00100000
00000000
00100000
00010000
00000000
00010000
,
00000100
00000000
00000000
00000101
00000000
00000000
00001100
00000000
00001000
00000010
00000000
00010000
,
00001000
00000000
00010000
00000010
00000000
00000100
00000001
00000000
00000010
00001000
00000000
01000000
,
10000000
00000000
10000000
00010000
00000000
00010000
01000000
00000000
01000000
00100000
10000000
00010000
,
01000000
00000000
00100000
10000000
00000000
01000000
00100000
00000000
00010000
01000000
00100000
10000000
,
00010000
00000000
00000000
00110000
00000000
00000000
00001100
00000000
00010000
00001000
00000000
00000010
,
00000001
00000000
00000100
00000010
00000000
00001000
00000100
00000000
00000010
00000001
00000000
00010000
,
00001000
00000000
00010000
00001000
00000000
01000000
00100000
00000000
10000000
01000000
00000000
00100000
,
00010000
00000000
01000000
00100000
00000000
10100000
00000000
00000000
00000000
00000000
00000000
00000000
,
01001000
00000000
00000000
00011000
,
00010100
00000110
00000011
00000000
,
00000000
00101000
00000000
00000000
;
