#TITLE:Ristaccia;
#SUBTITLE:;
#ARTIST:Zektbach;
#TITLETRANSLIT:;
#SUBTITLETRANSLIT:;
#ARTISTTRANSLIT:;
#GENRE:;
#CREDIT:;
#BANNER:Ristaccia-bn.png;
#BACKGROUND:Ristaccia-bg.png;
#LYRICSPATH:;
#CDTITLE:;
#MUSIC:Ristaccia.ogg;
#OFFSET:0.593000;
#SAMPLESTART:39.907001;
#SAMPLELENGTH:20.000000;
#SELECTABLE:YES;
#DISPLAYBPM:160.000000;
#BPMS:0.000000=160.000000
;
#STOPS:
;
#BGCHANGES:;
#KEYSOUNDS:;
#ATTACKS:;

//---------------dance-single - ----------------
#NOTES:
     dance-single:
     :
     Hard:
     12:
     0.498369,0.632540,0.450140,0.420130,0.315098,465.000000,405.000000,60.000000,56.000000,0.000000,0.000000,0.498369,0.632540,0.450140,0.420130,0.315098,465.000000,405.000000,60.000000,56.000000,0.000000,0.000000:
0000
0000
0000
0000
,
0000
0000
0000
0000
,
0000
0000
0000
0000
,
0000
0000
0000
0000
,
0000
0000
0000
0000
,
0000
0000
0000
0000
,
0000
0000
0000
0000
,
0000
0000
0000
0000
,
0000
0000
0000
0000
,
0001
0000
0000
0000
1000
0000
0000
0010
0000
0010
0000
0010
0100
0000
0000
0000
,
0001
0000
0000
0000
1000
0000
0000
0010
0000
0010
0000
0010
0100
0000
0000
0000
,
0101
1010
1100
0011
,
1000
0000
0000
0000
0001
0000
0000
0100
0000
0100
0000
0100
0010
0000
0000
0000
,
1000
0100
0001
0100
1000
0000
1001
0000
,
0010
0000
0000
0000
1000
0000
0000
0001
0000
0001
0000
0001
0100
0000
0010
0000
,
2000
0000
0000
0000
3100
0000
0010
0001
,
0200
0310
1000
0001
,
0011
1100
0010
0100
,
0001
0010
1000
0010
0001
0010
0100
0000
,
2000
0000
3002
0000
0013
0000
0001
0100
,
1000
0010
0100
0001
,
2002
3003
1000
0001
,
0011
0110
1100
1001
,
0202
0000
0000
0000
0003
0000
0000
0000
0310
0000
0000
1000
0000
0100
0000
0000
,
2200
0000
0000
0000
0300
0000
0000
0000
3001
0000
0000
0100
0000
0010
0000
0000
,
2020
0000
0000
0000
3000
0000
0000
0000
0130
0000
0000
0001
0000
1000
0000
0000
,
0101
0000
0001
0010
0100
1000
0010
0100
,
0001
0000
1000
0000
,
0010
0000
0100
0000
0001
0000
1000
0100
,
1000
0010
0100
0001
,
0010
0000
0001
0100
1000
0010
0100
0001
,
1001
0000
0100
0010
1000
0100
0001
0000
,
0010
0001
0100
0001
1000
0010
0100
0001
,
0010
1000
0010
0001
0010
0100
1000
0000
,
0001
0100
0001
1000
0010
0100
0001
0000
,
0210
0000
0301
0000
0100
0010
1000
0000
,
0001
0010
0001
0100
0001
1000
0100
0000
,
0020
0001
0031
0000
0100
0010
1000
0000
,
1000
0100
0001
0010
0001
1000
0100
0000
,
1010
0010
0100
0000
0101
1000
0001
0000
,
0010
0001
0000
0000
1000
0001
0000
0000
1000
0100
0000
0000
1000
0010
0000
0000
,
0110
0000
0001
0011
0000
0100
1100
0000
,
0010
0000
1001
0000
0000
0000
0000
0000
0100
0001
0000
0000
0010
0001
0000
0000
,
0101
0000
1000
1100
0000
0010
0011
0000
,
0100
0000
1010
0000
0000
0000
0000
0000
0001
1000
0000
0000
0010
1000
0000
0000
,
1100
0100
0010
0011
0000
0000
1001
0001
,
1000
0000
0101
0000
0000
0000
0000
0000
0010
1000
0000
0000
0010
0100
0000
0000
,
0110
0001
1000
1010
0000
0000
1100
0100
,
0010
0000
0011
0000
0000
0000
0000
0000
1000
0001
0000
0000
0100
0010
0000
0000
,
2020
0000
0030
0001
0002
0000
0000
0000
,
3003
0000
0012
0000
1003
0101
0000
0000
,
0220
0000
0300
1000
2000
0000
0000
0000
,
3030
0000
1001
0000
0000
1100
0000
0000
,
0022
0000
0030
0100
0200
0000
0000
0000
,
0303
0000
0120
0000
1030
0101
0000
0000
,
2002
0000
0003
0010
3020
0000
0200
0000
,
0330
0000
0101
0000
0000
1010
0000
0000
,
1001
0000
0001
0000
1000
0000
0010
0100
,
0002
0023
0230
2300
,
3020
0030
0100
0001
,
1000
0001
1000
0010
,
0100
0000
0010
0000
0100
0000
0001
1000
,
0200
0320
0032
2003
,
3002
0003
0010
0001
,
0200
0310
2000
3001
,
0022
0030
2000
3000
,
0020
0030
0200
0303
,
2020
0030
0002
0003
,
0020
0030
0200
3300
,
1001
0000
0000
0010
0000
1000
0020
0000
0000
0130
0000
0100
,
0001
0000
0000
0010
0000
0001
0100
0000
0000
0001
1000
0001
,
0100
0000
0000
0010
0000
0000
2010
0000
0000
3001
0000
0001
,
0200
0000
0000
0310
0000
0000
1000
0001
1000
0001
1000
0001
,
0100
0000
0000
0001
0010
0100
1000
0000
1000
0100
0000
0000
,
1100
0000
0000
1000
0001
0100
0010
0000
0010
1000
0000
0000
,
0101
0000
0000
1000
0001
1000
0010
0000
0000
0100
0001
1000
,
0100
0000
0000
0110
0000
0000
0001
1000
0001
1000
0000
0000
,
1010
0000
0000
1000
0100
0010
0001
0000
0001
0100
0000
0010
,
1000
0000
0000
0100
1000
0001
0100
0000
0010
0100
0000
0000
,
0110
0000
0000
0001
0100
0010
1000
0000
0000
0100
0010
0100
,
1000
0000
0000
1001
0000
0000
1000
0001
0100
0010
0000
0000
,
1000
0000
1000
0010
0000
0010
0100
0000
0100
0001
0000
0001
,
0010
0000
0010
0100
0000
0100
1000
0000
1000
0010
0000
0010
,
0100
0000
0100
0001
0000
0001
0010
0000
0010
0100
0000
0100
,
1000
0000
1000
0010
0000
0010
0100
0000
0100
0001
1000
0001
,
0000
0000
0000
0000
1000
0100
1000
0100
1000
0000
0000
0000
0202
0000
0000
0000
,
0000
0000
0000
0000
,
0000
0000
0000
0000
,
0000
0000
0000
0303
;

//---------------dance-single - ----------------
#NOTES:
     dance-single:
     :
     Medium:
     9:
     0.375116,0.499374,0.390121,0.442637,0.101281,350.000000,298.000000,52.000000,59.000000,0.000000,0.000000,0.375116,0.499374,0.390121,0.442637,0.101281,350.000000,298.000000,52.000000,59.000000,0.000000,0.000000:
0000
0000
0000
0000
,
0000
0000
0000
0000
,
0000
0000
0000
0000
,
0000
0000
0000
0000
,
0000
0000
0000
0000
,
0000
0000
0000
0000
,
0000
0000
0000
0000
,
0000
0000
0000
0000
,
0000
0000
0000
0000
,
0001
0000
0001
0000
1000
0100
0001
0000
,
1000
0000
1000
0000
0001
0100
1000
0000
,
1010
1010
0101
0101
,
0010
0000
0010
0000
1000
0100
0001
0000
,
0010
0001
0010
0001
0010
0000
1001
0000
,
0100
0000
0100
0000
0001
0000
1000
0001
,
0200
0000
0000
0000
0300
0000
0010
1000
,
0002
0000
0013
0100
,
1100
0101
0000
0000
,
1000
0010
1000
0010
1000
0000
0001
0000
,
0020
0000
0200
0000
0330
0000
1000
0001
,
0020
0000
0030
0000
,
2002
3003
1000
0001
,
0011
0110
1100
0101
,
2002
0003
3010
1000
,
2200
0300
0002
3003
,
0022
0030
1003
0100
,
0220
0300
0001
0130
,
1000
0000
0001
0000
,
1000
0100
1000
0000
,
0010
1000
0001
1000
,
0100
0000
0000
1000
0001
0000
0000
0000
,
0011
0100
1000
0001
,
0100
0001
0010
0000
0001
1000
0100
0000
,
1000
0000
0001
0000
1000
0010
0100
0000
,
0001
0010
0001
1000
0100
0000
0010
0000
,
0110
0000
0001
0000
1000
0100
0001
0000
,
0020
0000
0032
0000
0103
0010
1000
0000
,
0020
0000
1030
0100
,
1000
0001
0100
0000
0001
0010
1000
0000
,
2100
3001
0102
1003
,
0001
0010
0001
0100
0001
1000
0001
0000
,
0011
0000
0000
0110
0000
0000
1100
0000
,
0000
1010
0000
0000
1000
0100
1000
0000
,
1010
0000
0000
0101
0000
0000
0011
0000
,
0000
0110
0000
0000
1000
0001
1000
0000
,
1010
0000
0000
1001
0000
0000
1100
0000
,
0000
0011
0000
0000
0100
0001
0100
0000
,
0110
0000
0000
1001
0000
0000
1010
0000
,
0000
0011
0000
0000
0001
0100
0001
0000
,
2002
0000
3003
0200
0020
0000
0000
0000
,
0330
2000
0002
3003
,
0022
0000
0033
2000
0002
0000
0000
0000
,
3003
0000
0101
0000
0000
1100
0000
0000
,
0202
0000
0303
0200
0020
0000
0000
0000
,
0330
0200
0002
0303
,
0220
0000
0330
1000
0002
0000
0200
0000
,
0303
0000
1010
0000
0000
0101
0000
0000
,
1000
0000
0000
0000
1000
0000
0001
0100
,
0001
0001
1000
1000
,
0010
0000
0010
0000
,
1000
0000
0100
0000
,
0010
0000
0000
0000
0010
0000
0001
0100
,
0001
0001
1000
1000
,
0100
0000
0100
0000
,
1000
0000
0001
0000
,
0020
0000
0031
0000
,
0022
0033
2200
3300
,
0002
0000
1003
0000
,
2020
3030
0202
0303
,
1001
0000
0000
1000
0000
0001
0200
0000
0000
0000
0000
0000
,
0010
0000
0000
0000
0000
0000
0301
0000
0000
0100
0000
0010
,
1000
0000
0000
0001
0000
1000
0200
0000
0000
0000
0000
0000
,
0010
0000
0000
0000
0000
0000
1300
0000
1000
0001
0000
0001
,
0100
0000
0000
0001
0000
1000
0200
0000
0000
0000
0000
0000
,
0310
0000
0000
0001
0000
1000
0002
0000
0000
0000
0000
0000
,
0103
0000
0000
0100
0000
0010
1000
0000
0000
1000
0000
0001
,
1000
0000
0000
1100
0000
0000
0101
0000
0000
0100
0000
0100
,
0010
0000
0000
1000
0000
0001
0200
0000
0000
0000
0000
0000
,
0301
0000
0000
0010
0000
0100
2000
0000
0000
0000
0000
0000
,
3010
0000
0000
0100
0000
0100
0001
0000
0000
1000
0000
0001
,
1000
0000
0000
0100
0000
0100
0010
0000
0010
0001
0000
0000
,
1000
0000
1000
0010
0000
0000
1000
0000
1000
0010
0000
0000
,
1000
0000
1000
0010
0000
0010
0100
0000
0100
0001
0000
0000
,
0010
0000
0010
0001
0000
0000
0010
0000
0010
0001
0000
0000
,
0010
0000
0010
0100
0000
0100
1000
0000
0001
1000
0000
0001
,
0000
0000
0010
0001
0100
0000
2200
0000
,
0000
0000
0000
0000
,
0000
0000
0000
0000
,
0000
0000
0000
3300
;

//---------------dance-single - ----------------
#NOTES:
     dance-single:
     :
     Easy:
     7:
     0.249720,0.432790,0.180056,0.330102,0.000000,233.000000,209.000000,24.000000,44.000000,0.000000,0.000000,0.249720,0.432790,0.180056,0.330102,0.000000,233.000000,209.000000,24.000000,44.000000,0.000000,0.000000:
0000
0000
0000
0000
,
0000
0000
0000
0000
,
0000
0000
0000
0000
,
0000
0000
0000
0000
,
0000
0000
0000
0000
,
0000
0000
0000
0000
,
0000
0000
0000
0000
,
0000
0000
0000
0000
,
0000
0000
0000
0000
,
0001
0001
0001
0001
,
1000
1000
1000
1000
,
1001
1001
0110
0110
,
0100
0100
0100
0100
,
0010
0010
1001
0110
,
0100
0100
0100
0100
,
0002
0000
0003
1000
,
0020
0000
1030
0100
,
1000
0001
0000
0000
,
0010
0001
0010
0100
,
1000
0002
0000
0103
,
0020
0000
0030
0000
,
1001
0000
0100
0010
,
1000
1000
0001
0001
,
2002
3000
0200
0300
,
2000
3000
0200
0303
,
0220
0300
2000
3000
,
0002
0003
2000
3030
,
0010
0000
0010
0000
,
1000
0100
1000
0000
,
0001
0010
0001
0010
,
0100
0000
0100
0000
,
0110
0000
1000
0001
,
1000
0010
0100
0000
,
0001
0001
1000
0010
,
1000
0000
0100
0000
,
0110
0000
0001
0010
,
1000
0100
1000
0010
,
0200
0000
0310
0100
,
0001
0001
1000
0100
,
2002
3003
0220
0330
,
1000
1000
0001
0001
,
0010
0000
0000
0001
0000
0000
0100
0000
,
0000
1000
0000
0000
0000
0000
0000
0000
,
0010
0000
0000
1000
0000
0000
0100
0000
,
0000
0001
0000
0000
0000
0000
0000
0000
,
1000
0000
0000
0010
0000
0000
0001
0000
,
0000
0100
0000
0000
0000
0000
0000
0000
,
0001
0000
0000
0010
0000
0000
1000
0000
,
0000
0100
0000
0000
0000
0000
0000
0000
,
0220
0000
0000
0000
,
0300
1000
0031
0000
,
2002
0000
0000
0000
,
3003
0000
0100
0000
0000
0100
0000
0000
,
0220
0000
0000
0000
,
0030
1000
0301
0000
,
2002
0000
0000
0000
,
3003
0000
0010
0000
0000
0010
0000
0000
,
0010
0000
0000
0000
,
1000
0100
1000
0000
,
0001
0000
0000
0000
,
1000
0000
0001
0000
,
0100
0000
0000
0000
,
0010
1000
0010
0000
,
0100
0000
0000
0000
,
0001
0000
1000
0000
,
2002
3000
0200
0300
,
0020
0030
2000
3000
,
0200
0300
2000
3000
,
0020
0030
0200
0303
,
0110
0001
0110
1000
,
0010
0100
0001
0001
,
1001
0100
1001
0010
,
1000
0100
1000
0001
,
0010
0100
2000
0000
,
3010
0100
0002
0000
,
1003
1000
0001
0001
,
0010
0001
0100
0010
,
1000
1000
0002
0000
,
0013
0010
0200
0000
,
0310
0001
0010
0100
,
1000
1000
0001
0100
,
0001
0001
1000
1000
,
0010
1000
0100
0010
,
0001
0001
1000
1000
,
0010
1000
0100
0010
,
0000
0220
0330
2002
,
0000
0000
0000
0000
,
0000
0000
0000
0000
,
0000
0000
0000
3003
;

//---------------dance-single - ----------------
#NOTES:
     dance-single:
     :
     Beginner:
     3:
     0.128611,0.266333,0.015005,0.060019,0.000000,120.000000,118.000000,2.000000,8.000000,0.000000,0.000000,0.128611,0.266333,0.015005,0.060019,0.000000,120.000000,118.000000,2.000000,8.000000,0.000000,0.000000:
// measure 0
0000
0000
0000
0000
,  // measure 1
0000
0000
0000
0000
,  // measure 2
0000
0000
0000
0000
,  // measure 3
0000
0000
0000
0000
,  // measure 4
0000
0000
0000
0000
,  // measure 5
0000
0000
0000
0000
,  // measure 6
0000
0000
0000
0000
,  // measure 7
0000
0000
0000
0000
,  // measure 8
0000
0000
0000
0000
,  // measure 9
0001
0000
0000
0000
,  // measure 10
1000
0000
0000
0000
,  // measure 11
0010
0010
0010
0010
,  // measure 12
0000
0000
0000
0000
,  // measure 13
0100
0100
0100
0100
,  // measure 14
0000
0000
0000
0000
,  // measure 15
0001
0000
0000
0000
,  // measure 16
1000
0000
0000
0000
,  // measure 17
0100
0100
0000
0000
,  // measure 18
0010
0000
0001
0000
,  // measure 19
0100
0000
0000
0010
,  // measure 20
0010
0000
0000
0000
,  // measure 21
1001
0000
0110
0000
,  // measure 22
0100
0100
0100
0000
,  // measure 23
0020
0000
0000
0000
,  // measure 24
0030
0000
0000
0000
,  // measure 25
0200
0000
0000
0000
,  // measure 26
0300
0000
0000
0000
,  // measure 27
0001
0000
0000
0000
,  // measure 28
1000
0000
0000
0000
,  // measure 29
0001
0000
0010
0000
,  // measure 30
0100
0000
0000
0000
,  // measure 31
1000
0000
1000
0000
,  // measure 32
0001
0000
0100
0000
,  // measure 33
0010
0000
0010
0000
,  // measure 34
0100
0000
0001
0000
,  // measure 35
1000
0000
1000
0000
,  // measure 36
0001
0000
0010
0000
,  // measure 37
0001
0000
0100
0000
,  // measure 38
0010
0000
1000
0000
,  // measure 39
0100
0000
0100
0000
,  // measure 40
1000
1000
1000
0000
,  // measure 41
0001
0000
0010
0000
,  // measure 42
0001
0000
0000
0000
,  // measure 43
1000
0000
0100
0000
,  // measure 44
1000
0000
0000
0000
,  // measure 45
0010
0000
1000
0000
,  // measure 46
0010
0000
0000
0000
,  // measure 47
0100
0000
0001
0000
,  // measure 48
0100
0000
0000
0000
,  // measure 49
2000
0000
0000
0000
,  // measure 50
0000
0000
3000
0000
,  // measure 51
0002
0000
0000
0000
,  // measure 52
0000
0000
0003
0000
,  // measure 53
0020
0000
0000
0000
,  // measure 54
0000
0000
0030
0000
,  // measure 55
0200
0000
0000
0000
,  // measure 56
0000
0000
0300
0000
,  // measure 57
1000
0000
0000
0000
,  // measure 58
0001
0000
0001
0000
,  // measure 59
0001
0000
0000
0000
,  // measure 60
0000
0000
0000
0000
,  // measure 61
0100
0000
0000
0000
,  // measure 62
0010
0000
0010
0000
,  // measure 63
0010
0000
0000
0000
,  // measure 64
0000
0000
0000
0000
,  // measure 65
1000
0000
0000
0000
,  // measure 66
0001
0000
0010
0000
,  // measure 67
0001
0000
0000
0000
,  // measure 68
0100
0000
0010
0000
,  // measure 69
1000
0000
2000
0000
,  // measure 70
3000
0000
0001
0000
,  // measure 71
0010
0000
0100
0000
,  // measure 72
0000
0000
1000
1000
,  // measure 73
1000
0000
0001
0000
,  // measure 74
1000
0000
0010
0000
,  // measure 75
0100
0000
0001
0000
,  // measure 76
0010
0010
0010
0000
,  // measure 77
0001
0000
0001
0000
,  // measure 78
0001
0000
0010
0000
,  // measure 79
0100
0000
1000
0000
,  // measure 80
0010
0010
0010
0000
,  // measure 81
1000
0000
0001
0000
,  // measure 82
1000
0000
0001
0000
,  // measure 83
0010
0000
0100
0000
,  // measure 84
1000
1000
1000
1000
,  // measure 85
0000
0000
0000
0020
,  // measure 86
0000
0000
0000
0000
,  // measure 87
0000
0000
0000
0000
,  // measure 88
0000
0000
0000
0030
;
