#VERSION:0.83;
#TITLE:Rippin' 2 Trippin';
#SUBTITLE:;
#ARTIST:Fracus;
#TITLETRANSLIT:;
#SUBTITLETRANSLIT:;
#ARTISTTRANSLIT:;
#GENRE:;
#ORIGIN:;
#CREDIT:;
#BANNER:Rippin' 2 Trippin'-bn.png;
#BACKGROUND:Rippin' 2 Trippin'-bg.png;
#PREVIEWVID:;
#JACKET:Rippin' 2 Trippin'-jacket.png;
#CDIMAGE:;
#DISCIMAGE:;
#LYRICSPATH:;
#CDTITLE:;
#MUSIC:Rippin' 2 Trippin'.ogg;
#OFFSET:0.000000;
#SAMPLESTART:24.000000;
#SAMPLELENGTH:20.000000;
#SELECTABLE:YES;
#DISPLAYBPM:160.000000;
#BPMS:0.000=160.000;
#STOPS:;
#DELAYS:;
#WARPS:;
#TIMESIGNATURES:0.000=4=4;
#TICKCOUNTS:0.000=4;
#COMBOS:0.000=1;
#SPEEDS:0.000=1.000=0.000=0;
#SCROLLS:0.000=1.000;
#FAKES:;
#LABELS:0.000=Song Start;
#BGCHANGES:;
#KEYSOUNDS:;
#ATTACKS:
;

//---------------dance-single - ----------------
#NOTEDATA:;
#CHARTNAME:;
#STEPSTYPE:dance-single;
#DESCRIPTION:;
#CHARTSTYLE:;
#DIFFICULTY:Hard;
#METER:12;
#RADARVALUES:0.586337,0.598716,0.353485,0.255295,0.024548,418.000000,382.000000,36.000000,26.000000,0.000000,0.000000,0.000000,0.000000,0.000000,0.586337,0.598716,0.353485,0.255295,0.024548,418.000000,382.000000,36.000000,26.000000,0.000000,0.000000,0.000000,0.000000,0.000000;
#CREDIT:;
#DISPLAYBPM:160.000000;
#NOTES:
0000
0000
0000
0000
,
0000
0000
0000
0000
,
0000
0000
0000
0000
,
2200
0000
0000
3300
,
0001
0100
0001
0010
0001
0100
2000
0000
,
0020
3030
0101
0101
,
1000
0001
0010
0001
0100
0010
1000
0001
,
0022
0000
0000
0033
,
1001
0100
0001
0010
0001
0100
0010
1000
,
0100
0010
0001
0000
0202
0000
0303
1000
,
0001
0010
0000
0001
1000
0010
1000
0100
,
0220
0000
0000
0330
,
1001
0001
0010
0001
0100
0010
1000
0001
,
1000
0100
0010
0001
0100
0000
0010
1000
,
0001
0010
0000
0001
0100
0000
0010
1000
,
0100
0010
0001
0000
1001
0000
0100
0010
,
1000
0001
2000
0000
0010
0000
3001
0100
,
0010
1000
0010
0100
0001
0000
0020
0000
,
0031
1000
0002
0000
0100
0000
0013
0100
,
1000
0000
0001
0000
0000
1000
0000
0000
0202
0000
0000
0000
0303
0000
0000
0000
,
1001
0010
0000
1000
0001
0010
0001
0100
,
0010
1000
0001
0010
0100
0010
0001
1000
,
0001
0100
0000
0010
1000
0001
0000
1000
,
2020
0000
0000
3030
,
1001
0100
0001
0100
0002
0000
0013
0100
,
1000
0001
0000
1000
0001
1000
0100
0000
,
0110
0001
0000
0110
0000
1000
0001
1000
,
0010
0100
0001
1000
0001
0010
0100
1000
,
0001
0100
0020
0000
1000
0000
0130
0010
,
0100
0001
1000
0010
1000
0001
1000
0000
,
1100
0001
0000
0101
0000
0010
1000
0100
,
1000
0001
1000
0001
1001
0000
0100
0010
,
1000
0010
0100
0001
0010
0000
0001
1000
,
0001
0100
0001
0010
0001
0100
0001
0000
,
1010
0100
0000
0101
0000
0001
1000
0010
,
0100
0001
1000
0010
1000
0100
0001
0000
,
0011
0100
1000
0001
1000
0010
0100
0001
,
0010
0100
0010
0001
1000
0001
0100
0000
,
1001
0000
0100
0000
0000
0000
0010
0000
1000
0000
0000
0000
0001
0100
0001
0100
,
0001
0010
0001
1000
0010
0100
0000
0001
,
0001
1000
0100
1000
0010
0100
0001
1000
,
0100
0010
0001
0000
1001
0100
0010
0000
,
0110
0000
0001
0100
1000
0000
0010
1000
,
0100
0010
0100
0000
1001
0010
1000
0000
,
0101
2000
0000
0001
3001
0000
0010
0100
,
1000
0001
1000
0000
1001
0010
0100
0000
,
0110
0001
1000
0001
0100
0000
0010
1000
,
0001
0010
0100
0000
1000
0010
1000
0001
,
2100
0000
3002
0000
0013
0001
0100
0010
,
1000
0001
1000
0000
0011
0100
0010
1000
,
0001
0010
0000
0001
1000
0000
0010
0100
,
0010
1000
0001
1000
0100
0010
0001
1000
,
0100
0000
0010
0001
0100
0000
0001
1000
,
0001
0100
0010
0000
1010
0100
0001
0000
,
1001
0000
1000
0001
0010
0000
0100
1000
,
0010
0100
0001
2000
0000
3200
0000
0010
,
0310
0001
0010
0100
1000
0010
1000
0001
,
0100
0010
1000
0000
0110
1000
0001
1000
,
0100
0010
0000
0001
1000
0010
1000
0001
,
0100
0010
1000
0001
0010
0000
0001
1000
,
0001
0000
0100
0010
1000
0000
0001
0010
,
0001
1000
0100
0000
0011
0000
0001
1000
,
1001
0000
0000
0000
0010
0000
1000
0000
0100
0000
0000
0000
1000
0001
1000
0001
,
1000
0010
0100
0001
0010
0001
1000
0000
,
0202
0000
0000
0000
,
0000
0000
0000
0000
,
0000
0000
0000
0000
,
0000
0000
0000
0303
;

//---------------dance-single - ----------------
#NOTEDATA:;
#CHARTNAME:;
#STEPSTYPE:dance-single;
#DESCRIPTION:;
#CHARTSTYLE:;
#DIFFICULTY:Medium;
#METER:9;
#RADARVALUES:0.486744,0.532192,0.490952,0.353485,0.004910,347.000000,297.000000,50.000000,36.000000,0.000000,0.000000,0.000000,0.000000,0.000000,0.486744,0.532192,0.490952,0.353485,0.004910,347.000000,297.000000,50.000000,36.000000,0.000000,0.000000,0.000000,0.000000,0.000000;
#CREDIT:;
#DISPLAYBPM:160.000000;
#NOTES:
0000
0000
0000
0000
,
0000
0000
0000
0000
,
0000
0000
0000
0000
,
0202
0000
0000
0303
,
2000
0000
0000
3002
0000
0000
0023
0000
,
0031
0100
1000
0000
1001
0000
1001
0000
,
0010
1000
0000
0010
0100
0000
0001
1000
,
2200
0000
0000
3300
,
1001
0200
0000
0320
0000
0130
0001
1000
,
0001
0100
2020
3030
,
0001
1000
0000
0001
0010
0000
0100
1000
,
2020
0000
0000
3030
,
0110
0001
0000
1000
0001
0000
0010
0100
,
1000
0000
0001
0000
0011
0000
0100
0001
,
0100
0010
0000
1000
0001
0000
0010
0100
,
1000
0000
0001
0000
0101
0000
0100
0010
,
1000
0001
2000
0000
0010
0000
3000
0001
,
1000
0100
0000
1000
0001
0000
0020
0000
,
0031
1000
0002
0000
0100
0000
0103
0010
,
1000
0000
0001
0000
0000
0001
0000
0000
0202
0000
0000
0000
0303
0000
0000
0000
,
1010
1000
0000
0001
0100
0000
0010
1000
,
0010
0100
0000
0010
1000
0000
0001
0000
,
0010
0001
0000
1000
0001
0100
0000
0000
,
0220
0000
0000
0330
,
1001
0100
0020
0000
1000
0000
0001
0000
,
1030
1000
0000
0000
0001
0100
0001
0000
,
0010
0001
0000
1001
0000
0000
0000
0100
,
0010
1000
0010
0000
0101
0000
0101
0000
,
1000
0001
0200
0000
0010
0000
1000
0000
,
0310
0010
0000
0000
1000
0001
0100
0000
,
0010
1000
0000
1100
0000
0000
0000
0000
,
0001
1000
0001
1000
0001
1000
0001
0000
,
0210
0310
0210
0310
,
1000
0010
0100
0000
1010
0000
0001
0000
,
0010
0100
0000
1100
0001
0000
0100
0010
,
0100
0010
1000
0000
0101
0000
1000
0000
,
0001
0010
0200
0000
0001
0000
1300
0010
,
1000
0010
0100
0000
1001
0000
0010
0000
,
1001
0100
0000
0110
0000
0000
1000
0001
,
1000
0010
0000
0020
0000
0230
0000
0301
,
0102
0000
0010
0000
1003
0000
0001
1000
,
0001
0000
0010
0000
0011
0000
1000
0001
,
1000
0000
0010
0100
0001
0000
0010
0100
,
1000
0000
0001
0000
1100
0000
0100
0010
,
0001
1000
0000
0001
1000
0000
0001
0100
,
0010
0010
1010
0001
,
0011
0000
0000
0100
1000
0000
0001
1000
,
0001
0000
0100
0000
0110
0000
1000
0001
,
2001
0000
3001
0000
2001
0000
3001
1000
,
0100
1000
0001
0000
1100
0000
0010
0001
,
0100
0010
0000
1000
0001
0000
1000
0100
,
1000
0001
1010
1010
,
0100
0010
0000
0100
0001
0000
1000
0001
,
0010
0100
1100
0001
,
0110
0000
0000
0000
1001
0000
1000
0001
,
0100
0010
0000
2000
0000
3002
0000
1003
,
1100
0000
0010
0001
0100
0000
0001
0010
,
0001
1000
0001
0000
0101
0000
0100
0010
,
1000
0010
0000
0110
0000
0000
0100
0001
,
1000
0001
1000
0000
1100
0000
0101
0100
,
0020
0000
0000
2030
0000
0000
3001
0010
,
0001
0100
1000
0000
1001
0000
1000
0001
,
0110
0000
0010
1000
0010
0000
0100
0001
,
1000
0100
0010
0000
0011
0000
0110
0000
,
2200
0000
0000
0000
,
0000
0000
0000
0000
,
0000
0000
0000
0000
,
0000
0000
0000
3300
;

//---------------dance-single - ----------------
#NOTEDATA:;
#CHARTNAME:;
#STEPSTYPE:dance-single;
#DESCRIPTION:;
#CHARTSTYLE:;
#DIFFICULTY:Easy;
#METER:6;
#RADARVALUES:0.253892,0.365882,0.216019,0.235657,0.000000,181.000000,159.000000,22.000000,24.000000,0.000000,0.000000,0.000000,0.000000,0.000000,0.253892,0.365882,0.216019,0.235657,0.000000,181.000000,159.000000,22.000000,24.000000,0.000000,0.000000,0.000000,0.000000,0.000000;
#CREDIT:;
#DISPLAYBPM:160.000000;
#NOTES:
0000
0000
0000
0000
,
0000
0000
0000
0000
,
0000
0000
0000
0000
,
2002
0000
0000
3003
,
0010
0000
0100
0000
,
0010
0000
1000
0000
,
0001
0010
0001
1000
,
2002
0000
0000
3003
,
0110
0000
1000
0001
,
1000
0100
0220
0330
,
0001
0000
1000
0000
,
2020
0000
0000
3030
,
0101
0000
0100
0000
,
0010
1000
0010
0000
,
1000
0000
0001
0000
,
0010
0001
0100
1000
,
0020
0200
0000
0330
,
0001
0000
1000
0100
,
2000
0002
0000
3003
,
0100
0000
0110
0000
,
1001
0000
0010
0000
,
1000
0001
0100
0000
,
0001
0000
0010
0000
,
2002
0000
0000
3003
,
1000
0010
1000
0000
,
0101
0000
1100
0000
,
0002
0000
1003
0000
,
0010
0010
0100
0000
,
0001
0010
0100
0000
,
1100
0000
0101
0000
,
2000
0000
3001
0000
,
0100
0100
0010
0000
,
1010
0001
0100
0010
,
1000
0000
0001
0000
,
0020
0000
0130
0000
,
1000
1000
0001
0000
,
0200
0002
0000
0303
,
1000
0001
1000
0010
,
0110
0000
1000
0001
,
1000
0100
0010
0001
,
1001
0000
0100
0010
,
1000
0001
0001
0000
,
0011
0000
0100
0000
,
0001
1000
0001
0000
,
2000
0000
3010
0000
,
1000
0100
0010
0001
,
1001
0000
0100
0000
,
0010
0000
1000
0000
,
0001
0010
0001
0010
,
0100
0000
1000
0000
,
0010
0000
0100
0000
,
0001
1000
1000
0000
,
0002
0000
0010
0000
,
1000
0000
0103
0000
,
0101
0000
1000
0001
,
1000
0100
0010
0001
,
1001
0000
0010
0100
,
0010
1000
0001
0100
,
0001
0000
1000
0000
,
0100
1000
0010
0000
,
1000
0000
0001
0000
,
0010
0000
0100
0000
,
2100
0001
0001
3001
,
1000
0001
0100
0100
,
0220
0000
0000
0000
,
0000
0000
0000
0000
,
0000
0000
0000
0000
,
0000
0000
0000
0330
;

//---------------dance-single - ----------------
#NOTEDATA:;
#CHARTNAME:;
#STEPSTYPE:dance-single;
#DESCRIPTION:;
#CHARTSTYLE:;
#DIFFICULTY:Beginner;
#METER:3;
#RADARVALUES:0.148688,0.232834,0.117828,0.098190,0.000000,106.000000,94.000000,12.000000,10.000000,0.000000,0.000000,0.000000,0.000000,0.000000,0.148688,0.232834,0.117828,0.098190,0.000000,106.000000,94.000000,12.000000,10.000000,0.000000,0.000000,0.000000,0.000000,0.000000;
#CREDIT:;
#DISPLAYBPM:160.000000;
#NOTES:
// measure 0
0000
0000
0000
0000
,  // measure 1
0000
0000
0000
0000
,  // measure 2
0000
0000
0000
0000
,  // measure 3
0010
0000
0000
0000
,  // measure 4
1000
0000
0000
0000
,  // measure 5
0001
0000
0000
0000
,  // measure 6
1000
0000
0000
0000
,  // measure 7
0100
0000
0000
0000
,  // measure 8
1001
0000
0000
0000
,  // measure 9
0010
0000
0100
0000
,  // measure 10
0001
0000
0000
0000
,  // measure 11
1000
0000
0000
0000
,  // measure 12
1001
0000
0000
0000
,  // measure 13
0001
0000
0000
0000
,  // measure 14
0010
0000
0000
0000
,  // measure 15
0100
0000
1000
0000
,  // measure 16
0002
0000
0000
0000
,  // measure 17
0003
0000
0000
1000
,  // measure 18
2000
0000
0000
0000
,  // measure 19
3000
0000
0010
0000
,  // measure 20
0200
0000
0000
0000
,  // measure 21
0300
0000
0001
0000
,  // measure 22
1000
0000
0001
0000
,  // measure 23
0010
0000
0000
0000
,  // measure 24
0110
0000
0000
0000
,  // measure 25
1000
0000
0001
0000
,  // measure 26
2000
0000
3000
0000
,  // measure 27
0010
0010
0010
0000
,  // measure 28
0200
0000
0000
0000
,  // measure 29
0000
0000
0300
0000
,  // measure 30
0001
0000
1000
0000
,  // measure 31
0001
0001
0001
0000
,  // measure 32
1001
0000
0000
0000
,  // measure 33
0100
0000
0010
0000
,  // measure 34
0200
0000
0300
0000
,  // measure 35
0010
0000
1000
0000
,  // measure 36
0002
0000
0000
0000
,  // measure 37
0000
0000
0003
0000
,  // measure 38
1001
0000
0100
0000
,  // measure 39
0010
0000
1000
0000
,  // measure 40
0110
0000
1000
0000
,  // measure 41
0001
0000
0100
0000
,  // measure 42
0002
0000
0003
0000
,  // measure 43
1000
0000
0010
0000
,  // measure 44
0100
0000
0000
0000
,  // measure 45
0010
0000
0000
0000
,  // measure 46
0110
0000
0001
0000
,  // measure 47
0001
0000
0001
0000
,  // measure 48
1001
0000
0000
0000
,  // measure 49
0010
0000
1000
0000
,  // measure 50
0001
0000
1000
0000
,  // measure 51
0100
0100
0100
0000
,  // measure 52
0110
0000
0000
0000
,  // measure 53
0001
0000
1000
0000
,  // measure 54
1001
0000
0010
0000
,  // measure 55
1000
0000
0100
0000
,  // measure 56
1001
0000
0000
0000
,  // measure 57
0001
0001
0001
0000
,  // measure 58
0010
0000
0100
0000
,  // measure 59
1000
0000
0010
0000
,  // measure 60
2000
0000
3000
0000
,  // measure 61
0001
0001
0001
0000
,  // measure 62
1001
0000
0100
0000
,  // measure 63
0001
0000
1000
1000
,  // measure 64
2000
0000
0000
0000
,  // measure 65
0000
0000
0000
0000
,  // measure 66
0000
0000
0000
0000
,  // measure 67
0000
0000
0000
3000
;
