#TITLE:Rio;
#ARTIST:Duran Duran;
#BANNER:Rio-bn.png;
#BACKGROUND:Rio-bg.png;
#JACKET:Rio-jacket.png;
#MUSIC:Rio.ogg;
#OFFSET:1.456;
#SAMPLESTART:44.789;
#SAMPLELENGTH:20;
#LASTBEATHINT:1.046;
#BPMS:0=140.08;
#BGCHANGES:;

//---------------dance-single - ----------------
#NOTES:
     dance-single:
     :
     Beginner:
     2:
     :
0000
0000
0000
0000
,
0000
0000
0000
0000
,
0000
0000
0000
0000
,
0000
0000
0000
0000
,
0000
0000
0000
0000
,
1000
0000
0000
0000
,
0001
0000
0000
0000
,
0010
0000
0000
0000
,
0100
0000
0000
0000
,
1000
0000
0000
0000
,
1000
0000
0000
0000
,
0001
0000
1000
0000
,
0002
0000
0003
0000
,
0001
0000
0000
0000
,
0001
0000
0000
0000
,
1000
0000
0001
0000
,
2000
0000
3000
0000
,
0010
0000
0010
0000
,
1000
0000
0000
0000
,
0001
0000
1000
0000
,
0002
0000
0003
0000
,
1000
0000
0001
0000
,
1000
0000
0001
0000
,
0010
0000
0000
0000
,
0100
0000
0000
0000
,
0020
0000
0000
0000
,
0030
0000
0000
0000
,
1001
0000
0000
0000
,
1000
1000
1000
0000
,
1000
0000
0000
0000
,
1000
0000
0000
0000
,
1001
0000
0000
0000
,
0001
0001
0001
0000
,
0001
0000
0000
0000
,
0001
0000
0000
0000
,
1001
0000
0000
0000
,
1000
1000
1000
0000
,
1000
0000
0000
0000
,
1000
0000
0000
0000
,
1001
0000
0000
0000
,
0001
0001
0001
0000
,
0001
0000
0000
0000
,
0001
0000
0000
0000
,
1000
0000
1000
0000
,
0001
0000
0001
0000
,
0010
0010
0010
0000
,
0100
0000
0000
0000
,
0001
0000
0001
0000
,
1000
0000
1000
0000
,
0020
0000
0030
0000
,
0200
0000
0300
0000
,
1000
0000
1000
0000
,
0001
0000
0001
0000
,
0010
0010
0010
0000
,
0100
0000
0000
0000
,
0001
0000
0001
0000
,
1000
0000
1000
0000
,
0020
0000
0030
0000
,
0200
0000
0300
0000
,
1001
0000
0000
0000
;

//---------------dance-single - ----------------
#NOTES:
     dance-single:
     :
     Easy:
     5:
     :
0000
0000
0000
0000
,
0000
0000
0000
0000
,
0000
0000
0000
0000
,
0000
0000
0000
0000
,
0000
0000
0000
0000
,
0001
0001
0000
0000
,
0010
0010
0000
0000
,
1000
1000
0000
0000
,
0100
0100
0000
0000
,
0001
0000
0010
0000
,
0001
0000
0100
0000
,
1000
0010
0010
0000
,
0200
0000
0300
0000
,
0010
0000
0010
0000
,
0100
0010
0100
0000
,
0001
0010
0010
0000
,
0200
0000
0300
0000
,
1000
0000
1000
0000
,
0001
0000
0001
0000
,
1000
0010
0010
0010
,
0200
0000
0300
0000
,
0001
0000
1000
1000
,
0100
0000
0010
0010
,
0001
0000
0100
0100
,
0020
0000
0030
0000
,
2000
0000
0000
0000
,
0002
0000
0000
3003
,
1001
0000
1000
0001
,
1000
0000
0001
0001
,
0100
0000
0001
0000
,
1000
0000
0000
0000
,
1001
0000
1000
0001
,
1000
0000
0001
0001
,
0100
0000
0100
0000
,
0100
0000
0000
0000
,
1001
0000
0001
1000
,
0001
0000
1000
1000
,
0100
0000
1000
0000
,
0001
0000
0000
0000
,
1001
0000
0001
1000
,
0001
0000
1000
1000
,
0100
0000
0100
0000
,
0100
0000
0000
0000
,
0001
0010
0001
0000
,
1000
0100
1000
0000
,
0010
0010
0010
0000
,
0100
0100
0100
0000
,
0001
0010
0001
0000
,
1000
0100
1000
0000
,
0002
0000
0013
0000
,
2000
0000
3100
0000
,
1000
0010
1000
0000
,
0001
0100
0001
0000
,
0010
0010
0010
0000
,
0100
0100
0100
0000
,
1000
0010
1000
0000
,
0001
0100
0001
0000
,
2000
0000
3010
0000
,
0002
0000
0103
0000
,
1001
0000
0000
0000
;

//---------------dance-single - ----------------
#NOTES:
     dance-single:
     :
     Medium:
     8:
     :
0000
0000
0000
0000
,
0000
0000
0000
0000
,
0000
0000
0000
0000
,
0000
0000
0000
0000
,
0000
0000
0000
0000
,
0001
0000
1000
0001
0000
0000
0000
0000
,
0010
0000
0100
0010
0000
0000
0000
0000
,
1000
0000
0100
1000
0000
0000
0000
0000
,
0001
0000
0100
0010
0000
0000
0000
0000
,
1000
0010
0100
0001
,
0010
0100
0100
0100
,
1000
0000
0001
0010
0001
0000
1000
0000
,
0020
0000
0030
0000
,
0000
1000
0100
0001
,
0010
0100
0001
0000
,
1000
0001
0001
1000
,
0020
0000
0030
0000
,
1000
0000
0010
0100
0010
0000
0100
0000
,
0010
0000
1000
0001
1000
0000
0010
0000
,
0001
0000
1000
0010
1000
0000
0001
0000
,
0020
0000
0030
0000
,
0001
0000
0010
0000
1000
0000
0100
1000
,
0100
0000
0010
0000
0001
0000
0100
0010
,
0100
0001
0000
1000
,
0020
0100
0130
0000
,
2000
0000
0000
0010
,
0002
0000
0000
3003
,
1010
0100
0010
1000
,
0101
0010
0001
0010
,
0100
1000
0001
0100
,
0001
0000
1000
0010
0000
0010
1000
0000
,
0011
0100
0010
0001
,
1100
0010
1000
0010
,
0100
0001
0001
0001
,
1000
0100
0100
0000
,
1001
0100
0010
1000
,
1001
0010
0001
0010
,
0100
1000
0010
0100
,
0001
0000
1000
0010
0000
0010
0001
0000
,
1001
0100
0010
0001
,
1001
0010
1000
0010
,
0100
0001
0001
0001
,
1000
0100
0100
0000
,
0010
0000
0001
0000
1000
0010
1000
0000
,
0001
0000
0100
0000
0010
1000
0010
0000
,
0100
0000
0100
0000
0100
0010
0100
0000
,
0010
1010
0101
0000
,
0010
0000
1000
0000
0001
0010
0001
0000
,
1000
0000
0100
0000
0010
0001
0010
0000
,
0001
1000
0001
1000
,
0010
0110
1001
0000
,
0010
0000
0100
0000
1000
0010
1000
0000
,
0001
0000
0100
0000
0010
0001
0010
0000
,
0100
0000
0100
0000
0100
1000
0100
0000
,
0010
1010
0011
0000
,
0010
0000
0100
0000
0001
0010
0001
0000
,
1000
0000
0100
0000
0010
1000
0010
0000
,
0001
1000
0001
1001
,
0100
0110
1001
0000
,
0110
0000
0000
0000
;

//---------------dance-single - ----------------
#NOTES:
     dance-single:
     :
     Hard:
     10:
     :
0000
0000
0000
0000
,
0000
0000
0000
0000
,
0000
0000
0000
0000
,
0000
0000
0000
0000
,
0000
0000
0000
0000
,
0010
0000
1000
0001
0000
0000
0000
0000
,
0100
0000
0001
0010
0000
0000
0000
0000
,
1000
0000
0001
0100
0000
0000
0000
0000
,
0001
0000
1000
0010
0000
0000
0000
0000
,
0100
0000
0010
0000
0100
0000
0001
0010
,
0001
1000
1000
1000
,
0101
0000
1000
0100
0010
0000
0101
0000
,
0020
0001
0130
0000
,
0000
1000
0010
1000
0100
0000
0001
0010
,
0001
0010
1000
0100
,
1100
0000
0001
0100
0010
0000
1100
0000
,
0020
1000
0130
0000
,
0001
0000
0010
1000
0100
0000
0001
0100
,
0010
0000
1000
0001
1000
0000
0010
0000
,
1001
0000
1000
0100
0010
0000
0101
0000
,
2000
0001
3100
0000
,
0000
0000
0010
0100
1000
0000
0100
1000
,
0001
0000
0100
0010
1000
0000
0100
0010
,
0001
0000
0000
0010
1000
0000
0000
0000
0000
0000
0010
0000
0001
0000
0100
0000
,
0020
0100
0130
0000
,
2000
0000
0010
0100
,
3001
0000
0000
0000
0000
0000
0000
0000
1000
0001
0000
0000
1000
0001
0000
0000
,
1010
0000
0100
0010
0000
1000
0010
0100
,
0001
0000
0100
0010
0000
1000
0001
1000
,
0100
0100
0010
0010
,
0001
0000
0100
0010
0000
0010
0100
0000
,
0011
0000
0100
0010
0000
0001
0010
0100
,
1000
0000
0100
0010
0000
0001
1000
0001
,
1000
1100
0001
0101
,
0020
0000
0030
0000
,
1001
0000
0100
0010
0000
1000
0010
0100
,
0001
0000
0100
0001
0000
1000
0001
1000
,
0100
0110
0010
0010
,
0001
0000
0100
0010
1000
0010
0100
0000
,
0011
0000
0100
0010
0000
1000
0010
0100
,
1000
0000
0100
0010
0000
0001
1000
0010
,
1000
1100
0001
0101
,
0020
0200
0330
0000
,
1000
0000
0100
0000
1000
0010
1000
0010
,
0100
0000
0001
0100
0001
0100
0001
0000
,
0010
0000
0100
0010
0100
0000
1001
0000
,
0100
0001
0101
0000
1000
0100
1100
0000
,
0001
0000
0100
0000
0001
0010
0001
0010
,
0100
0000
1000
0100
1000
0100
1000
0000
,
0001
0010
0100
0010
0100
0000
1001
0000
,
0100
0010
0100
0000
0100
0010
0100
0000
,
1000
0000
0011
0000
1000
0010
1000
0010
,
1010
0000
0001
0100
0001
0100
0001
0000
,
0010
0100
0100
1001
,
0100
0001
0101
0000
1000
0100
1100
0000
,
0001
0000
1010
0000
0001
0010
0001
0010
,
0011
0000
1000
0100
1000
0100
1000
0000
,
0001
1000
0100
0010
0100
0000
1001
0000
,
0100
0010
0100
0000
0100
0010
0110
0000
,
1001
0000
0000
0000
;

//---------------dance-single - ----------------
#NOTES:
     dance-single:
     :
     Challenge:
     13:
     :
0000
0000
0000
0000
,
0000
0000
0000
0000
,
0000
0000
0000
0000
,
0000
0000
0000
0000
,
0000
0000
0000
0000
,
0001
0000
1000
2100
0000
0001
3100
0010
,
1000
0000
0100
0012
0000
1000
0013
0001
,
0100
0000
0010
0201
0000
0010
0301
1000
,
0100
0000
0000
0000
0001
0000
1020
0000
0000
0000
1000
0000
0130
0001
0100
0001
,
0100
0000
0010
1000
0100
0010
0001
0100
,
0010
0100
1000
0100
0001
0010
1000
0010
,
0001
0100
0010
0100
0001
1000
0100
0000
,
0010
0000
0001
0000
0100
0000
2010
0000
0000
0000
0001
0000
3100
1000
0100
1000
,
0100
0020
0000
0031
0100
0010
1000
0100
,
0001
0100
2000
0000
3010
0100
0010
1000
,
0001
0010
0100
0001
0100
1000
0010
0000
,
1000
0000
0000
0000
0100
0000
0012
0000
0000
0000
0010
0000
1003
0000
0001
0100
,
0001
0010
0100
1000
0010
0100
1000
0100
,
0010
1000
0100
0001
0100
0010
0100
1000
,
0001
0010
1000
0100
0010
0100
1000
0000
,
0001
0000
0000
0000
0100
0000
0021
0000
0000
0000
1000
0000
0031
0100
0001
0100
,
0001
0000
0010
0001
0100
0010
1000
0000
,
1100
0000
0000
0000
0101
0000
0000
0000
0010
1000
0000
0100
1000
0000
0001
0000
,
0010
0100
1000
0010
0100
1000
0100
0001
,
0010
0000
0100
0000
1000
0000
0201
0000
0000
0000
0010
0000
0301
1000
0001
1000
,
0001
0100
0010
0100
0001
0100
0010
0100
,
0001
0000
0100
0000
0010
0000
0000
0000
1000
0100
0010
0001
1000
0100
0010
0001
,
0100
0000
1001
0010
1000
0100
0001
0000
,
0010
0001
0100
0010
1000
0100
0001
0000
,
0101
0010
1000
0100
1000
0010
0100
1000
,
0100
0001
0010
0001
0100
0010
1000
0001
,
0010
0000
1100
0010
1000
0100
0001
0000
,
0010
0001
0100
0001
1000
0100
0001
0000
,
0110
0001
0100
0010
1000
0100
1000
0001
,
0100
1000
0100
0001
0010
0100
1000
0001
,
0100
0000
1010
0100
0010
1000
0100
0010
,
0001
0100
0010
0100
1000
0100
0001
1000
,
0100
0010
1000
0010
0001
0100
0010
1000
,
0100
0010
0001
1000
0000
0010
1000
0001
,
0100
0000
0101
0000
1100
0001
0100
0000
,
0011
1000
0001
0100
0010
1000
0001
0000
,
0010
0001
0100
0010
1000
0100
0001
0100
,
1000
0000
0010
0000
0001
0000
0000
0000
1000
0100
0010
0001
1000
0100
0010
0001
,
0100
0000
0010
1000
0100
0010
0001
0100
,
0001
0010
1000
0010
0100
0010
0100
0001
,
0100
1000
0010
1000
0001
0010
1000
0001
,
1000
0100
0010
0001
0100
0010
0100
0001
,
1000
0010
0100
0001
0100
1000
0100
0010
,
1000
0100
0010
0100
0001
0010
0001
0100
,
0001
0010
1000
0001
1000
0010
1000
0100
,
0010
0001
0100
0010
0100
0001
0010
0100
,
1000
0010
1000
0100
1000
0001
1000
0010
,
0100
1000
0100
0001
0100
0010
0100
0001
,
0010
0100
1000
0010
1000
0100
1000
0001
,
0100
0010
0100
0001
0010
0100
1000
0001
,
0100
0010
0100
0001
0010
0001
0100
0010
,
1000
0100
1000
0001
0100
0010
1000
0001
,
0010
1000
0010
0001
0100
0010
0100
1000
,
0100
0001
0010
0100
1000
0010
1000
0001
,
0022
0000
0000
0000
,
0000
0000
0000
0000
,
0033
0000
0000
0000
;
