#TITLE:Regulate;
#ARTIST:Warren G ft. Nate Dogg;
#BANNER:Regulate-bn.png;
#BACKGROUND:Regulate-bg.png;
#JACKET:Regulate-jacket.png;
#MUSIC:Regulate.ogg;
#SAMPLESTART:0.008;
#SAMPLELENGTH:20;
#DISPLAYBPM:95;
#BPMS:0=95.4;
#BGCHANGES:;

//---------------dance-single - ----------------
#NOTES:
     dance-single:
     :
     Beginner:
     2:
     :
0000
0000
0000
0000
,
0000
0000
0000
0000
,
0000
0000
0000
0000
,
0000
0000
0000
0000
,
0010
0000
0000
0000
,
0000
0000
0001
0000
,
1000
0000
0001
0000
,
0000
0000
0010
0000
,
0100
0000
0000
0000
,
1000
0000
0001
0000
,
0100
0000
0010
0000
,
1000
0000
0001
0000
,
0010
0000
0010
0000
,
0100
0000
0100
0000
,
1000
0000
0001
0000
,
1000
0000
0001
0000
,
0010
0000
0000
0000
,
0100
0000
1000
0000
,
1001
0000
0000
0000
,
0010
0000
0100
0000
,
0001
0000
0001
0000
,
1000
0000
1000
0000
,
0100
0000
0010
0000
,
0001
0000
0100
0000
,
0010
0000
1000
0000
,
0001
0000
1000
0000
,
0100
0000
0100
0000
,
0100
0000
0110
0000
,
0001
0000
0000
0000
,
1000
0000
0010
0000
,
1000
0000
0000
0000
,
0001
0000
0100
0000
,
0010
0000
1000
0000
,
0100
0000
1000
0000
,
0001
0000
0010
0000
,
0001
0000
0100
0000
,
1000
0000
1000
0000
,
0010
0000
0100
0000
,
0001
0000
0001
0000
,
1000
1000
1000
0000
,
0010
0000
0001
0000
;

//---------------dance-single - ----------------
#NOTES:
     dance-single:
     :
     Easy:
     6:
     :
0000
0000
0000
0000
,
0000
0000
0000
0000
,
0000
0000
0000
0000
,
0000
0000
0000
0000
,
0010
0001
0100
1000
,
0000
0000
0010
0000
,
1000
0001
0200
0000
,
0000
0000
0310
0000
,
1000
1001
0010
0100
,
0001
0110
1000
0100
,
0010
0110
0001
0100
,
1000
1001
0010
0100
,
0001
0011
1000
1000
,
0100
1100
0001
0001
,
0100
0110
0010
1000
,
0100
0010
0001
1001
,
0010
0000
1000
0100
,
0001
0010
0001
0100
,
1001
0010
1000
0010
,
0100
0100
0100
0000
,
0001
0101
0010
1000
,
0100
1010
0001
1000
,
0010
0110
1000
0001
,
0010
0010
0001
1000
,
0101
0000
1100
0000
,
0010
1000
0100
0001
,
0011
0000
1010
0000
,
0100
0001
1001
0110
,
1000
0010
1000
0001
,
0010
0100
0010
0001
,
0010
1000
0001
1000
,
0100
0010
0001
0100
,
1010
0000
0001
0100
,
0010
0010
1000
0001
,
0100
1001
0020
0030
,
1000
0100
0001
0010
,
0001
1100
0010
0101
,
0010
1000
0100
0001
,
0100
0101
0010
1000
,
0001
0100
1000
1001
,
0010
1000
0100
0001
;

//---------------dance-single - ----------------
#NOTES:
     dance-single:
     :
     Medium:
     10:
     :
0000
0000
0000
0000
,
0000
0000
0000
0000
,
0000
0000
0000
0000
,
0000
0000
0000
0000
,
0010
0001
0100
0001
1000
0001
0100
0000
,
0000
0000
0000
0100
1000
0001
0100
0000
,
0001
0010
0001
0100
0010
1000
0001
0000
,
0000
0000
0000
0100
0010
0000
0000
0000
,
1000
0001
1010
0000
0100
0001
0011
0000
,
0100
1000
1001
0000
0010
0100
0110
0000
,
0001
0010
1100
0000
0010
0100
1001
0000
,
0001
0010
1100
0000
1000
0010
0101
0000
,
0001
0100
0010
1000
0100
0010
0001
1000
,
0100
0001
0010
1000
0100
0010
0001
0000
,
0100
0001
0010
1000
0010
0001
0100
0010
,
1000
0001
0010
0100
1000
1000
0001
0000
,
0010
1000
0100
0001
0100
1000
0010
0000
,
0100
0001
0010
0100
1000
0001
0001
0000
,
1001
0010
0100
0000
0001
1000
0010
0000
,
0100
0001
0010
0001
1000
1000
0010
0100
,
0001
0010
1000
0100
0010
0100
0110
0000
,
1000
0001
0100
0010
1000
0100
0011
0000
,
0100
0001
0010
0001
0100
0010
1010
0000
,
0001
0100
1000
0010
1000
0001
0110
0000
,
0010
1000
0101
0000
0001
0010
1100
0000
,
0100
0010
0011
0000
0100
0010
1010
0000
,
0001
0100
0110
0000
0010
1000
1100
0000
,
0001
0001
0100
0010
1000
0001
1010
0000
,
0001
0100
0010
1000
0100
1000
0001
0100
,
0010
0100
0001
0010
1000
0100
0001
1000
,
0100
0010
0001
0100
0001
0010
1000
0100
,
0010
0001
0100
0001
1000
0100
0100
0010
,
0001
0100
1001
0000
0010
1000
0100
0000
,
1000
0010
1000
0001
0100
0010
0101
0000
,
1000
0001
0020
0000
0031
0100
2000
0000
,
3010
1000
0100
1000
0001
0001
0001
0100
,
0010
1000
0001
0010
0100
1000
0001
0100
,
0100
0001
0010
0100
1000
0001
0100
0000
,
1010
0001
0100
0010
1000
0100
0001
0010
,
0010
0001
0100
0010
1000
0001
1001
0000
,
0010
1000
0100
1000
0010
0100
0001
0000
;

//---------------dance-single - ----------------
#NOTES:
     dance-single:
     :
     Hard:
     13:
     :
0000
0000
0000
0000
,
0000
0000
0000
0000
,
0000
0000
0000
0000
,
0000
0000
0000
0000
,
0010
0000
0001
0000
0001
0000
1000
0000
0010
0000
0100
0002
0000
0000
1003
0000
,
0000
0000
0000
0000
0000
0000
0100
0000
0100
0000
1000
0020
0000
0000
0130
0000
,
0001
0000
1000
0000
1000
0000
0010
0000
1000
0001
0000
0200
0000
0000
0000
0000
,
0300
0000
0000
0000
0000
0000
0100
0000
0010
0000
0000
0000
0000
1000
0100
0010
,
0001
0000
0100
0000
1010
0000
0000
1000
0001
0000
0010
0000
1100
0000
1000
0010
,
1000
0100
0010
0001
0100
0000
0000
0000
0001
0010
0001
1000
0100
0000
0000
0001
,
0010
0000
0001
1000
0100
0000
0000
0010
0001
0100
0001
1000
0000
0110
0000
0000
,
1000
0100
0001
0100
1000
0000
1000
0000
1000
0010
0100
0001
0010
0000
1001
0000
,
0001
0100
1000
0000
0101
0000
0010
1000
0100
0000
0010
0000
0011
0000
1000
0001
,
0100
1000
0100
0001
0010
0000
0100
1000
0001
0000
0100
0020
0000
0000
1030
0001
,
1000
0000
0100
0010
0001
0000
0100
0001
1000
0000
0010
0000
0100
0000
0001
1000
,
0100
0000
0010
0001
0010
0000
0100
0000
1000
0001
0000
1010
0000
0000
0100
0001
,
0010
0000
0000
0000
0000
0000
0001
0000
0000
1000
0000
0000
0000
0000
0000
0000
0000
0000
0010
0000
0000
0000
0000
0000
1000
0000
0000
0000
0100
0000
0000
0000
0010
0000
0000
0000
0001
0000
0000
0000
0100
0000
0000
0000
0010
0000
0000
0000
,
1000
0000
0000
0100
0000
0000
0010
0000
0000
0100
0000
0000
1000
0000
0000
0000
0000
0000
0001
0000
0000
0100
0000
0000
0010
0000
0000
0000
0000
0000
0010
0000
0000
0000
0000
0000
0010
0000
0000
0000
1000
0000
0000
0000
0001
0000
0000
0000
,
1001
0000
0100
1000
0001
0000
0000
0100
0001
0010
0000
0010
0000
0000
0000
0001
,
0100
1000
0100
0010
0100
0000
0010
1000
0001
0000
0010
0000
0001
0000
0100
0010
,
1000
0000
0001
0010
0100
0000
1000
0001
0100
0000
0010
1000
0000
0100
0010
0001
,
0010
1000
0010
0001
0000
0100
0010
0000
0110
0000
0001
2000
0000
0000
3010
1000
,
0100
0010
0001
0100
1000
0000
0010
1000
0002
0000
0100
0103
0000
0010
1000
0001
,
0100
0010
0100
0001
0100
0010
1000
0000
0100
0010
0000
0011
0000
0000
0000
1000
,
0001
0000
0100
0000
0110
0000
0000
1000
0100
0010
0001
0000
0101
0000
0000
0010
,
1000
0000
0001
0200
0000
0000
0000
0310
1000
0100
1000
0001
0000
1010
0000
0100
,
0001
0000
0010
0200
0000
0000
0000
1300
0100
1000
0001
0000
1100
0000
0000
0010
,
0001
0000
0000
0000
0100
0000
0000
0000
0010
0000
0000
0000
1000
0000
0000
0100
0000
0000
1000
0000
0000
0001
0000
0000
0100
0000
0000
0000
0000
0000
1001
0000
0000
0000
0000
0000
1010
0000
0000
0001
0000
0000
0100
0000
0000
0010
0000
0000
,
1000
0000
0001
0000
0100
0000
0000
0000
0010
0000
0000
0000
1000
0000
0100
0000
1000
0000
0000
0000
0001
0000
0010
0000
0000
0000
0001
0000
0100
0010
0100
0000
,
0001
0010
1000
0010
0100
1000
0001
0000
0110
0000
0001
1000
0000
0100
1000
0001
,
0100
0010
1000
0000
1001
0010
0100
0010
1000
0000
0100
0002
0000
1000
1003
0000
,
0100
0010
0001
1000
0000
0010
1000
0001
0010
0000
0001
0200
0000
0001
0301
0000
,
0011
0000
0100
0001
1000
0000
0000
0010
1000
0001
0010
0001
0100
0000
0000
0010
,
1000
0000
0100
1000
0000
0010
0100
0010
1000
0001
0100
0000
1010
0001
0100
0000
,
1001
0000
0000
0000
0010
0000
1000
0000
0000
0000
2200
0000
0000
0300
0000
0000
3001
0000
0100
0000
0010
0000
0000
0000
1000
0000
0100
0000
0000
0000
0100
0000
,
1000
0000
0001
0010
0100
0000
0010
0001
0100
0010
1000
0001
0100
0000
0101
0000
,
1100
0000
0001
0100
0010
0000
1000
0000
0100
1000
0001
0200
0000
0000
0310
0000
,
0100
0000
0001
0010
1000
0010
0100
0010
0001
0100
1000
0000
1001
0000
0100
0010
,
0100
0001
1000
0000
0010
1000
0100
0010
0001
0000
0100
0010
0000
0000
0110
0000
,
0001
0100
1000
0100
0001
0010
1000
0010
0001
0000
0100
0010
1000
0000
0000
0000
,
0001
0000
1000
0000
1000
0000
0010
0000
1000
0000
0100
0020
0000
0000
0031
0000
;
