#VERSION:0.83;
#TITLE:Raw Crawler;
#SUBTITLE:;
#ARTIST:Masayoshi Iimori;
#TITLETRANSLIT:;
#SUBTITLETRANSLIT:;
#ARTISTTRANSLIT:;
#GENRE:;
#CREDIT:;
#MUSIC:Raw Crawler.ogg;
#BANNER:;
#BACKGROUND:Raw Crawler-bg.png;
#JACKET:;
#DISCIMAGE:;
#CDIMAGE:;
#SELECTABLE:YES;
#LYRICSPATH:;
#CDTITLE:;
#SAMPLESTART:30.938000;
#SAMPLELENGTH:20.000000;
#OFFSET:1.0625;
#BPMS:0.000000=150.000000;
#STOPS:31.750000=1.601000;
#WARPS:;
#DELAYS:;
#SPEEDS:;
#SCROLLS:;
#TICKCOUNTS:;
#TIMESIGNATURES:;
#LABELS:;
#COMBOS:;
#FAKES:;
#BGCHANGES:;
#FGCHANGES:;
#ATTACKS:;
#DISPLAYBPM:150.000000;
#KEYSOUNDS:;

//---------------dance-single - ---------------
#NOTEDATA:;
#CHARTNAME:;
#CHARTSTYLE:;
#CREDIT:;
#STEPSTYPE:dance-single;
#DESCRIPTION:;
#DIFFICULTY:Beginner;
#METER:3;
#METERF:3;
#RADARVALUES:0,0,0,0,0;
#NOTES:
// measure 0
0000
0000
0000
0000
,  // measure 1
0000
0000
0000
0000
,  // measure 2
0000
0000
0000
0000
,  // measure 3
0000
0000
0000
0000
,  // measure 4
0000
0000
0000
0000
,  // measure 5
0000
0000
0000
0000
,  // measure 6
0001
0000
0000
0000
,  // measure 7
1000
0000
0000
0000
,  // measure 8
0001
0001
0001
0000
,  // measure 9
1001
0000
0010
0000
,  // measure 10
1000
1000
1000
0000
,  // measure 11
0100
0100
0100
0000
,  // measure 12
0010
0010
0000
0000
,  // measure 13
0110
0000
0001
0000
,  // measure 14
0100
0100
0100
0000
,  // measure 15
0001
0001
0001
0000
,  // measure 16
1000
1000
1000
0000
,  // measure 17
0010
0000
0000
0000
,  // measure 18
0100
0000
0000
0000
,  // measure 19
1001
0000
0010
0000
,  // measure 20
0100
0000
0001
0000
,  // measure 21
0100
0100
0000
0000
,  // measure 22
0001
0000
0000
0000
,  // measure 23
1000
0000
0100
0000
,  // measure 24
0110
0000
0000
0000
,  // measure 25
1001
0000
0000
0000
,  // measure 26
0000
0000
0000
0000
,  // measure 27
1001
0000
0000
0000
,  // measure 28
0000
0000
0000
0000
,  // measure 29
0110
0000
0000
0000
,  // measure 30
0000
0000
0000
0000
,  // measure 31
0110
0000
0000
0000
,  // measure 32
0000
0000
0000
0000
,  // measure 33
0000
1000
0000
1000
,  // measure 34
0000
0001
0000
0001
,  // measure 35
0000
0100
0000
0100
,  // measure 36
0000
0010
0000
0010
,  // measure 37
0000
1000
0000
0001
,  // measure 38
0000
0010
0000
0100
,  // measure 39
0000
0010
0000
0100
,  // measure 40
0000
0000
0000
0000
,  // measure 41
1001
0000
1000
0000
,  // measure 42
0001
0000
0010
0000
,  // measure 43
0001
0000
0100
0000
,  // measure 44
0010
0000
1000
0000
,  // measure 45
0110
0000
0001
0001
,  // measure 46
0001
0000
1000
0000
,  // measure 47
0100
0000
0010
0000
,  // measure 48
0001
0000
1000
0000
,  // measure 49
0010
0000
1000
0000
,  // measure 50
0100
0000
0001
0000
,  // measure 51
1000
0000
0010
0000
,  // measure 52
0100
0000
0001
0000
,  // measure 53
0010
0010
0010
0010
,  // measure 54
0010
0010
0010
0000
,  // measure 55
1001
0000
0110
0000
,  // measure 56
0001
0000
1000
0000
,  // measure 57
0200
0000
0000
0000
,  // measure 58
0300
0000
0000
0000
;

//---------------dance-single - ---------------
#NOTEDATA:;
#CHARTNAME:;
#CHARTSTYLE:;
#CREDIT:;
#STEPSTYPE:dance-single;
#DESCRIPTION:;
#DIFFICULTY:Easy;
#METER:7;
#METERF:7;
#RADARVALUES:0,0,0,0,0;
#NOTES:
// measure 0
0000
0000
0000
0000
,  // measure 1
0000
0000
0000
0000
,  // measure 2
0000
0000
0000
0000
,  // measure 3
0000
0000
0000
0000
,  // measure 4
0000
0000
0000
0000
,  // measure 5
0000
0000
0000
0000
,  // measure 6
0001
0001
1000
1000
,  // measure 7
0001
0100
0010
1000
,  // measure 8
0001
0001
0001
0001
,  // measure 9
1001
0100
0010
1000
,  // measure 10
0100
0100
0100
0000
,  // measure 11
0001
1000
0001
1000
,  // measure 12
0010
0010
1000
0100
,  // measure 13
1000
0001
0010
0010
,  // measure 14
0001
0100
1000
0110
,  // measure 15
0001
0001
0001
0000
,  // measure 16
0010
0010
0010
0100
,  // measure 17
2000
0000
0000
3000
,  // measure 18
0001
0100
0001
0100
,  // measure 19
1001
0000
0010
0010
,  // measure 20
1000
0100
0001
0000
,  // measure 21
2000
3002
0010
0013
,  // measure 22
0001
0100
1000
0000
,  // measure 23
0110
0000
0010
0010
,  // measure 24
1000
0001
1000
0001
,  // measure 25
1001
0000
0000
0000
,  // measure 26
0000
0000
0000
0000
,  // measure 27
1001
0000
0000
0000
,  // measure 28
0000
0020
0200
0330
,  // measure 29
0110
0000
0000
0000
,  // measure 30
0001
0000
0000
0000
,  // measure 31
0110
0000
0000
0000
,  // measure 32
1000
0000
0000
0000
,  // measure 33
1001
0100
0010
0100
,  // measure 34
0010
1000
0001
0010
,  // measure 35
0001
0100
0010
1000
,  // measure 36
0100
0100
0010
0001
,  // measure 37
1000
1000
1000
1000
,  // measure 38
0001
0001
0001
0001
,  // measure 39
0010
0001
0100
1000
,  // measure 40
0000
0000
0000
0000
,  // measure 41
1001
0000
0010
1000
,  // measure 42
0100
1000
0001
0001
,  // measure 43
0100
0010
0100
0001
,  // measure 44
0010
0100
1000
1000
,  // measure 45
0110
1001
0100
0001
,  // measure 46
0010
0001
0100
1000
,  // measure 47
0010
0100
0010
1000
,  // measure 48
0001
1000
0002
0000
,  // measure 49
0013
1001
0110
0100
,  // measure 50
0001
0010
0100
1000
,  // measure 51
0010
1000
0001
0010
,  // measure 52
1000
0100
1000
0001
,  // measure 53
1001
0110
1001
0110
,  // measure 54
1001
0110
1001
0110
,  // measure 55
0020
0000
0000
0030
,  // measure 56
1000
0001
2000
0000
,  // measure 57
3200
0000
0000
0000
,  // measure 58
0300
0000
0000
0000
;

//---------------dance-single - ---------------
#NOTEDATA:;
#CHARTNAME:;
#CHARTSTYLE:;
#CREDIT:;
#STEPSTYPE:dance-single;
#DESCRIPTION:;
#DIFFICULTY:Medium;
#METER:12;
#METERF:12;
#RADARVALUES:0,0,0,0,0;
#NOTES:
// measure 0
0000
0000
0000
0000
,  // measure 1
0000
0000
0000
0000
,  // measure 2
0000
0000
0000
0000
,  // measure 3
0000
0000
0000
0000
,  // measure 4
0000
0000
0000
0000
,  // measure 5
0000
0000
0000
0000
,  // measure 6
0001
0010
0001
0000
0100
0001
0100
0000
,  // measure 7
0010
1000
0100
0000
0010
0001
0100
0000
,  // measure 8
0001
1000
0001
1000
0001
1000
0001
0000
,  // measure 9
1001
1010
0101
0011
,  // measure 10
1100
0000
0101
0000
1100
0000
0010
0100
,  // measure 11
1000
0110
0011
1100
,  // measure 12
0101
0000
1100
0000
0010
0010
0010
0000
,  // measure 13
0001
0100
1000
0000
1010
0000
0011
0000
,  // measure 14
1001
0110
1001
0200
,  // measure 15
0301
0000
0011
0000
1000
0001
0020
0000
,  // measure 16
0130
1000
0100
1000
0100
1000
0200
0000
,  // measure 17
0310
0001
0100
1000
,  // measure 18
1001
0000
0000
0000
0000
0000
0100
0000
0000
0001
0000
0000
1000
0000
0000
0000
0000
0000
0001
0000
0100
0000
0001
0000
,  // measure 19
0100
0000
0110
0000
0001
0001
0001
0100
,  // measure 20
0001
0001
0100
0001
0001
0000
1000
0001
,  // measure 21
0100
0101
1000
0001
,  // measure 22
0010
0001
0100
0000
1010
0000
0101
0000
,  // measure 23
1000
0000
1100
0000
0001
0001
0001
0100
,  // measure 24
0001
0000
0000
0001
0000
0000
0001
0000
0000
0001
0000
0000
0001
0000
0000
0000
,  // measure 25
1001
0000
0000
0000
,  // measure 26
1000
0000
0000
0000
,  // measure 27
1001
0000
0000
0000
,  // measure 28
1000
0020
0200
0330
,  // measure 29
0110
0000
0001
0000
,  // measure 30
1000
0000
0001
0000
,  // measure 31
0110
0000
0001
0000
,  // measure 32
1000
0000
0001
0000
,  // measure 33
1001
0000
0010
1000
0010
0000
0100
0001
,  // measure 34
0100
0000
0001
0010
0001
0000
1000
0100
,  // measure 35
1000
0000
0001
1000
0001
0000
0010
0100
,  // measure 36
0010
0000
0001
0100
0001
0000
1000
0001
,  // measure 37
1000
0000
0010
0100
0001
0000
0010
0100
,  // measure 38
1000
0000
0001
1000
0100
0000
1000
0010
,  // measure 39
0001
0100
0001
0100
0010
1000
0010
1000
,  // measure 40
0001
0010
0100
1000
0010
1000
0100
0000
,  // measure 41
1001
0000
0010
2000
3100
2000
3001
0000
,  // measure 42
0100
0001
0010
0002
1003
0020
0130
0000
,  // measure 43
0010
0100
0001
2000
3100
2000
3001
0200
,  // measure 44
0301
0000
0010
0000
0001
0000
0200
0000
0310
0000
0000
1000
0000
0000
0001
0000
,  // measure 45
1000
0000
0101
0002
1003
0002
0103
0010
,  // measure 46
1000
0100
0010
0002
1003
0002
0103
0000
,  // measure 47
0010
1000
0010
0200
0301
2000
3001
0000
,  // measure 48
0001
0010
1000
0001
0100
2000
0000
0000
,  // measure 49
3010
0000
0000
1010
0000
0010
1000
0000
1000
0010
0000
0000
,  // measure 50
0100
0000
0100
0001
0000
0001
0010
0000
0010
0001
0000
0000
,  // measure 51
0011
0000
0000
1001
0000
0001
1000
0000
1000
0100
0000
0000
,  // measure 52
1000
0000
0010
1000
0000
0010
0100
0000
0000
0001
1000
0001
,  // measure 53
1000
0000
1000
0100
0000
0100
0010
0000
0010
0001
0000
0001
,  // measure 54
0100
0000
0100
0001
0000
0001
1000
0000
1000
0100
0000
0000
,  // measure 55
1000
0010
1000
0010
0000
0000
0100
0001
0100
0001
0000
0000
,  // measure 56
1000
0100
0001
1000
0010
0002
0000
0000
,  // measure 57
0203
0000
0000
0000
,  // measure 58
0300
0000
0000
0000
;

//---------------dance-single - ---------------
#NOTEDATA:;
#CHARTNAME:;
#CHARTSTYLE:;
#CREDIT:;
#STEPSTYPE:dance-single;
#DESCRIPTION:;
#DIFFICULTY:Hard;
#METER:15;
#METERF:15;
#RADARVALUES:0.662935,0.795887,0.348834,0.338263,0.776947,439.000000,406.000000,33.000000,32.000000,0.000000,0.000000,0.662935,0.795887,0.348834,0.338263,0.776947,439.000000,406.000000,33.000000,32.000000,0.000000,0.000000;
#NOTES:
// measure 0
0000
0000
0000
0000
,  // measure 1
0000
0000
0000
0000
,  // measure 2
0000
0000
0000
0000
,  // measure 3
0000
0000
0000
0000
,  // measure 4
0000
0000
0000
0000
,  // measure 5
0000
0000
0000
0000
,  // measure 6
0001
0010
0001
0100
0001
0010
0001
0100
,  // measure 7
0001
1000
0001
1000
0001
1000
0001
1000
0010
0100
0010
0100
0010
0100
0010
0100
,  // measure 8
0001
0001
0001
0001
0001
0001
1001
0000
,  // measure 9
0110
0001
1000
0000
1100
0000
0101
0000
,  // measure 10
1100
0000
0101
0000
1100
0001
0100
0100
,  // measure 11
0010
1000
0001
1000
0010
1000
0001
1000
,  // measure 12
0010
0000
0100
0000
1001
0000
0000
0000
0001
0100
0010
0100
0002
0000
0000
0000
,  // measure 13
1003
0010
0100
0001
0010
0100
1000
0000
,  // measure 14
1010
0000
0011
0000
1010
0001
0200
0000
,  // measure 15
0310
1000
0001
1000
0010
1000
0200
0000
,  // measure 16
0310
0010
0100
0100
0010
0010
0001
0000
,  // measure 17
1001
0100
0010
0100
0001
1000
0010
0100
,  // measure 18
0001
0000
0000
0020
0000
0000
0000
0000
0000
0000
0000
0000
0100
0000
0000
0000
0000
0000
0130
0000
0000
0000
0000
0000
1000
0000
0000
0000
0000
0000
0001
0000
0000
0000
0000
0000
1000
0000
0000
0000
0100
0000
0000
0000
0010
0000
0000
0000
,  // measure 19
0001
0000
0000
0000
0101
0000
0000
0000
1000
0010
0100
0001
1000
0000
0001
0010
,  // measure 20
0100
0010
0100
1000
0001
0000
1000
0001
0100
0000
0000
0000
0010
0000
1000
0000
,  // measure 21
0001
1000
0110
0000
0001
0000
0001
0000
,  // measure 22
1010
0001
0100
0000
0010
0000
0110
0000
,  // measure 23
1001
0000
0000
0000
1100
0000
0000
0000
0001
0010
0100
1000
0100
0010
0001
1000
,  // measure 24
0010
0000
0000
1010
0000
0000
0101
0000
0000
1100
0000
0000
0101
0000
0000
0000
,  // measure 25
1001
0000
1000
0000
,  // measure 26
1000
0000
1000
0000
,  // measure 27
1001
0000
1000
0000
,  // measure 28
1000
0020
0200
0330
,  // measure 29
0110
0001
0010
0001
,  // measure 30
1000
0010
1000
0001
,  // measure 31
0110
0001
0010
0100
,  // measure 32
0010
0001
1000
0001
,  // measure 33
1001
0000
0000
0000
1000
0010
1000
0010
1000
0000
0000
0000
0001
0010
0001
0010
,  // measure 34
0001
0000
0000
0000
1000
0100
1000
0100
1000
0000
0000
0000
0001
0100
0001
0100
,  // measure 35
0001
0000
0000
0000
0100
0010
0100
0010
0100
0000
0000
0000
0001
1000
0001
1000
,  // measure 36
0001
0000
0000
0000
1000
0010
1000
0010
1000
0000
0000
0000
0010
0100
0010
0100
,  // measure 37
0010
1000
0001
1000
0100
0010
0001
0100
,  // measure 38
0001
0010
0001
0010
0001
0010
0001
0010
0100
1000
0100
1000
0100
1000
0100
1000
,  // measure 39
0001
0001
0010
0010
1000
1000
0100
0100
,  // measure 40
0010
0000
0001
0000
0100
0000
0001
0010
0001
0100
0010
1000
0001
0000
0000
0000
,  // measure 41
0110
0000
0000
0000
0001
0000
0020
0000
0032
0000
2003
0000
3200
0000
1300
0001
,  // measure 42
1000
0000
0010
0100
0001
0000
0020
0000
0031
0000
0100
0000
1000
0000
0000
0000
,  // measure 43
0010
0000
1000
0001
1000
0000
0200
0000
0320
0000
0032
0000
2003
0000
3001
0100
,  // measure 44
0001
0000
0010
0001
1000
0000
0010
0100
0001
0000
0000
0011
0000
0001
0010
0100
,  // measure 45
1000
0000
0000
0000
1100
0000
0002
0000
2003
0000
3200
0000
0320
0000
0031
1000
,  // measure 46
0001
0000
0100
0010
1000
0000
0002
0000
2003
0000
3020
0000
0230
0000
0000
0000
,  // measure 47
0310
0000
0100
0001
1000
0000
0002
0000
0023
0000
0230
0000
2300
0000
3001
1000
,  // measure 48
0002
0000
0023
0000
0031
0100
0010
0000
1010
0000
2200
0000
3000
0000
0000
0000
,  // measure 49
0310
0000
0000
0001
0100
0010
1000
0100
0010
0001
1000
0001
,  // measure 50
1000
0010
1000
0010
0100
0001
0010
0100
1000
0001
0000
0000
,  // measure 51
0011
0000
0000
0001
1000
0001
1000
0010
0100
0010
1000
0100
,  // measure 52
1000
0001
0100
0001
0010
0100
1000
0000
0000
0010
0100
0010
,  // measure 53
0100
0000
0100
0001
1000
0001
0010
0000
0010
0100
0000
0100
,  // measure 54
1000
0001
0100
0010
1000
0100
0010
0001
1000
0001
0000
0000
,  // measure 55
1000
0010
1000
0010
1000
0010
0100
0001
0100
0001
0100
0001
,  // measure 56
1000
0100
0010
0001
0100
0010
1000
0001
1000
0100
0010
0001
,  // measure 57
0200
0000
0000
0000
,  // measure 58
0300
0000
0000
0000
;
