#TITLE:Rampage Rag;
#SUBTITLE:;
#ARTIST:Camellia;
#TITLETRANSLIT:;
#SUBTITLETRANSLIT:;
#ARTISTTRANSLIT:;
#GENRE:;
#CREDIT:;
#BANNER:Rampage Rag-bn.png;
#BACKGROUND:Rampage Rag-bg.png;
#LYRICSPATH:;
#CDTITLE:;
#MUSIC:Rampage Rag.ogg;
#OFFSET:0.000000;
#SAMPLESTART:2.874000;
#SAMPLELENGTH:20.000000;
#SELECTABLE:YES;
#DISPLAYBPM:167.000000;
#BPMS:0.000000=167.000000
;
#STOPS:
;
#BGCHANGES:;
#KEYSOUNDS:;
#ATTACKS:;

//---------------dance-single - ----------------
#NOTES:
     dance-single:
     :
     Challenge:
     17:
     0.991539,1.139600,0.460444,0.187588,1.244905,814.000000,760.000000,54.000000,22.000000,0.000000,0.000000,0.991539,1.139600,0.460444,0.187588,1.244905,814.000000,760.000000,54.000000,22.000000,0.000000,0.000000:
0000
0000
0000
0000
,
1010
0000
0000
0000
0101
0000
0000
0000
1010
0000
0001
1000
0001
0000
0000
0000
,
0010
0000
0001
0000
0100
0010
0000
1000
0000
0001
0010
0000
0100
0000
1000
0000
,
0001
0000
0000
0100
0000
0100
0000
0010
1000
0000
0001
0000
1000
0000
0100
0000
,
0010
0000
0001
0000
1000
0001
0000
0100
0000
0010
1000
0000
0100
0000
0010
0000
,
0001
0000
1000
0000
0010
0100
0010
1000
0001
0100
0010
0000
2000
0000
0000
0000
,
3001
0000
0010
0000
0001
1000
0000
0010
0100
0001
1000
0000
0100
0000
0010
0000
,
0011
0000
0000
1100
0000
0000
0101
0000
1100
0000
0000
0000
0002
0000
0000
0000
,
0013
0000
0001
0000
0100
0010
0000
1000
0000
0100
0010
0000
0001
0000
1000
0000
,
1001
0000
0010
0100
0001
0010
0001
1000
0010
0100
0001
2000
0000
0000
0000
0000
,
3100
0000
0010
0001
0000
0001
0100
0000
0010
1000
0010
0100
0000
0001
1000
0000
,
0100
0010
0000
0010
0001
0000
0001
1000
0000
0010
1000
0000
0100
0010
0001
0000
,
1000
0000
0010
0100
0000
0010
1000
0000
0001
0010
0100
1000
0000
0001
0100
0001
,
0000
1000
0001
0000
1000
0010
0100
0010
1000
0001
0010
0100
0000
0100
1000
0000
,
0001
0010
0001
1000
0010
1010
0100
0101
,
0001
0000
0011
0000
0010
0000
0110
0000
0100
0000
1100
0000
1000
0001
0100
0000
,
0010
0000
1000
0001
0000
1000
0001
0100
0001
0010
0100
1000
0001
0100
0010
0100
,
0002
0000
0000
0000
1003
0010
1000
0010
0100
0000
0110
0000
1001
0000
0000
0000
,
0010
0000
1000
0000
0100
0010
0000
0010
0000
0001
1000
0000
0010
0000
0100
0000
,
0001
0000
0000
1000
0000
1000
0000
0001
0100
0000
0010
0000
2000
0000
0000
0000
,
3100
0000
0010
0000
0001
0100
0000
0010
0000
0010
1000
0000
0001
0000
0100
0000
,
0010
0000
1000
0001
0000
1000
0000
0100
0010
0000
0001
1000
0000
0001
0100
0000
,
0010
0000
1000
0000
0100
0010
0000
0010
0001
0100
0001
0000
1000
0000
0010
0000
,
1010
0000
0000
1100
0000
0000
0101
0000
1100
0000
0000
0000
0020
0000
0000
0000
,
0031
0000
1000
0000
0001
0100
0000
0010
0000
1000
0100
0000
0010
0000
0001
0000
,
1001
0000
0100
0001
0010
0100
1000
0010
1000
0001
0100
0020
0000
0000
0000
0000
,
0000
0000
0000
0000
,
1000
0000
0000
0000
1030
0000
0000
0000
1000
0001
1000
0000
0100
0000
0000
0000
,
1001
0000
0010
0100
0010
0000
1000
0001
0000
1000
0100
0010
0001
0000
0001
0000
,
0110
0000
1000
0000
0010
0100
0001
0100
0000
0010
1000
0010
0000
0100
0001
0000
,
1010
0000
1000
0000
0100
0010
0000
0010
0001
1000
0001
0000
0100
0010
1000
0000
,
1100
0000
0010
0001
0010
0100
1000
0001
0000
0000
0101
0000
0000
1100
0000
0000
,
0011
0000
1000
0000
0100
1000
0000
0010
0000
0100
0001
0000
0010
0001
1000
0000
,
0110
0000
1000
0010
0100
0010
1000
0001
0010
0100
1000
0000
0001
0000
0101
0000
,
1010
0000
0010
0100
0010
1000
0000
0001
0010
0100
1000
0000
0001
0100
0010
0100
,
0001
0000
0000
0000
1001
0000
0000
0000
0110
0000
0000
0000
1000
0001
0010
0100
,
1000
0000
0010
0100
0010
1000
0100
0010
0000
0001
1000
0002
0000
0000
0103
0000
,
0110
0000
0010
0000
1000
0001
1000
0100
0010
0001
0010
0100
1000
0001
0100
0000
,
0101
0000
0010
0000
1000
0001
1000
0100
0000
0010
0001
0000
0100
0010
1000
0000
,
0001
0000
0000
0000
1000
0000
0000
0000
0010
0000
0000
0000
1000
0000
0000
0000
0100
0000
0000
0000
0010
0000
0000
0000
0001
0000
0000
0000
0000
0000
0100
0000
0000
0010
0000
0000
0000
0000
0000
0100
0000
0000
0010
0000
0000
0000
0000
0000
,
1010
0000
0001
0000
1000
0000
0100
0000
0011
0000
0100
0000
0010
0000
1000
0001
,
1000
0000
0100
0010
0000
0010
0001
0000
0101
0000
0000
0000
1100
0000
0000
0000
,
0001
0000
0001
0000
1000
0000
1000
0000
0001
0000
0001
0000
0100
0010
1000
0001
,
0010
0100
0010
0100
1000
0010
0100
0001
1000
0001
0010
0001
0100
0010
0100
0001
,
1000
0000
0010
1000
0000
1000
0100
0010
0000
0001
1000
0000
0001
0100
0010
1000
,
0100
0000
0010
0001
0000
0100
0000
0010
0000
1000
0001
0000
1000
0100
0000
0010
,
0001
0000
0001
0000
1000
0000
1000
0000
0001
0010
0000
0100
0000
0100
1000
0000
,
0010
0000
0100
0000
0001
0000
0100
0010
1000
0000
0000
0000
1001
0000
0000
0000
,
0100
0000
0010
0001
0000
0100
0000
0010
0000
1000
0100
0000
1000
0001
0100
0010
,
1000
0000
0001
0010
0000
0010
0000
0100
0000
1000
0001
0000
1000
0010
0000
0100
,
0000
0001
1000
0000
0010
0000
0100
0000
0010
1000
0000
0001
0000
0010
0000
0100
,
2000
0000
0000
0000
3000
0000
0001
0100
0002
0000
0000
0000
0003
0000
1000
0010
,
1000
0000
0001
0000
1000
0000
0001
0000
1000
0000
0001
0000
0100
0000
0010
1000
,
0002
0000
0100
0000
0103
0000
0001
1000
0002
0000
0000
0000
0003
0000
0010
0100
,
1000
0000
0001
0000
0010
0000
0001
0000
2000
0000
0000
0000
3001
0010
0100
1000
,
0000
0000
0010
0100
0000
0010
0100
0000
0010
0100
0010
0100
0000
0010
0100
0000
,
0010
0100
0000
0010
0100
0010
0100
0010
0000
0000
0100
0010
0100
0010
0100
0000
,
0000
0000
0001
1000
0000
0001
1000
0000
0001
1000
0001
1000
0000
0001
1000
0000
,
0001
1000
0000
0001
1000
0001
1000
0001
0000
0000
1000
0001
1000
0001
1000
0000
,
1200
0000
1000
1300
0000
0110
0000
0011
,
0000
0000
0101
0000
0000
0000
1100
0000
0001
0000
0100
0010
1000
0000
0001
0000
,
1001
0000
0100
0010
0100
0000
0001
1000
0001
0010
0100
1000
0010
0000
0000
0000
,
0110
0000
0100
0001
0010
0000
0001
1000
0010
1000
0100
0010
0001
0000
0000
0000
,
0011
0000
0010
0001
0100
0000
0010
0000
1010
0000
1000
0001
1000
0100
0010
0001
,
0200
0000
0010
0000
0010
0000
0310
0100
0010
0000
1000
0000
0100
0000
0001
0000
,
0010
0000
0001
0000
1000
0010
1000
0100
0000
0100
0010
0000
0001
0000
1000
0001
,
0100
0000
0010
1000
0000
0001
0000
0010
0000
1100
0000
0101
0000
1000
0001
0000
,
0100
0000
0010
0000
1000
0100
0000
0010
0000
0001
1000
0000
0001
0100
0010
1000
,
0001
0000
0010
0100
1000
0010
1000
0000
0001
1000
0000
0220
0000
0300
0000
0000
,
0130
0000
0010
0000
0100
0001
0000
1000
0000
1000
0100
0000
0010
0000
0001
1000
,
0001
0000
0000
0011
0000
0000
1100
0000
0101
0000
0000
0000
0020
0000
0000
0000
,
1030
0000
0001
0000
1000
0100
0000
0010
0000
0010
0001
0000
0100
0010
1000
0000
,
0001
0000
0100
0000
0010
2000
0000
0002
0000
0000
0000
3003
0000
0000
0000
0000
,
1000
0010
1000
0010
0100
1000
0100
1000
0100
0001
0100
0001
0010
0001
0010
0001
,
0100
0000
0010
1000
0010
0100
0000
0001
1000
0000
0100
0010
0000
0010
0001
0000
,
0200
0000
0010
0000
0310
0000
1000
0001
1000
0000
0100
0000
1000
0000
0001
0000
,
0100
0001
0100
0001
0100
0001
0100
0001
1000
0010
1000
0010
0100
0010
1000
0001
,
0010
0100
0010
0001
0100
0010
1000
0001
0010
0001
0100
0010
1000
0100
1000
0001
,
0100
0010
0100
0010
0100
0010
0100
0010
1000
0001
0010
0200
0000
0000
0000
0000
,
0000
0000
0000
0000
,
0000
0000
0000
0000
,
0301
0000
0000
0000
;

//---------------dance-single - ----------------
#NOTES:
     dance-single:
     :
     Hard:
     15:
     0.808823,0.828800,0.528658,0.187588,0.805778,664.000000,602.000000,62.000000,22.000000,0.000000,0.000000,0.808823,0.828800,0.528658,0.187588,0.805778,664.000000,602.000000,62.000000,22.000000,0.000000,0.000000:
0000
0000
0000
0000
,
1010
0000
0000
0000
0101
0000
0000
0000
1010
0000
0001
1000
0001
0000
0000
0000
,
0010
0000
0001
0000
0100
0010
0000
1000
0000
0001
1000
0000
0100
0000
0010
0000
,
0001
0000
0000
1000
0000
0001
0000
0000
0100
0000
0010
0000
2000
0000
0000
0000
,
3001
0000
0010
0000
0001
1000
0000
0100
0000
0010
0001
0000
0100
0000
0010
0000
,
1000
0000
0001
0000
1000
0010
1000
0000
0100
0010
0100
0010
0002
0000
0000
0000
,
1003
0000
0001
0000
0010
0001
0000
0100
0000
0010
1000
0000
0100
0000
0010
0000
,
0011
0000
0000
1100
0000
0000
0101
0000
1100
0000
0000
0000
0020
0000
0000
0000
,
0031
0000
1000
0000
0001
0100
0000
0010
0000
0100
0001
0000
1000
0000
0100
0000
,
0010
0000
0001
0000
1000
0000
0001
0000
0100
0010
0000
2000
0000
0000
0000
0000
,
3001
0000
0010
0100
0000
0100
1000
0000
0001
0000
0100
0010
0000
0010
1000
0000
,
0001
1000
0000
1000
0100
0000
0010
0001
0000
0000
1001
0000
0000
0000
0110
0000
,
0000
0000
1000
0010
0000
1000
0001
0000
0010
0000
0100
1000
0000
1000
0001
0000
,
0100
0010
0000
0100
0010
0000
0100
0001
0000
0000
0011
0000
0000
0000
1100
0000
,
1001
0100
0010
1000
0000
0101
1000
1100
,
0000
0000
0011
0000
0001
0000
0101
0000
0000
0000
0110
0000
1001
0000
0100
0010
,
0100
0000
0001
0000
0100
0000
0010
0000
1000
0001
1000
0001
0200
0000
0000
0000
,
0310
0000
0110
0000
0001
0100
1000
0000
,
0001
0000
1000
0000
0100
0010
0000
0010
0000
0001
1000
0000
0010
0000
0100
0000
,
0010
0000
0000
1000
0000
0001
0000
0000
1000
0000
0100
0000
0020
0000
0000
0000
,
0031
0000
0100
0000
0001
1000
0000
0100
0000
0010
0001
0000
0100
0000
0010
0000
,
0100
0000
0001
1000
0000
1000
0000
0100
1000
0000
0010
0100
0000
0001
0100
0000
,
0010
0000
1000
0000
0001
1000
0000
0100
0000
0010
0001
0000
0100
0000
0010
0000
,
1010
0000
0000
1001
0000
0000
1100
0000
0011
0000
0000
0000
2000
0000
0000
0000
,
3001
0000
0100
0000
0001
1000
0000
0001
0000
0010
0100
0000
1000
0000
0010
0000
,
0100
0000
0001
0000
0010
0000
0001
0000
1000
0010
0100
0002
0000
0000
0000
0000
,
0000
0000
0000
0000
,
1000
0000
1000
0000
1003
0001
0100
0000
,
1001
0000
0100
0000
0010
0000
0100
0001
,
0110
0000
0010
1000
0000
0100
0000
1100
,
0101
0000
0010
0000
0010
1000
0001
0000
,
0011
0000
0000
0000
0100
0000
0000
1000
0000
0000
1100
0000
0000
0101
0000
0000
,
1010
0000
0000
0000
0001
1000
0000
0010
0000
1000
0001
0000
0100
0000
0000
0000
,
0110
0000
0000
0000
0010
0000
1000
0000
0001
0100
0001
0000
1000
0000
1100
0000
,
0011
0000
0001
0000
0100
0010
0000
0010
1000
0000
0001
0000
1000
0010
1000
0010
,
1000
1100
0110
0011
,
1001
0000
0100
0000
0001
0010
0000
0001
0000
1000
0010
0200
0000
0000
0300
0000
,
0110
0000
0010
0000
1000
0001
1000
0000
0100
0010
0001
0010
0000
0000
0011
0000
,
1010
0000
0001
0000
0100
0010
0000
0010
1000
0000
0001
0000
1000
0100
0000
0010
,
0001
0000
0000
0000
0100
0000
0000
0000
0010
0000
0000
0000
1000
0000
0000
0000
0001
0000
0000
0000
1000
0000
0000
0000
0000
0000
0000
0000
0000
0000
1001
0000
0000
0000
0000
0000
0000
0000
0000
1010
0000
0000
0000
0000
0000
0000
0000
0000
,
1100
0010
0001
0100
0010
0100
0001
1000
,
0000
0010
1000
0000
0100
0010
0000
0010
0001
0000
0000
0000
0200
0000
0000
0000
,
0310
1000
0010
1000
0001
0010
0001
0100
,
0010
0000
0100
0000
0001
0000
1000
0000
0100
0000
0010
0000
0001
0000
1000
0001
,
1000
0000
0010
0100
0000
0010
0000
1000
0000
0001
0010
0000
0100
1000
0000
0001
,
1000
0000
0010
0100
0000
0001
0000
0100
0000
0001
1000
0000
0100
0000
0000
0010
,
0001
0000
0100
0000
0001
0000
1000
0000
0010
0100
0000
0100
0000
0010
1000
0000
,
0001
0100
0001
0100
0010
0000
1001
0000
,
0100
0000
0010
1000
0000
0100
0000
0010
0000
0001
1000
0000
0001
0100
0000
0010
,
1000
0000
0100
0010
0000
0001
0000
0001
0000
1000
0001
0000
0100
0010
0000
0010
,
0000
0000
1000
0000
0001
0000
1000
0000
0100
0010
0000
0001
0000
0100
0000
0010
,
2000
0000
0000
0000
3000
0000
0001
1000
0002
0000
0000
0000
0003
0000
0100
0010
,
0100
0000
0001
0000
1000
0000
0001
0000
0100
0000
0010
0000
1000
0000
0001
0010
,
0002
0000
0000
0000
0003
0000
1000
0010
2000
0000
0000
0000
3000
0000
0010
0100
,
0010
1000
0001
1000
0100
0000
0110
0000
,
0000
0000
0001
0000
0000
0010
0000
0000
0100
0000
0000
1000
0000
0000
0001
0000
,
0000
1000
0000
0000
0010
0000
0000
0100
0000
0000
0001
1000
0001
1000
0001
0000
,
0000
0000
0010
0000
0000
0001
0000
0000
1000
0000
0000
0001
0000
0000
0100
0000
,
0000
0010
0000
0000
1000
0000
0000
0001
0000
0000
0100
0010
0100
0010
0100
0000
,
0002
0000
1003
1100
0000
1010
0000
1001
,
0000
0000
1100
0000
0000
0000
0011
0000
1000
0000
0001
0100
0001
0000
1000
0000
,
1001
0000
0010
0000
0100
0000
0001
0000
1000
0010
1000
0010
1000
0000
0000
0000
,
0110
0000
0001
0000
1000
0000
0001
0000
0010
0100
0010
0100
0010
0000
0000
0000
,
0011
0000
0001
0000
0100
0000
0010
0000
1010
0000
1000
0000
0100
0000
0010
0001
,
0200
0000
0010
0000
0010
0000
0310
0100
0010
0000
1000
0000
0100
0000
0001
0000
,
1000
0000
0001
0000
0010
0100
0000
1000
0000
0001
0100
0000
0001
0000
1000
0000
,
0010
0000
1000
0100
0000
0010
0000
0001
0000
1001
0000
1001
0000
0100
0010
0000
,
1000
0000
0001
0000
1000
0100
0000
0010
0000
0010
0001
0000
0100
0000
0010
0000
,
1000
0000
0001
0000
0100
0010
0100
0000
0001
1000
0000
0220
0000
0300
0000
0000
,
0130
0000
0010
0000
1000
0001
0000
0010
0000
0001
0100
0000
0010
0000
1000
0000
,
1100
0000
0000
0110
0000
0000
0011
0000
0101
0000
0000
0000
2000
0000
0000
0000
,
3001
0000
1000
0000
0001
0100
0000
0100
0000
0100
0010
0000
1000
0000
0001
0000
,
0000
0000
0010
0000
0001
1000
0000
0200
0000
0000
0000
0000
0300
0000
0000
0000
,
1000
0000
0001
0000
1000
0010
0000
0100
0000
0100
0001
0000
0010
0000
0001
0000
,
1000
0000
0010
0100
0000
0100
0000
0100
0001
0000
0010
0100
0000
0100
0000
0000
,
2000
0000
0000
0000
3000
0000
0001
0100
0001
0000
0010
0000
0100
0000
1000
0000
,
0001
0000
0000
0000
0100
0000
0000
0000
0001
0000
0000
0000
0100
0000
0000
0000
0001
0000
0000
0000
0100
0000
0000
0000
0001
0000
0000
1000
0000
0000
0010
0000
0000
1000
0000
0000
0100
0000
0000
1000
0000
0000
0001
0000
0000
0000
0000
0000
,
0100
0000
0001
0000
0010
0100
0000
1000
0000
1000
0001
0000
0100
0000
0010
0000
,
1000
0000
0001
0000
0100
0000
0001
0000
1000
0001
0010
0200
0000
0000
0000
0000
,
0000
0000
0000
0000
,
0000
0000
0000
0000
,
0301
0000
0000
0000
;

//---------------dance-single - ----------------
#NOTES:
     dance-single:
     :
     Medium:
     12:
     0.571292,0.621600,0.392230,0.153481,0.187588,469.000000,423.000000,46.000000,18.000000,0.000000,0.000000,0.571292,0.621600,0.392230,0.153481,0.187588,469.000000,423.000000,46.000000,18.000000,0.000000,0.000000:
0000
0000
0000
0000
,
1001
0110
1001
0110
,
1000
0000
0001
0000
1000
0000
0000
0010
0000
0000
0100
0000
0001
0000
0000
0000
,
0010
0000
0000
0001
0000
0000
1000
0000
0001
0000
0100
0000
0010
0000
0000
0000
,
1000
0000
0001
0000
1000
0000
0000
0100
0000
0000
0010
0000
0001
0000
0000
0000
,
0100
0001
0010
0001
1000
0010
0100
0000
,
0001
0000
0010
0000
0001
0000
0000
1000
0000
0000
0100
0000
0010
0000
0000
0000
,
0001
0000
0000
0001
0000
0000
1000
0000
0001
0000
0000
0000
0100
0000
0000
0000
,
0010
0000
1000
0000
0100
0000
0000
0100
0000
0000
0010
0000
0001
0000
0000
0000
,
1000
0000
0001
0000
1000
0000
0010
0000
0100
0000
0000
0002
0000
0000
0000
0000
,
0013
0000
0001
0000
0000
1000
0000
0000
0001
0000
0000
0100
0000
0000
0010
0000
,
0000
1000
0000
0000
0100
0000
0000
1000
0000
0000
1010
0000
0000
0000
0101
0000
,
0000
0000
0001
0000
0000
0010
0000
0000
0100
0000
0000
0010
0000
0000
0001
0000
,
0000
1000
0000
0000
0010
0000
0000
0100
0000
0000
0110
0000
0000
0000
0001
0000
,
1000
0000
0010
0100
0000
0101
0000
1010
,
0000
1100
0000
0011
0000
1000
0001
0000
,
0100
0001
0010
0001
0010
0100
1000
0000
,
1100
0101
1100
0101
,
0010
0000
1000
0000
0001
0000
0000
0010
0000
0000
0001
0000
0100
0000
0010
0000
,
1000
0000
0000
0100
0000
0000
0010
0000
0001
0000
0100
0000
0001
0000
0000
0000
,
0010
0000
1000
0000
0001
0000
0000
1000
0000
0000
0100
0000
0010
0000
0001
0000
,
0100
0000
0010
0000
0100
0000
0001
0000
1000
0000
0000
1000
0000
0000
1000
0000
,
0001
0000
0010
0000
0001
0000
0000
0100
0000
0000
0010
0000
1000
0000
0100
0000
,
0010
0000
0000
0010
0000
0000
0001
0000
1000
0000
0000
0000
0010
0000
0000
0000
,
0100
0000
0001
0000
0100
0000
0000
0010
0000
0000
0010
0000
1000
0000
0001
0000
,
0010
0000
0001
0000
1000
0000
0001
0000
0100
0000
0000
0220
0000
0000
0000
0000
,
0000
0000
0000
0300
,
1000
1000
1000
1030
,
1001
0000
0000
0000
,
0110
0000
0000
0000
0000
0000
0000
0101
,
0101
0000
0000
0000
,
1100
0000
0000
0000
0000
0000
0000
0000
0000
0000
1001
0000
0000
1001
0000
0000
,
1001
0000
0000
0000
,
1010
0000
0000
0000
0000
0000
0000
0101
,
0101
0000
0000
0000
0000
0000
0000
0000
0000
0000
0000
0000
0000
0000
1000
0001
,
2000
3200
0320
0032
,
0103
0001
0010
0001
0010
0100
2000
0000
,
3001
0010
0001
0100
0010
1000
0100
0110
,
0110
0000
0001
0000
1000
0001
0100
0000
,
0010
0000
1000
0000
0100
0000
1000
0000
0000
0000
1100
0000
0000
0110
0000
0000
,
0011
0001
0000
0100
0010
1000
0001
1000
,
0000
0000
1001
0000
0000
0110
0000
0000
1001
0000
0000
0000
0100
0000
0000
0000
,
0100
0010
1000
0010
1000
0010
1000
0010
,
1000
0001
1000
0001
1000
0100
0010
0000
,
0001
0100
0001
0010
0001
1000
0100
0000
,
0010
0001
0010
0100
1000
0001
0100
0000
,
0010
0000
1000
0000
0100
0000
0010
0000
0001
0000
0000
1000
0000
0000
0001
0000
,
0100
0010
1000
0001
1000
0000
0101
0000
,
0001
0010
0001
1000
0100
0010
0001
0000
,
1000
0010
1000
0001
1000
0100
0010
0000
,
0001
0100
0010
1000
0100
0010
0001
1000
,
0020
0000
0030
1000
0002
0000
0003
1000
,
0100
0010
0100
0010
0100
0010
0001
0000
,
2000
0000
3000
0001
0200
0000
0300
0001
,
1000
0010
0100
0010
2000
0000
3002
0000
,
0003
0010
0000
0001
0000
0100
0000
0001
,
0000
1000
0000
0010
0000
1000
0100
0001
,
0000
1000
0000
0001
0000
0010
0000
0100
,
0000
0010
0000
0001
0000
1000
0010
0100
,
0001
0000
0010
0100
0000
1100
0000
1010
,
0000
1001
0000
0011
0000
0110
0000
0000
,
1001
0100
0001
0100
0001
1000
0100
0000
,
0110
0001
1000
0001
1000
0010
0100
0000
,
0101
0000
0010
1000
1100
0000
0010
0001
,
2000
0000
0000
0000
3001
0010
0100
1000
,
0000
0000
0010
0000
1000
0000
0000
0100
0000
0000
1000
0000
0001
0000
0100
0000
,
0010
0000
0000
0000
0100
0000
0001
0000
1000
0010
0000
0020
0000
0000
0000
0000
,
0130
0000
0001
0000
0010
0000
0000
0001
0000
0000
1000
0000
0010
0000
0100
0000
,
0001
0000
0010
0000
0001
0000
1000
0000
0010
0100
0000
0200
0000
0000
0000
0000
,
0301
0000
0010
0000
0001
0000
0000
0100
0000
0000
0010
0000
1000
0000
0001
0000
,
1000
0000
0000
1000
0000
0000
1000
0000
0001
0000
0000
0000
0110
0000
0000
0000
,
0010
0000
1000
0000
0100
0000
0000
0100
0000
0000
1000
0000
0001
0000
0100
0000
,
0000
0000
0000
0000
,
0001
0000
0010
0000
0001
0000
0000
1000
0000
0000
0010
0000
0100
0000
0001
0000
,
1000
0000
0000
0100
0000
0100
0000
0000
1000
0000
0000
0001
0000
0001
0000
0000
,
0010
0000
0000
0000
0001
1000
0001
0000
,
0100
0010
1000
0001
0100
0010
1000
0001
,
0010
0000
0001
0000
0100
0000
0000
0010
0000
0000
1000
0000
0100
0000
1000
0000
,
0001
0000
1000
0000
0010
0000
1000
0000
0010
0000
0000
0200
0000
0000
0000
0000
,
0000
0000
0000
0000
,
0000
0000
0000
0000
,
0301
0000
0000
0000
;

//---------------dance-single - ----------------
#NOTES:
     dance-single:
     :
     Easy:
     9:
     0.409284,0.552533,0.289909,0.187588,0.034107,336.000000,302.000000,34.000000,22.000000,0.000000,0.000000,0.409284,0.552533,0.289909,0.187588,0.034107,336.000000,302.000000,34.000000,22.000000,0.000000,0.000000:
0000
0000
0000
0000
,
1001
0110
1001
0110
,
1000
0010
1000
0000
0100
0000
0001
0000
,
0010
0000
0001
0000
0100
0010
1000
0000
,
0001
0010
0001
0000
0100
0000
0010
0000
,
1000
0000
0001
0000
1000
0100
0010
0000
,
0001
1000
0001
0000
0100
0000
0010
0000
,
1010
0101
1010
0000
,
0001
0010
0001
0000
0100
0000
1000
0000
,
2002
0000
0000
0000
0000
0000
0000
0000
0003
0000
0000
3001
0000
0000
0000
0000
,
0010
0001
0100
0000
0001
0000
1000
0000
,
0010
1000
0100
0000
1000
0001
0000
0001
,
0000
0100
0010
0000
1000
0000
0001
0000
,
0010
0001
0100
0000
0010
1000
0000
0000
,
0010
0000
0100
0001
0000
0001
0000
1000
,
0000
0001
0000
0010
0000
0100
0000
0000
,
1000
0010
1000
0001
,
0100
0010
0110
1001
,
0001
0010
0100
0000
1000
0000
0010
0000
,
1000
0000
0001
0000
1000
0100
0001
0000
,
0010
0001
0100
0000
0010
0000
1000
0000
,
0100
0010
0001
0000
0011
0000
1100
0000
,
0001
1000
0010
0000
1000
0100
0001
0000
,
0101
1010
0101
0000
,
1000
0001
0010
0000
0100
0000
1000
0000
,
0001
0000
0000
0000
0000
0000
0000
0000
0000
0000
0000
0220
0000
0000
0000
0000
,
0000
0000
0000
0300
,
1000
1000
1000
1030
,
1001
0000
0000
0000
,
0110
0000
0000
0000
0000
0000
0000
1000
,
0001
0000
0000
0000
,
0011
0000
0000
0000
0000
0000
0000
0000
0000
0000
1000
0000
0000
1000
0000
0000
,
1000
0000
0000
0000
,
1100
0000
0000
0000
0000
0000
0000
1000
,
0001
0000
0000
0000
,
0200
0320
0230
0320
,
1030
0001
0010
0100
,
0110
0000
0001
0000
0010
0000
0001
0100
,
1000
0010
1000
0001
,
1001
0000
0000
0000
0100
0000
0000
0000
0010
0000
1000
0000
0000
0001
0000
0000
,
1000
0000
0010
0000
0100
0001
0100
0001
,
0000
0000
0010
0000
0000
0010
0000
0000
0010
0000
0000
0000
0000
0000
0000
0000
,
0002
0010
1000
0103
,
2000
0010
0001
3100
,
1000
0000
0010
0000
1000
0100
0010
0000
,
0001
0000
0100
0000
0001
0010
0100
0000
,
1000
0001
1000
0000
0010
0100
0001
0000
,
0020
0000
0030
1001
,
0100
0000
0001
0000
0100
0001
1000
0000
,
0010
0000
1000
0000
0010
1000
0001
0000
,
0100
0010
0100
0000
0010
0100
0010
0000
,
2020
0030
0002
0003
,
0100
3100
1000
0001
,
0202
0300
2000
3003
,
0001
0100
0001
0100
0001
0000
0000
0000
,
0000
0010
0000
0000
0001
0000
0000
0100
,
0000
0000
0010
0000
0000
1000
0000
0001
,
0000
1000
0000
0000
0100
0000
0000
0010
,
0000
0000
0001
0000
0000
0100
0000
0000
,
0010
0000
1000
0001
0000
1000
0000
0100
,
0000
0100
0000
0010
0000
0001
0000
0000
,
0011
0000
0000
0000
0001
0100
1000
0000
,
1010
0000
0000
0000
1000
0100
0001
0000
,
0110
0001
0110
1000
,
2002
0000
0000
3000
,
0103
0000
0010
0000
1000
0100
0001
0000
,
0010
0000
0000
0000
0001
0000
0000
0000
0000
1000
0000
0001
0000
0000
0000
0000
,
0010
0001
0100
0010
,
1000
0000
0100
0010
0001
0000
0101
0000
,
0010
1000
0100
0000
1000
0010
0001
0000
,
0011
0110
1100
0000
,
0010
0100
0001
0000
1000
0100
0010
0000
,
0000
0000
0000
0000
,
0001
1000
0001
0000
0010
0100
1000
0000
,
0010
0010
0100
0100
,
0002
0000
2000
0003
,
0100
3100
1000
0001
,
0010
0001
1000
0000
0001
1000
0100
0000
,
0010
0000
0000
0000
0000
0000
0000
0000
0000
0000
0000
0200
0000
0000
0000
0000
,
0000
0000
0000
0000
,
0000
0000
0000
0000
,
0301
0000
0000
0000
;

//---------------dance-single - ----------------
#NOTES:
     dance-single:
     :
     Beginner:
     5:
     0.219259,0.310800,0.187588,0.051160,0.000000,180.000000,158.000000,22.000000,6.000000,0.000000,0.000000,0.219259,0.310800,0.187588,0.051160,0.000000,180.000000,158.000000,22.000000,6.000000,0.000000,0.000000:
// measure 0
0000
0000
0000
0000
,  // measure 1
1000
1000
1000
0000
,  // measure 2
0001
0000
1000
0000
,  // measure 3
0001
0001
0001
0000
,  // measure 4
0100
0000
0010
0000
,  // measure 5
0100
0100
0100
0000
,  // measure 6
0001
0000
0010
0000
,  // measure 7
0001
0001
0001
0000
,  // measure 8
1000
0000
0001
0000
,  // measure 9
0100
0000
0000
0110
,  // measure 10
0000
0010
0000
0010
,  // measure 11
0000
1000
0000
0001
,  // measure 12
0000
0010
0000
0001
,  // measure 13
0000
0100
0000
0000
,  // measure 14
0010
0000
1000
0000
,  // measure 15
0100
0100
0100
0000
,  // measure 16
1001
0000
0000
0000
,  // measure 17
0010
0000
0100
0000
,  // measure 18
0001
0001
0001
0000
,  // measure 19
1000
0000
0001
0000
,  // measure 20
0010
0010
0010
0000
,  // measure 21
0100
0000
1000
0000
,  // measure 22
0001
0000
0100
0000
,  // measure 23
0001
0001
0001
0000
,  // measure 24
1000
1000
1000
0000
,  // measure 25
0010
0000
0000
0110
,  // measure 26
0000
0000
0000
0000
,  // measure 27
0000
0000
0000
0000
,  // measure 28
1001
0000
0000
0000
,  // measure 29
0110
0000
0000
0000
,  // measure 30
1001
0000
0000
0000
,  // measure 31
0110
0000
0000
1000
,  // measure 32
1000
0000
0000
0000
,  // measure 33
1001
0000
0000
0000
,  // measure 34
0110
0000
0000
0000
,  // measure 35
0001
0001
0001
0001
,  // measure 36
0001
0000
1000
0000
,  // measure 37
1001
0000
0010
0000
,  // measure 38
0110
0000
0100
0000
,  // measure 39
1001
0000
1000
1000
,  // measure 40
1000
0000
0010
0000
,  // measure 41
0100
0100
0100
0000
,  // measure 42
0002
0000
0003
0000
,  // measure 43
2000
0000
3000
0000
,  // measure 44
0001
0100
0001
0000
,  // measure 45
1000
0100
1000
0000
,  // measure 46
0010
0000
0100
0000
,  // measure 47
0020
0000
0030
0000
,  // measure 48
1000
0010
1000
0000
,  // measure 49
0001
0010
0001
0000
,  // measure 50
1000
0000
0001
0000
,  // measure 51
0110
0000
0110
0000
,  // measure 52
1000
0001
1000
0000
,  // measure 53
1001
0000
1001
0000
,  // measure 54
0100
0010
0100
0000
,  // measure 55
0000
0000
0000
0000
,  // measure 56
0000
0000
0000
0000
,  // measure 57
0000
0000
0000
0000
,  // measure 58
0000
0000
0000
0000
,  // measure 59
0001
0000
1000
0000
,  // measure 60
0010
0010
0010
0000
,  // measure 61
0110
0000
0000
0000
,  // measure 62
1001
0000
0000
0000
,  // measure 63
0110
0000
1001
0000
,  // measure 64
0200
0000
0300
0000
,  // measure 65
0001
0010
0001
0000
,  // measure 66
1000
0100
1000
0000
,  // measure 67
0010
0000
0100
0000
,  // measure 68
0001
0100
0001
0000
,  // measure 69
1000
0000
0100
0000
,  // measure 70
1000
1000
1000
0000
,  // measure 71
0010
0100
0010
0100
,  // measure 72
0020
0000
0030
0000
,  // measure 73
0100
0001
0100
0001
,  // measure 74
0100
0000
0100
0000
,  // measure 75
0001
0000
0000
0000
,  // measure 76
1000
1000
1000
0000
,  // measure 77
0110
0000
1001
0000
,  // measure 78
0010
0000
0000
0200
,  // measure 79
0000
0000
0000
0000
,  // measure 80
0000
0000
0300
0000
,  // measure 81
0001
0000
0000
0000
;
