#TITLE:Ragganinja;
#SUBTITLE:;
#ARTIST:Greg Packer & Assassin;
#TITLETRANSLIT:;
#SUBTITLETRANSLIT:;
#ARTISTTRANSLIT:;
#GENRE:;
#CREDIT:;
#BANNER:Ragganinja-bn.png;
#BACKGROUND:Ragganinja-bg.png;
#LYRICSPATH:;
#CDTITLE:;
#MUSIC:Ragganinja.ogg;
#OFFSET:0.000000;
#SAMPLESTART:59.313999;
#SAMPLELENGTH:20.000000;
#SELECTABLE:YES;
#DISPLAYBPM:174.000000;
#BPMS:0.000000=173.990005
;
#STOPS:
;
#BGCHANGES:;
#KEYSOUNDS:;
#ATTACKS:;

//---------------dance-single - ----------------
#NOTES:
     dance-single:
     :
     Hard:
     13:
     0.633523,0.647736,0.190510,0.148175,0.052920,419.000000,401.000000,18.000000,14.000000,0.000000,0.000000,0.633523,0.647736,0.190510,0.148175,0.052920,419.000000,401.000000,18.000000,14.000000,0.000000,0.000000:
0000
0000
0000
0000
,
0000
0000
0000
0000
,
0000
0000
0000
0000
,
0000
0000
0000
0000
,
0000
0000
0000
0000
0000
0000
0000
0010
,
1000
0010
0001
1000
0100
0001
1000
0010
,
0001
0000
0100
0010
0000
1000
0001
0000
,
0022
0033
2200
3300
,
0102
0100
0100
0103
,
0110
1000
0001
0010
0001
0100
1000
0000
,
0010
0000
1010
0000
0001
0100
1000
0001
,
0100
0010
0110
0000
1000
0001
0101
0000
,
0010
0000
1001
0100
0001
0000
1000
0010
,
1000
0100
0001
1000
0010
0001
1000
0100
,
0001
0000
0010
0100
1000
0001
0100
0000
,
0202
0303
2020
3030
,
1100
0000
0000
0000
0101
0000
0010
0000
0000
0000
1000
0000
0001
0000
1000
0100
,
1000
0010
0100
0010
0100
0010
0100
0010
,
1000
0100
0000
0100
0001
0000
1001
0100
,
0000
0001
0010
0001
0010
0001
0010
0100
,
1000
0000
0000
0010
0000
0000
0010
0000
0100
0000
0000
0000
0000
0000
0001
0000
,
0000
0001
0010
0100
1000
0100
1000
0100
,
1000
0001
0100
0000
0010
0000
0110
0001
,
0000
1000
0010
1000
0010
1000
0010
0100
,
0010
1000
0001
0000
0010
0000
0000
0000
,
0100
1000
0010
1000
0001
1000
0100
0000
,
0010
0000
0001
0100
1000
0001
0000
0100
,
0000
0010
1000
0010
1000
0001
0010
0100
,
1000
0000
0001
1000
0001
0010
0100
0000
,
1000
0001
1000
0001
1000
0001
1000
0001
,
0100
0000
0010
1000
0100
0000
0010
0001
,
0000
1000
0001
0000
0100
0000
0010
1000
,
0100
0000
0100
0010
0001
0100
1000
0000
,
0020
0000
0230
0000
,
0302
0000
0000
0000
0000
0000
0000
0000
0003
0000
1000
0001
1000
0000
0000
0000
,
0001
0100
0010
0100
1000
0100
0010
0100
,
0001
0010
0000
0100
1000
0010
1000
0001
,
0000
0100
0010
0100
1000
0100
0010
0100
,
0001
0000
0000
0010
0000
0000
0001
0000
1000
0000
0010
0000
0100
0000
0001
0000
,
0000
1000
0100
0010
0100
0001
0100
0010
,
0100
1000
0001
0010
0001
1000
0000
0010
,
0100
0001
0100
0010
0100
1000
0100
0010
,
0100
0000
0001
0000
1000
0000
0010
0100
0010
0000
1000
0000
0000
0000
0000
0000
,
0101
1000
0001
0010
0001
0100
1000
0000
,
0010
1000
0100
0010
0001
1000
0000
0001
,
0100
0010
0100
1000
0100
0001
0100
1000
,
0100
0001
0010
0000
0011
0100
1000
0000
,
0001
0100
1000
0100
0001
0100
0010
1000
,
1100
0000
0010
0001
0100
0000
0001
1000
,
0000
1000
0001
0000
1010
0100
0001
1000
,
0100
0000
0010
0001
1000
0001
0000
0000
,
0100
0000
0001
0010
0001
0100
0001
1000
,
0010
0000
0100
0001
1000
0100
0010
0001
,
1000
0000
0100
0001
0100
0010
0100
1000
,
0001
0000
0010
0001
1000
0001
0100
0010
,
1000
0000
0010
1000
0001
0010
0001
0100
,
1000
0000
0001
1000
0100
0010
0100
1000
,
0001
0000
0010
0001
0100
0010
1000
0100
,
0010
0000
0000
0000
0001
0000
1000
0010
1000
0000
0100
0000
0001
0000
0000
0000
,
0010
0000
0001
0100
0001
0100
0010
0000
,
1000
0000
1000
0100
0010
0001
0100
0010
,
0000
1000
0001
0010
0001
0100
0001
0010
,
0100
1000
0001
0000
0001
0100
1000
0000
,
0010
0000
0100
0000
0010
0000
0100
0000
0010
1000
0010
0000
0100
0000
0001
0000
,
1000
0000
0000
0000
0001
0000
0010
0100
0010
0000
0001
0000
1000
0000
0010
0000
,
0000
0100
0001
0000
1000
0010
1000
0100
,
0001
0000
0000
0000
0010
0000
0100
0000
1000
0000
0001
0000
0100
0010
0100
0020
,
0200
0000
0000
0000
,
0330
0000
0000
0000
;

//---------------dance-single - ----------------
#NOTES:
     dance-single:
     :
     Medium:
     10:
     0.520124,0.539780,0.275182,0.190510,0.058212,344.000000,318.000000,26.000000,18.000000,0.000000,0.000000,0.520124,0.539780,0.275182,0.190510,0.058212,344.000000,318.000000,26.000000,18.000000,0.000000,0.000000:
0000
0000
0000
0000
,
0000
0000
0000
0000
,
0000
0000
0000
0000
,
0000
0000
0000
0000
,
0000
0000
0000
0000
0000
0000
0000
0010
,
1000
0000
0010
0100
0000
0010
1000
0001
,
0100
0000
0000
0110
0000
1001
0000
0000
,
2020
3030
0202
0303
,
0022
0000
0000
0033
,
0000
0000
1000
0000
0000
0001
0000
0000
0010
0000
0000
0100
0000
0000
1000
0000
,
0010
0000
0100
0001
1000
0000
0101
0000
,
1000
0000
1100
0000
0010
0100
0001
0000
,
0010
0001
0100
0000
0010
0000
1000
0100
,
1000
0000
0001
0100
0000
0001
0010
0100
,
1000
0000
0000
0110
0000
1001
0000
0000
,
0202
0303
2020
3030
,
1100
0000
0101
0000
0000
1000
0001
0100
,
0000
0010
1000
0000
1000
0000
1000
0000
,
1000
0010
0000
0100
0001
0000
1001
0000
,
0010
0000
0100
0000
0010
1000
0001
0000
,
1000
0000
0000
0100
0000
0000
0010
0000
0001
0000
0000
0000
0000
0000
0100
0000
,
0000
0001
1000
0000
1000
0000
1000
0000
,
1000
0001
0010
0000
0100
0000
0110
0000
,
1000
0000
0001
0000
1000
0010
0100
0000
,
0001
0010
0001
0000
0100
0000
0000
0000
,
0010
0000
1000
0001
1000
0100
0000
0000
,
0010
0000
0001
0100
0001
0000
0000
1000
,
0000
0010
0100
0010
0100
0010
0100
0010
,
0100
0000
0001
0000
1000
0100
0010
0000
,
0001
1000
0001
1000
0001
1000
0001
1000
,
0010
0000
1000
0100
0000
0000
0010
0001
,
0000
0100
0001
0000
1000
0000
0100
1000
,
0100
0000
0010
0001
0100
0010
1000
0000
,
2020
3030
0202
0303
,
2200
0000
0000
0000
3300
1000
0001
0000
,
0000
0010
0001
0010
0001
0010
0001
0010
,
0001
1000
0000
0001
1000
0000
0000
0010
,
0000
0010
1000
0100
1000
0100
1000
0100
,
1000
0000
0000
0001
0000
0000
0100
0000
0010
0000
0000
0000
0000
0000
1000
0000
,
0000
1000
0010
1000
0010
1000
0010
0100
,
0010
1000
0001
0000
0001
0100
0000
0010
,
0000
0100
0001
0100
0001
0100
0001
0100
,
0001
0100
0010
0000
1000
0100
0000
0000
,
1001
0000
1000
0010
1000
0001
0100
0000
,
0110
0000
0010
1000
0001
0000
0000
0010
,
0000
0001
0100
0010
0100
0001
0100
0010
,
1000
1100
0101
0000
,
0010
1000
0010
1000
0001
0100
0001
0100
,
0010
0000
1000
0100
0000
0000
1000
0001
,
0000
0001
0100
0000
0010
0000
0100
0001
,
1000
0000
0100
0010
0100
1000
0000
0000
,
0001
0000
0000
0000
1000
0000
0000
0010
0000
0000
1000
0000
0001
0000
0000
0000
,
0010
0000
0000
0000
0100
0000
0000
1000
0000
0000
0001
0000
1000
0000
0000
0000
,
0010
0000
0000
0000
0100
0000
0000
0001
0000
0000
1000
0000
0100
0000
0000
0000
,
1000
0000
0000
0000
0100
0000
0000
0010
0000
0000
0001
0000
1000
0000
0000
0000
,
0001
0000
0000
0000
1000
0000
0000
0010
0000
0000
1000
0000
0100
0000
0000
0000
,
0010
0000
0000
0000
0100
0000
0000
0010
0000
0000
0001
0000
1000
0000
0000
0000
,
0010
0000
0000
0000
1000
0000
0000
0100
0000
0000
1000
0000
0001
0000
0000
0000
,
0100
0000
1001
0000
0010
0100
0001
0000
,
0011
0000
0100
1000
0100
1000
0000
0000
,
1010
0000
0100
0001
1000
0000
0000
0110
,
0000
0010
1000
0010
1000
0010
1000
0010
,
0100
0000
0001
0000
0010
0100
1000
0000
,
0001
0100
0001
0100
0001
0100
0001
0100
,
0010
0000
1000
0001
0000
0000
1000
0100
,
0000
0010
0001
0000
0100
0000
0010
1000
,
0001
0000
1000
0100
1000
0001
0000
0020
,
0200
0000
0000
0000
,
0330
0000
0000
0000
;

//---------------dance-single - ----------------
#NOTES:
     dance-single:
     :
     Easy:
     6:
     0.334149,0.390017,0.169343,0.042336,0.000000,221.000000,205.000000,16.000000,4.000000,0.000000,0.000000,0.334149,0.390017,0.169343,0.042336,0.000000,221.000000,205.000000,16.000000,4.000000,0.000000,0.000000:
0000
0000
0000
0000
,
0000
0000
0000
0000
,
0000
0000
0000
0000
,
0000
0000
0000
0000
,
0000
0000
0000
0000
,
0010
1000
0010
0100
,
0001
0010
0001
0100
,
0110
0000
1001
0000
,
0220
0000
0000
0330
,
1000
0001
1000
0010
,
0100
0001
0010
0100
,
1000
0010
1000
0001
,
0010
0100
1000
0010
,
1000
0100
1000
0010
,
0001
0100
0010
1000
,
1001
0000
0110
0000
,
1000
0001
0000
1001
,
0000
0010
0010
0010
,
1000
0001
0001
0000
,
0100
0001
0100
0100
,
0100
0010
1000
0000
,
0001
0010
0010
0010
,
0001
0100
0100
0000
,
1000
0010
1000
1000
,
1000
0100
0001
0000
,
0010
0001
0100
0000
,
0001
0010
1000
0000
,
0100
0010
0100
1000
,
0001
0001
0001
0000
,
1000
1000
0001
0001
,
0010
0001
0100
0010
,
1000
0100
1000
0001
,
0100
0100
0100
0000
,
1001
0000
0110
0000
,
2002
0000
3003
0110
,
0000
1000
0010
1000
,
0100
0100
0100
0000
,
0001
0100
0001
0010
,
0100
1000
0001
0000
,
1000
0010
1000
1000
,
1000
0001
0010
0000
,
0100
1000
0001
1000
,
0010
0100
0001
0000
,
1001
0100
1000
0001
,
0110
1000
0010
0100
,
0001
0010
0001
0100
,
1000
1000
1000
0000
,
0010
0010
0010
0010
,
1000
0100
0001
0100
,
1000
0010
0100
0001
,
0010
0001
0100
0000
,
0000
1000
0000
0001
,
0000
0010
0000
0100
,
0000
1000
0000
0010
,
0000
1000
0000
0001
,
0000
0100
0010
0100
,
0000
0010
1000
0001
,
0000
1000
0100
1000
,
0001
0100
0000
0100
,
0010
0010
0010
0000
,
1000
0100
1000
0000
,
0001
0001
1000
1000
,
0110
1001
0110
0000
,
0001
0010
0001
0100
,
1000
0010
1000
0100
,
1000
0001
0100
0010
,
0100
0100
0100
0000
,
1001
0000
0000
0000
;

//---------------dance-single - ----------------
#NOTES:
     dance-single:
     :
     Beginner:
     3:
     0.175391,0.248193,0.042336,0.000000,0.000000,116.000000,112.000000,4.000000,0.000000,0.000000,0.000000,0.175391,0.248193,0.042336,0.000000,0.000000,116.000000,112.000000,4.000000,0.000000,0.000000,0.000000:
0000
0000
0000
0000
,
0000
0000
0000
0000
,
0000
0000
0000
0000
,
0000
0000
0000
0000
,
0000
0000
0000
0000
,
0010
0000
1000
0000
,
0010
0000
1000
0000
,
0001
0000
0001
0000
,
0001
0000
0000
0000
,
0100
0000
0100
0000
,
0010
0000
0010
0000
,
0100
0000
0100
0000
,
0001
0000
0001
0000
,
1000
0000
0100
0000
,
1000
0000
0100
0000
,
0010
0000
0010
0000
,
0010
0000
0000
0000
,
0001
0000
0000
0000
,
0000
0000
0000
1001
,
0000
0000
0000
0000
,
0000
0000
0000
0000
,
0100
0000
0000
0000
,
0000
0000
0000
0110
,
0000
0000
0000
0000
,
1000
0000
0000
0000
,
0001
0000
0001
0000
,
0001
0000
0000
0000
,
0100
0000
0100
0000
,
0100
0000
0000
0000
,
0010
0000
0010
0000
,
0010
0000
0000
0000
,
1000
0000
1000
0000
,
1000
0000
0000
0000
,
0100
0000
0100
0000
,
0100
0000
0000
0110
,
0000
0000
1000
0000
,
0001
0000
0100
0000
,
0010
0000
0100
0000
,
0001
0001
0001
0000
,
0010
0000
0100
0000
,
1000
0000
0001
0000
,
1000
0000
0010
0000
,
0100
0000
0000
0000
,
0010
0010
0010
0000
,
0001
0001
0001
0000
,
0100
0000
0010
0000
,
1000
1000
1000
0000
,
0001
0001
0001
0000
,
0100
0000
0010
0000
,
0100
0000
0001
0000
,
1000
1000
1000
0000
,
0000
0010
0000
0010
,
0000
0010
0000
0010
,
0000
0100
0000
0100
,
0000
0100
0000
0100
,
0000
0001
0000
0001
,
0000
0001
0000
0001
,
0000
1000
0000
1000
,
0000
1000
0000
0000
,
0010
0000
0010
0000
,
1000
0000
1000
0000
,
0001
0000
1000
0000
,
0100
0000
0100
0000
,
0010
0000
0010
0000
,
0001
0000
1000
0000
,
0001
0000
0100
0000
,
0010
0010
0010
0000
,
1001
0000
0000
0000
;

//---------------dance-single - ----------------
#NOTES:
     dance-single:
     :
     Challenge:
     15:
     0.907193,1.043574,0.254014,0.042336,0.603283,600.000000,576.000000,24.000000,4.000000,0.000000,0.000000,0.907193,1.043574,0.254014,0.042336,0.603283,600.000000,576.000000,24.000000,4.000000,0.000000,0.000000:
// measure 0
0000
0000
0000
0000
,  // measure 1
0000
0000
0000
0000
,  // measure 2
0000
0000
0000
0000
,  // measure 3
0000
0000
0000
0000
,  // measure 4
0000
0000
0000
0000
0000
0000
0000
0010
,  // measure 5
1000
0000
0001
0100
0001
0000
1000
0000
0001
0100
0001
0000
1000
0000
0001
0100
,  // measure 6
0001
0000
0010
0000
0100
0000
1000
0000
0010
0100
0010
0000
1000
0000
0001
0000
,  // measure 7
0101
0000
0000
0000
1000
0010
1000
0010
1000
0001
0010
0001
0010
0001
0100
0010
,  // measure 8
1000
0000
0001
0100
0001
0000
0100
0001
0100
0000
0001
0100
0001
0100
0001
0100
,  // measure 9
0010
1000
1010
0001
0010
0100
1100
0001
,  // measure 10
0100
0010
0110
0010
1000
0001
0011
0100
,  // measure 11
1000
0000
0010
0000
0001
0000
0100
0001
0100
0010
0100
0000
0010
0000
1000
0000
,  // measure 12
0001
0000
0010
0000
0100
0000
1000
0001
1000
0000
0000
0000
1001
0000
0010
0000
,  // measure 13
1000
0000
0100
0010
0001
0000
1000
0000
0010
0100
0001
0000
1000
0000
0100
0010
,  // measure 14
0001
0100
0001
0010
1000
0100
0001
1000
,  // measure 15
0110
0000
1000
0010
1000
0100
0010
0001
,  // measure 16
0101
0000
0010
0000
1001
0000
1000
0000
0100
0000
0010
0000
0010
0000
0001
1000
,  // measure 17
0001
0100
0010
0100
0001
0100
0010
0100
,  // measure 18
0001
1000
0000
1000
0100
0000
1001
0100
,  // measure 19
0001
0010
0100
0010
0100
0010
0100
0010
,  // measure 20
0100
0000
0000
1000
0000
0000
0001
0000
1000
0000
0010
0000
0000
0000
0100
0000
,  // measure 21
0001
1000
0100
1000
0100
1000
0100
1000
,  // measure 22
0010
0000
0100
0000
0001
0000
0000
0000
1000
0000
0100
0010
0001
0000
1000
0000
,  // measure 23
0010
0100
0001
0100
0001
0100
0001
0010
,  // measure 24
0100
1000
0001
0000
0010
0001
0100
0000
,  // measure 25
0010
1000
0001
1000
0100
0010
0001
0000
,  // measure 26
0100
0001
0010
0001
1000
0100
0010
0001
,  // measure 27
0100
0010
0100
1000
0100
0001
0100
1000
,  // measure 28
0100
0001
0010
0001
0010
0100
1000
0000
,  // measure 29
0001
0000
1000
0000
0010
0100
0010
0100
0010
1000
0010
1000
0010
0100
0010
1000
,  // measure 30
0001
0000
1000
0100
0010
0001
0100
0010
,  // measure 31
1000
0100
0001
0010
0001
1000
0010
0100
,  // measure 32
0001
0000
1010
0100
0001
1000
0110
0000
,  // measure 33
0002
0000
2000
3003
,  // measure 34
0010
0000
0000
0000
0010
0000
0000
0000
0010
0000
1000
0001
0100
0000
0000
0000
,  // measure 35
0010
0000
1000
0000
0100
0000
1000
0001
0010
0100
1000
0000
0001
0000
0100
0010
,  // measure 36
0100
0000
0001
0000
1000
0000
0001
0000
0010
0100
1000
0000
0010
0000
0100
0000
,  // measure 37
0001
0000
0010
0000
0100
0000
1000
0000
0010
0100
0001
0000
1000
0001
0010
0100
,  // measure 38
1000
0000
0010
1000
0100
0000
0010
0000
0001
0000
0100
0000
0010
0000
1000
0000
,  // measure 39
0100
0000
0010
0000
0001
0000
0100
0000
0001
1000
0010
1000
0001
0000
0100
0000
,  // measure 40
0010
0000
1000
0000
0001
0000
0010
0100
1000
0000
0010
0000
0100
0001
1000
0000
,  // measure 41
0001
0000
1000
0000
0100
0000
0010
0001
0010
0100
1000
0000
0001
0100
0010
1000
,  // measure 42
0001
0000
0100
0000
0010
0000
1000
0100
1000
0000
0011
0000
0100
0000
0000
0000
,  // measure 43
1000
0001
1000
0000
0010
0000
0100
0000
0001
0010
0001
0010
0100
0000
1000
0001
,  // measure 44
0100
0010
1000
0000
0001
0000
0100
0000
0010
1000
0010
0100
0001
0000
1000
0100
,  // measure 45
0010
0000
0001
0000
0100
0010
1000
0001
0010
0000
0100
0000
1000
0010
1000
0001
,  // measure 46
0100
0000
0010
0000
1000
0000
0001
0010
0100
0000
1000
0000
0001
0000
0100
0001
,  // measure 47
0100
0010
1000
0000
0001
0000
0010
0100
1000
0000
0010
0000
1000
0001
1000
0010
,  // measure 48
0100
0000
0001
0000
0010
0000
0100
0010
0100
1000
0001
0000
0100
0010
1000
0001
,  // measure 49
0010
0000
0100
0000
1100
0000
0010
0000
1000
0000
0101
0000
0010
0100
0001
0000
,  // measure 50
1000
0010
1010
0100
0001
0011
0000
0000
,  // measure 51
0100
0000
0000
0000
1001
0000
0001
0010
0000
0001
0100
0000
0010
1000
0000
1000
,  // measure 52
0001
0000
0100
0000
0010
0000
1000
0100
0000
1000
0001
0000
1000
0010
0000
0100
,  // measure 53
0001
0000
1000
0000
0001
0000
0010
0100
0000
0100
1000
0000
0010
1000
0000
0001
,  // measure 54
0100
0000
0010
0000
1000
0000
0001
0010
0001
0010
0100
0000
1000
0000
0010
1000
,  // measure 55
0100
0000
0010
0000
0001
0000
1000
0001
0000
1000
0010
0000
0100
0001
0000
0100
,  // measure 56
0010
0000
1000
0000
0001
0000
1000
0100
0000
0100
0010
0000
0001
1000
0000
0001
,  // measure 57
0100
0000
0010
0000
0100
0000
0001
0010
0001
1000
0100
0000
1000
0000
0010
0100
,  // measure 58
0001
0000
0010
0000
0100
0000
1000
0010
1000
0000
0101
0000
0010
0000
0000
0000
,  // measure 59
1000
0100
1000
0000
0001
0000
0010
0000
0001
0100
0001
0000
1000
0000
0000
0000
,  // measure 60
0010
0000
0000
0000
1001
0000
0100
0000
0001
0010
0001
0000
1000
0000
0100
0000
,  // measure 61
1000
0000
0010
0000
0100
0001
1000
0000
0100
0010
0001
0000
1000
0001
0100
0000
,  // measure 62
0010
1000
0010
0000
0100
0000
0001
0010
0100
1000
0001
0000
0110
0000
0000
0000
,  // measure 63
1000
0000
0001
0000
0011
0000
0100
0000
1000
0001
0100
0000
0010
0000
1000
0001
,  // measure 64
0100
0000
0010
0000
1000
0000
0001
0000
0010
0001
0100
0000
0010
0000
1000
0000
,  // measure 65
0100
0000
0010
0000
0001
0000
0100
0000
0010
1000
0001
0000
1000
0000
0100
0010
,  // measure 66
0100
0000
1000
0000
1010
0000
0001
0000
0100
0000
0110
0000
0010
1000
0001
1000
,  // measure 67
0200
0010
0010
0010
0010
0010
0010
0020
,  // measure 68
0330
0000
0000
0000
;
