#TITLE:RUGGED ASH;
#ARTIST:SYMPHONIC DEFOGGERS;
#BANNER:RUGGED ASH-bn.png;
#BACKGROUND:RUGGED ASH-bg.png;
#JACKET:RUGGED ASH-jacket.png;
#DISCIMAGE:;
#MUSIC:RUGGED ASH.ogg;
#SAMPLESTART:24.275;
#SAMPLELENGTH:20;
#DISPLAYBPM:168;
#BPMS:0=168.073;
#BGCHANGES:0=RUGGED ASH.mp4=1=0=0=0,
;

//---------------dance-single - ----------------
#NOTES:
     dance-single:
     :
     Beginner:
     2:
     :
0000
0000
0000
0000
,
0000
0000
0000
0000
,
0000
0000
0000
0000
,
0000
0000
0000
0000
,
0000
0000
0000
0000
,
0000
0000
0000
0000
,
0000
0000
0000
0000
,
0001
0000
0000
0000
,
1000
0000
0000
0000
,
0010
0000
0000
0000
,
1000
0000
0000
0000
,
0100
0000
0000
0000
,
0010
0000
0000
0000
,
0001
0000
0000
0000
,
0100
0000
0000
0000
,
0001
0000
0000
0000
,
0010
0000
0000
0000
,
0100
0000
1000
0000
,
1000
0000
0001
0000
,
0100
0000
0010
0000
,
1000
0000
0000
0000
,
0001
0000
0010
0000
,
0001
0000
0100
0000
,
0100
0000
0010
0000
,
1000
0000
0000
0000
,
0001
0000
0000
0000
,
0010
0000
0010
0000
,
0010
0000
0000
0000
,
0001
0000
0001
0000
,
0001
0000
0000
0000
,
1000
0000
1000
0000
,
1000
0000
0000
0000
,
0100
0000
0100
0000
,
0100
0000
0000
0000
,
1000
0000
0001
0000
,
0010
0000
0010
0000
,
0100
0000
1000
0000
,
0001
0000
0000
0000
,
1000
0000
0010
0000
,
1000
0000
0100
0000
,
0010
0000
0001
0000
,
0100
0000
0000
0000
,
0010
0000
0000
0000
,
1000
0000
0000
0000
,
0100
0000
0000
0000
,
1000
0000
0000
0000
,
0100
0000
0000
0000
,
0010
0000
0000
0000
,
0001
0000
0000
0000
,
0100
0000
0100
0000
,
0010
0000
0010
0000
,
1000
0000
0000
0000
;

//---------------dance-single - ----------------
#NOTES:
     dance-single:
     :
     Easy:
     7:
     :
0000
0000
0000
0000
,
0000
0000
0000
0000
,
0000
0000
0000
0000
,
0000
0000
0000
0000
,
0000
0000
0000
0000
,
0000
0000
0000
0000
,
0000
0000
0000
0000
,
0010
0010
0010
0010
,
1000
1000
1000
1000
,
0001
0001
0001
0001
,
1000
1000
1000
1000
,
1000
0100
0010
0001
,
0010
0010
0010
0010
,
0100
0100
0100
0100
,
0001
0010
0100
1000
,
1000
1000
1000
1000
,
0000
0000
0000
0000
,
0010
0000
1000
0000
0001
0100
1000
0000
,
0010
0100
1000
0001
,
0010
0000
0001
0000
1000
0010
0100
0000
,
0000
0000
0000
0000
,
0010
0000
1000
0000
0001
0100
1000
0000
,
0010
0100
1000
0001
,
0010
0000
0001
0000
1000
0010
0100
0000
,
0000
0000
0000
0000
,
1000
0100
0010
0001
,
0001
0000
0001
0000
,
1000
0000
1000
0000
,
0100
0000
0100
0000
,
0010
0000
0010
0000
,
0010
0100
1001
0000
,
0001
0100
0110
0000
,
1000
0100
0110
1001
,
0100
0010
1001
0110
,
0100
0000
0001
0000
1000
0010
0001
0000
,
0100
0010
0001
1000
,
0100
0000
1000
0000
0001
0100
0010
0000
,
0000
0000
0000
0000
,
0100
0000
0001
0000
1000
0010
0001
0000
,
0100
0010
0001
1000
,
0100
0000
1000
0000
0001
0100
0010
0000
,
0000
0000
0000
0000
,
0001
1000
0110
0000
,
0010
0000
0010
0000
,
0010
0000
0110
0000
,
1000
0000
0001
0000
,
1001
0000
0110
0000
,
1000
0000
0001
0000
,
0010
0000
0000
0000
,
1001
0000
0110
1001
,
0110
0000
0010
0000
0001
1000
0100
0100
,
0001
0000
0000
0000
;

//---------------dance-single - ----------------
#NOTES:
     dance-single:
     :
     Medium:
     9:
     :
0000
0000
0000
0000
,
0000
0000
0000
0000
,
0000
0000
0000
0000
,
0000
0000
0000
0000
,
0000
0000
0000
0000
,
0000
0000
0000
0000
,
0000
0000
0000
0000
,
0010
0000
0000
0010
0000
0000
0000
0000
,
0000
0000
0010
0100
0000
0000
0000
0000
,
0001
0001
0001
0001
,
1000
1000
1000
1000
,
0010
0100
0101
1100
,
0010
0010
0010
0010
,
0100
0100
0100
0100
,
0010
0100
1100
0101
,
1000
1000
1000
1000
,
0000
0000
0000
0000
,
0001
1000
0001
0100
0000
0010
0000
0100
,
0000
0001
1000
0010
1000
0100
1000
0100
,
0001
0100
0000
1000
0000
0010
0100
0000
,
0000
0000
0000
0000
,
0001
1000
0001
0100
0000
0010
0000
0100
,
0000
0001
1000
0010
1000
0100
1000
0100
,
0001
0100
0000
1000
0000
0010
0100
0000
,
0000
0000
0000
0000
0000
0000
0000
0010
,
0000
1000
0001
1000
0000
0000
0000
0000
,
0000
0001
0000
0000
0001
0000
0000
0010
,
0000
0000
0010
0000
0000
0010
0000
1000
,
0000
1000
0000
0000
1000
0000
0000
0010
,
0000
0000
0010
0000
0000
0010
0000
0001
,
0000
0001
0000
0000
0001
0000
0000
0010
,
0000
0000
0010
0000
0000
0010
0000
1000
,
0000
1000
0000
0000
1000
0000
0000
0010
,
0000
0000
0010
0000
0000
0010
0000
0000
,
1000
0001
1000
0100
0000
0010
0000
0100
,
0000
1000
0001
0010
0001
0100
0001
0100
,
1000
0100
0000
0001
0000
0010
0100
0000
,
0000
0000
0000
0000
,
1000
0001
1000
0100
0000
0010
0000
0100
,
0000
1000
0001
0010
0001
0100
0001
0100
,
1000
0100
0000
0001
0000
0010
0100
0000
,
0000
0000
0000
0000
0000
0000
0000
0010
,
0000
1000
0001
1000
0000
0000
0000
0000
,
0000
1000
0000
0000
0000
0000
0000
0000
,
0010
0100
0000
0000
0000
0000
0000
0000
,
1000
0001
0000
0000
0000
0000
0000
0000
,
0010
0100
0000
0000
0000
0000
0000
0000
,
0001
1000
0000
0000
0000
0000
0000
0000
,
0010
0100
0000
0000
0000
0000
0000
0000
,
0010
1000
0000
0100
1000
0000
0010
1000
,
0100
0001
0100
0010
0100
0001
1000
0100
,
0001
0000
0000
0000
;

//---------------dance-single - ----------------
#NOTES:
     dance-single:
     :
     Hard:
     10:
     :
0000
0000
0000
0000
,
0000
0000
0000
0000
,
0000
0000
0000
0000
,
0000
0000
0000
0000
,
0000
0000
0000
0000
,
0000
0000
0000
0000
,
0000
0000
0000
0000
,
0010
0000
0000
0010
0000
0000
0000
0000
,
0000
0000
0010
0100
0000
0000
0000
0000
,
0001
0011
1100
1000
,
1100
0100
0010
0011
,
0010
0000
0100
0000
0101
0010
1100
0000
,
1000
1010
0101
0001
,
0101
0100
0010
1010
,
0010
0000
0100
0000
1100
0010
0101
0000
,
1000
0100
0010
0001
,
0000
0000
0000
0000
,
0001
1000
0010
1100
0000
0010
0000
0100
,
0000
1000
0010
0001
1000
0100
0001
0100
,
1000
0101
0000
1100
0000
0010
0100
0000
,
0000
0000
0000
0000
,
0001
1000
0010
1100
0000
0010
0000
0100
,
0000
1000
0010
0001
1000
0100
0001
0100
,
1000
0101
0000
1100
0000
0010
0100
0000
,
0000
0000
0000
0000
0000
0000
0000
0001
,
0000
1010
0100
0001
0000
0000
0000
0000
,
0000
0001
0000
0000
0001
0000
0001
0100
,
1000
0000
0001
0000
0000
1010
0000
1100
,
0000
0101
0000
0000
1000
0000
1000
0100
,
0001
0000
0001
0000
0000
0011
0000
0101
,
0000
1100
0000
0000
0001
0000
0001
0100
,
1000
0000
0001
0000
0000
1010
0000
1100
,
0000
0101
0000
0000
1000
0000
1000
0100
,
0001
0000
1000
0000
0000
0010
0000
0000
,
1000
0001
0010
0101
0000
0010
0000
0100
,
0000
0001
0010
1000
0001
0100
1000
0100
,
0001
1100
0000
0101
0000
0010
0100
0000
,
0000
0000
0000
0000
,
1000
0001
0010
0101
0000
0010
0000
0100
,
0000
0001
0010
1000
0001
0100
1000
0100
,
0001
1100
0000
0101
0000
0010
0100
0000
,
0000
0000
0000
0000
0000
0000
0000
1000
,
0000
0011
0100
1000
0000
0000
0000
0000
,
0000
1001
0000
0000
1100
0000
0011
0000
,
0010
1100
0000
0000
0101
0000
1010
0000
,
0010
0101
0000
0000
1100
0000
1010
0000
,
0001
1100
0000
0000
0101
0000
0011
0000
,
1000
0101
0000
0000
1100
0000
1010
0000
,
0001
1100
0000
0000
0000
0000
0000
0000
,
0010
1100
0000
0010
0001
0000
0010
1000
,
0100
0010
0001
1000
0001
0010
1000
0100
,
1001
0000
0000
0000
;

//---------------dance-single - ----------------
#NOTES:
     dance-single:
     :
     Challenge:
     12:
     :
0000
0000
0000
0000
,
0000
0000
0000
0000
,
0000
0000
0000
0000
,
0000
0000
0000
0000
,
0000
0000
0000
0000
,
0000
0000
0000
0000
,
0000
0000
0000
0000
,
0001
0000
0010
0100
0000
1100
0000
0101
,
0000
1000
0010
0001
1000
0100
0010
0001
,
1001
0000
0000
0000
0100
0000
0010
0000
0000
1000
0001
0000
1000
0000
0100
0000
,
0110
0000
0000
0000
0010
0000
0001
0000
0000
0100
0001
0000
1000
0000
0010
0000
,
1010
0000
0000
0000
1000
0000
0001
0000
0000
0010
0100
0000
1000
0000
0001
0000
,
0011
0000
0000
0000
0100
0000
1000
0000
0000
0010
1000
0000
0001
0000
0010
0000
,
1001
0000
0000
0000
0100
0000
0001
0000
0000
0010
0100
0000
1000
0000
0001
0000
,
1010
0000
0000
0000
1000
0000
0001
0000
0000
0010
0100
0000
1000
0000
0001
0000
,
0101
0000
0000
0000
0010
0000
1000
0000
0000
0100
0010
0000
0001
0000
0100
0000
,
0110
0000
0000
0000
0001
0000
0010
0000
0000
0001
1000
0000
0010
0000
0100
0000
,
0001
0010
0001
1001
0000
1010
0000
1100
,
1000
0010
0100
1000
0100
0001
0010
0100
,
1000
1010
0000
0101
0000
1000
0022
0000
,
0030
2003
0002
3003
,
1000
0001
0010
0110
0000
1100
0000
0101
,
0010
0100
1000
0100
0001
0010
0100
1000
,
0001
0011
0000
1001
0000
0100
2020
0000
,
0030
0000
3002
0000
2000
0000
3003
0010
,
1000
0000
0100
0000
1000
0000
0001
0000
0010
0100
0010
0000
0001
0000
0000
0000
,
1000
0010
0000
1000
0100
0000
0010
0001
,
0000
0000
0100
0000
0010
0000
0000
0000
1000
0001
1000
0000
0100
0000
0010
0000
,
0000
0011
0000
1000
0001
0000
0100
0010
,
0000
0000
1000
0000
0100
0000
0000
0000
0010
0001
0010
0000
0100
0000
1000
0000
,
0000
0110
0000
0001
1000
0010
1000
0001
,
0000
0000
1000
0000
0010
0000
0000
0000
0100
0001
0100
0000
0010
0000
1000
0000
,
0100
0010
0000
0001
1000
0000
0001
0100
,
0000
0000
0010
0000
1000
0000
0100
0000
1000
0001
1000
0000
0010
0000
0100
0000
,
0001
0010
1000
1001
0000
0011
0000
1010
,
0001
0010
1000
0010
0100
0010
0001
1000
,
0010
0110
0000
1010
0000
0001
0202
0000
,
0300
2003
0002
3003
,
1000
0100
0010
0011
0000
1001
0000
1100
,
0001
1000
0010
0001
0010
0100
0010
1000
,
0100
0110
0000
0011
0000
0010
2200
0000
,
3000
0000
2300
0000
0002
0000
3003
0010
,
0001
0000
0100
0000
0010
0000
1000
0000
0100
0010
0100
0000
1000
0000
0001
0010
,
0001
0000
1001
0000
0000
0000
0000
0000
0010
1000
0010
0000
0100
0000
0000
0000
,
0001
0000
0011
0000
0000
0000
0000
0000
1000
0100
1000
0000
0010
0000
0000
0000
,
0100
0000
0110
0000
0000
0000
0000
0000
0010
1000
0010
0000
0100
0000
0000
0000
,
0001
0000
0011
0000
0000
0000
0000
0000
1000
0100
1000
0000
0010
0000
0000
0000
,
1000
0000
1100
0000
0000
0000
0000
0000
0001
0010
0001
0000
0100
0000
0000
0000
,
0010
0000
1010
0000
0000
0000
0000
0000
1000
0001
1000
0000
0100
0000
0000
0000
,
0001
0101
0000
0010
1010
0000
1000
1100
,
0000
1000
0010
0001
1000
0100
0010
0001
,
1001
0000
0000
0000
;

//---------------dance-double - ----------------
#NOTES:
     dance-double:
     :
     Easy:
     7:
     :
00000000
00000000
00000000
00000000
,
00000000
00000000
00000000
00000000
,
00000000
00000000
00000000
00000000
,
00000000
00000000
00000000
00000000
,
00000000
00000000
00000000
00000000
,
00000000
00000000
00000000
00000000
,
00000000
00000000
00000000
00000000
,
00100000
00100000
00100000
00100000
,
10000000
10000000
10000000
10000000
,
00010000
00010000
00010000
00010000
,
00001000
00001000
00001000
00001000
,
00001000
00000100
00000010
00000001
,
00000010
00000010
00000010
00000010
,
00000100
00000100
00000100
00000100
,
00000001
00000010
00000100
00001000
,
00010000
00100000
01000000
10000000
,
00000000
00000000
00000000
00000000
,
00100000
00000000
10000000
00000000
00010000
01000000
10000000
00000000
,
00100000
01000000
10000000
00010000
,
00100000
00000000
00010000
00000000
01000000
00010000
00001000
00000000
,
00000000
00000000
00000000
00000000
,
00000010
00000000
00001000
00000000
00000001
00000100
00001000
00000000
,
00000010
00000100
00001000
00010000
,
00100000
00000000
00010000
00000000
10000000
00100000
01000000
00000000
,
00000000
00000000
00000000
00000000
,
10000000
01000000
00100000
00010000
,
00001000
00000000
00000001
00000000
,
00001000
00000000
00001000
00000000
,
00000100
00000000
00000100
00000000
,
00001000
00000000
00001000
00000000
,
00001000
00000100
00000101
00000000
,
00001000
00000010
00011000
00000000
,
00001000
00010000
00100000
01100000
,
01000000
00100000
10010000
01100000
,
00010000
00000000
00010000
00000000
00010000
00001000
00000100
00000000
,
00000001
00000010
00000100
00001000
,
00000100
00000000
00001000
00000000
00010000
00100000
10000000
00000000
,
00000000
00000000
00000000
00000000
,
00010000
00000000
00010000
00000000
00010000
00001000
00000100
00000000
,
00000001
00000010
00000100
00001000
,
00000100
00000000
00001000
00000000
00010000
00100000
10000000
00000000
,
00000000
00000000
00000000
00000000
,
00010000
10000000
01100000
00000000
,
00100000
00000000
00100000
00000000
,
00010000
00000000
00011000
00000000
,
00001000
00000000
00000001
00000000
,
00001001
00000000
00000110
00000000
,
00001000
00000000
00010000
00000000
,
00100000
00000000
00000000
00000000
,
10010000
00000000
00100000
00010000
,
00001000
00000000
00000100
00000000
00000001
00001000
00000100
00000100
;

//---------------dance-double - ----------------
#NOTES:
     dance-double:
     :
     Medium:
     9:
     :
00000000
00000000
00000000
00000000
,
00000000
00000000
00000000
00000000
,
00000000
00000000
00000000
00000000
,
00000000
00000000
00000000
00000000
,
00000000
00000000
00000000
00000000
,
00000000
00000000
00000000
00000000
,
00000000
00000000
00000000
00000000
,
00000010
00000000
00000000
00000010
00000000
00000000
00000000
00000000
,
00000000
00000000
00000010
00000100
00000000
00000000
00000000
00000000
,
00000001
00000001
00000001
00000001
,
00001000
00001000
00001000
00001000
,
00000010
00000100
00001100
00011000
,
00000010
00000100
00001000
00010000
,
00010000
00010000
00010000
00010000
,
00100000
01000000
01010000
00011000
,
00100000
01000000
00010000
00001000
,
00000000
00000000
00000000
00000000
,
00000001
00001000
00000001
00000100
00000000
00000010
00000000
00000100
,
00000000
00001000
00010000
00001000
00010000
00100000
10000000
01000000
,
00010000
01000000
00000000
00010000
00000000
00100000
01000000
00000000
,
00000000
00000000
00000000
00000000
,
10000000
00010000
10000000
01000000
00000000
00100000
00000000
01000000
,
00000000
00010000
00001000
00010000
00001000
00000010
00000001
00000100
,
00001000
00000100
00000000
00001000
00000000
00000010
00000100
00000000
,
00000000
00000000
00000000
00000000
00000000
00000000
00000000
00000010
,
00000000
00001000
00000001
00001000
00000000
00000000
00000000
00000000
,
00000000
00001000
00000000
00000000
00010000
00000000
00000000
00100000
,
00000000
00000000
10000000
00000000
00000000
01000000
00000000
10000000
,
00000000
10000000
00000000
00000000
00010000
00000000
00000000
00000010
,
00000000
00000000
00000010
00000000
00000000
00000010
00000000
00000001
,
00000000
00000001
00000000
00000000
00000001
00000000
00000000
00000010
,
00000000
00000000
00001000
00000000
00000000
00001000
00000000
00010000
,
00000000
00001000
00000000
00000000
00001000
00000000
00000000
00010000
,
00000000
00000000
01000000
00000000
00000000
00010000
00000000
00000000
,
10000000
00010000
10000000
01000000
00000000
00100000
00000000
01000000
,
00000000
00010000
00001000
00010000
00001000
00000010
00000001
00000100
,
00001000
00000100
00000000
00001000
00000000
00000010
00000100
00000000
,
00000000
00000000
00000000
00000000
,
00000001
00001000
00000001
00000100
00000000
00000010
00000000
00000100
,
00000000
00001000
00010000
00001000
00010000
00100000
10000000
01000000
,
00010000
01000000
00000000
00010000
00000000
00100000
01000000
00000000
,
00000000
00000000
00000000
00000000
00000000
00000000
00000000
00100000
,
00000000
00010000
00001000
00010000
00000000
00000000
00000000
00000000
,
00000000
00001000
00000000
00000000
00000000
00000000
00000000
00000000
,
00000001
00000100
00000000
00000000
00000000
00000000
00000000
00000000
,
00000100
00001000
00000000
00000000
00000000
00000000
00000000
00000000
,
00010000
01000000
00000000
00000000
00000000
00000000
00000000
00000000
,
00001000
00010000
00000000
00000000
00000000
00000000
00000000
00000000
,
00100000
10000000
00000000
00000000
00000000
00000000
00000000
00000000
,
00100000
10000000
00000000
01000000
00010000
00000000
00100000
00010000
,
01000000
00010000
00010000
00001000
00001000
00000010
00001000
00000100
,
00000001
00000000
00000000
00000000
;

//---------------dance-double - ----------------
#NOTES:
     dance-double:
     :
     Hard:
     10:
     :
00000000
00000000
00000000
00000000
,
00000000
00000000
00000000
00000000
,
00000000
00000000
00000000
00000000
,
00000000
00000000
00000000
00000000
,
00000000
00000000
00000000
00000000
,
00000000
00000000
00000000
00000000
,
00000000
00000000
00000000
00000000
,
00010000
00000000
00001000
00010000
00000000
00101000
00000000
11000000
,
00000000
00100000
10000000
01000000
00010000
01000000
10000000
00000000
,
01100000
00000000
00010000
01000000
00000000
00100000
10000000
00000000
,
11000000
00000000
00100000
00001000
00000000
00010000
00000010
00000100
,
00000101
00000000
00001000
00000100
00000000
00001000
00000001
00000000
,
00000011
00000000
00001000
00000010
00000000
00001000
00000001
00000100
,
00001001
00000000
00000010
00010000
00000000
00001000
00100000
00000000
,
00110000
00000000
00010000
10000000
00000000
01000000
10000000
00100000
,
10100000
00000000
01000000
00010000
00000000
00100000
00001000
00000000
,
00011000
00000000
00010000
00000010
00000100
00000001
00001000
00000100
,
00000010
00000001
00001000
00000010
00000000
00001010
00000000
00010100
,
00000000
00010000
00001000
01000000
00100000
00010000
00100000
10000000
,
01000000
00100000
00000000
00101000
00000000
00010000
00000020
00000000
,
00000000
00001000
00000230
00000300
,
00000100
00000001
00000010
00000100
00000000
00010100
00000000
01001000
,
00000000
01000000
00100000
00001000
00100000
01000000
00010000
00100000
,
01000000
10000000
00000000
10010000
00000000
01000000
00020000
00000000
,
00000000
00000000
00001000
00000000
20030000
00000000
30000000
01000000
,
00000000
00100000
00001000
00010000
00000000
00001000
00001000
00000000
,
00100000
00001000
00000000
00001000
00000100
00000000
00000100
00000001
,
00000000
00000001
00000010
00000000
00000100
00001100
00000000
00000011
,
00000000
00010100
00000000
00010000
00001000
00000000
00001000
01000000
,
00000000
01000000
00100000
00000000
10000000
11000000
00000000
01100000
,
00000000
00110000
00000000
01000000
00001000
00000000
00001000
00010000
,
00000000
00010000
00000010
00000000
00001000
00001100
00000000
00000110
,
00000000
00000011
00000000
00000100
00000010
00000000
00001000
00000001
,
00000000
00001000
00000100
00000000
00010000
00001000
00000000
01000000
,
00100000
00010000
00100000
10000000
00000000
10010000
00000000
01010000
,
00000000
01000000
00001000
00010000
00000100
00001000
00000010
00000001
,
00000010
00001000
00000000
00001010
00000000
00000001
00002000
00000000
,
00000000
00010000
00003200
00000300
,
00001000
00000010
00000100
00000001
00000000
00000011
00000000
00010010
,
00000000
00010000
00001000
01000000
10000000
01000000
00010000
00100000
,
00010000
10000000
00000000
10100000
00000000
00010000
02000000
00000000
,
00000000
00000000
10000000
00000000
03200000
00000000
00300000
10000000
,
00000000
00010000
00100000
00001000
00000000
00010000
00010000
00000010
,
00000100
00000100
00000000
00000000
00000001
00000010
00001000
00000000
,
00000100
00000100
00000000
00000000
00010000
00001000
01000000
00000000
,
00100000
00100000
00000000
00000000
10000000
01000000
00010000
00000000
,
00100000
00100000
00000000
00000000
00001000
00010000
00000010
00000000
,
00001000
00001000
00000000
00000000
00000001
00000010
00000100
00000000
,
00010000
00010000
00000000
00000000
00001000
00100000
00010000
00000000
,
01000000
00100000
00000000
10000000
00010000
00000000
00100000
00001000
,
00000000
00010000
00000010
00000100
00000001
00000010
00000100
00001000
,
00001010
00000000
00000000
00000000
;

//---------------dance-double - ----------------
#NOTES:
     dance-double:
     :
     Challenge:
     12:
     :
00000000
00000000
00000000
00000000
,
00000000
00000000
00000000
00000000
,
00000000
00000000
00000000
00000000
,
00000000
00000000
00000000
00000000
,
00000000
00000000
00000000
00000000
,
00000000
00000000
00000000
00000000
,
00000000
00000000
00000000
00000000
,
00000001
00000010
00000000
00000001
00001000
00000010
00010000
00001000
,
00000000
01000000
00100000
01000000
00010000
00100000
10000000
01000000
,
01100000
00000000
00000000
00000000
00010000
00000000
10000000
00000000
00000000
00100000
10000000
00000000
01000000
00000000
00100000
00000000
,
00110000
00000000
00000000
00000000
00001000
00000000
00010000
00000000
00000000
00000010
00000100
00000000
00000001
00000000
00001000
00000000
,
00001100
00000000
00000000
00000000
00000010
00000000
00000100
00000000
00000000
00000001
00000010
00000000
00001000
00000000
00000100
00000000
,
00010100
00000000
00000000
00000000
00010000
00000000
00001000
00000000
00000000
00100000
00010000
00000000
10000000
00000000
01000000
00000000
,
10000000
00000000
10010000
00000000
00000000
00000000
00100000
00000000
01000000
00010000
01000000
00000000
00001000
00000000
00100000
00000000
,
01000000
00000000
11000000
00000000
00000000
00000000
10000000
00000000
00010000
00100000
00010000
00000000
01000000
00000000
00001000
00000000
,
00010000
00000000
00010010
00000000
00000000
00000000
00000100
00000000
00000001
00000010
00000001
00000000
00001000
00000000
00000100
00000000
,
00001010
00000000
00000001
00000010
00001000
01000000
10000000
00010000
,
01000000
00000000
00100000
00000000
01000000
00000000
01010000
00000000
00000000
00100000
10000000
00000000
01000000
00000000
00100000
00000000
,
00001000
00010000
00000100
00000001
00000100
00001000
00000010
00000100
,
00000001
00000000
00001010
00000000
00000000
00000000
00001100
00000000
00000000
00000000
00000001
00000000
00010010
00000000
00000000
00010000
,
00001000
01000000
00200000
00000000
20300000
00010000
30010000
00000000
,
10000000
00000000
01000000
00000000
00100000
00000000
00101000
00000000
00000000
00001000
00010000
00000000
00000010
00000000
00000100
00000000
,
00000001
00000010
00001000
00000010
00010000
00000010
00000001
00000100
,
00000010
00000000
00011000
00000000
00000000
00000000
01001000
00000000
00000000
00000000
00100000
00000000
01010000
00000000
00000000
10000000
,
00010000
01000000
00002000
00000000
00023000
00000100
00030100
00000010
,
00000001
00000000
00000100
00000000
00000010
00000000
00001000
00000000
00000000
00000100
00001000
00000000
00000001
00000000
00000100
00000000
,
00000010
00000000
00001001
00000000
00000000
00000000
00000010
00000000
00010000
00000100
00010000
00000000
00001000
00000000
00011000
00000000
,
00000000
00000000
01000000
00000000
00100000
00000000
10000000
00000000
00010000
00100000
00010000
00000000
10000000
00000000
11000000
00000000
,
00000000
00000000
00110000
00000000
00000000
00000000
01000000
00000000
00001000
00010000
00001000
00000000
00000100
00000000
00000101
00000000
,
00000000
00000000
00000001
00000000
00001000
00000000
00000010
00000100
00000010
00000000
00001000
00000000
00000100
00000000
00000001
00000000
,
00000100
00000000
00001000
00000000
00000000
00000000
00000010
00000000
00001000
00000001
00001000
00000000
00000100
00000000
00010000
00000000
,
00000000
00000000
00010000
00000000
01000000
00000000
10000000
00000000
00100000
01000000
00100000
00000000
10000000
00000000
00010000
00000000
,
00100000
00000000
00001000
00000000
00000000
00000000
00010000
00000000
00001000
01000000
00001000
00000000
00100000
00000000
01000000
00000000
,
00010000
00000000
00100000
00000000
10000000
00000000
00100000
00000000
00010000
01000000
00010000
00000000
00001000
00000000
00000100
00000000
,
00000001
00000000
00000010
00000000
00000100
00000000
00010100
00000000
00000000
00010000
00001000
00000000
01000000
00000000
00100000
10000000
,
00100000
01000000
00010000
00000100
00010000
01000000
00001000
00010000
,
00000010
00000000
00000110
00000000
00000000
00000000
00001000
00000000
00000001
00000100
00000001
00000000
00000011
00000000
00000000
00000100
,
00001000
00000010
00020000
00000000
00030200
00001000
00001300
00000000
,
00000100
00000000
00010000
00000000
00001000
00000000
00101000
00000000
00000000
00010000
10000000
00000000
00100000
00000000
01000000
00010000
,
01000000
10000000
01000000
00001000
01000000
00010000
01000000
00100000
,
10000000
00000000
10010000
00000000
00000000
00000000
00100000
00000000
01000000
00010000
01000000
00000000
10100000
00000000
00000000
10000000
,
00010000
01000000
00002000
00000000
00003200
00000001
00000301
00000010
,
00000001
00000000
00001000
00000000
00000010
00000000
00000100
00000000
00000010
00010000
00000010
00000000
00000100
00000000
00000001
00001000
,
00000001
00000000
00000110
00000000
00000000
00000000
00000000
00000000
00010000
00001000
00010000
00000000
01000000
00000000
00000000
00000000
,
10000000
00000000
11000000
00000000
00000000
00000000
00000000
00000000
00100000
01000000
00100000
00000000
00010000
00000000
00000000
00000000
,
01000000
00000000
01001000
00000000
00000000
00000000
00000000
00000000
00001000
00010000
00001000
00000000
00000100
00000000
00000000
00000000
,
00000001
00000000
00001001
00000000
00000000
00000000
00000000
00000000
00000010
00001000
00000010
00000000
00000100
00000000
00000000
00000000
,
00000010
00000000
00010010
00000000
00000000
00000000
00000000
00000000
00010000
00000100
00010000
00000000
00001000
00000000
00000000
00000000
,
00100000
00000000
00110000
00000000
00000000
00000000
00000000
00000000
10000000
01000000
10000000
00000000
00010000
00000000
00000000
00000000
,
01010000
01010000
00000000
10100000
10100000
00000000
11000000
11000000
,
00000000
10000000
00100000
00010000
00001000
00000100
00000001
00000010
,
00011000
00000000
00000000
00000000
;
