#TITLE:ROCK THE PARTY;
#SUBTITLE:;
#ARTIST:BEMANI Sound Team "KE!JU";
#MUSIC:ROCK THE PARTY.ogg;
#BANNER:;
#BACKGROUND:ROCK THE PARTY-bg.png;
#LYRICSPATH:;
#CDTITLE:;
#SAMPLESTART:33.750000;
#SAMPLELENGTH:20.000000;
#BPMS:0.000000=128.000000;
#STOPS:;
#TIMESIGNATURES:;
#BGCHANGES:;
#FGCHANGES:;
#ATTACKS:;
#SPEEDS:;
#SCROLLS:;
#DISPLAYBPM:128.000000;
#KEYSOUNDS:;

//---------------dance-single - ---------------
#NOTES:
     dance-single:
     :
     Beginner:
     3:
     0.129965,0.207047,0.054899,0.000000,0.000000,116.000000,109.000000,7.000000,0.000000,0.000000,0.000000,0.129965,0.207047,0.054899,0.000000,0.000000,116.000000,109.000000,7.000000,0.000000,0.000000,0.000000:
// measure 0
0000
0000
0000
0000
,  // measure 1
0000
0000
0000
0000
,  // measure 2
0000
0000
0000
0000
,  // measure 3
0000
0000
0000
0000
,  // measure 4
0000
0000
0000
0000
,  // measure 5
0000
0000
0000
0000
,  // measure 6
1000
0000
0000
0000
,  // measure 7
0001
0000
1000
0000
,  // measure 8
0001
0000
0000
0000
,  // measure 9
1000
0000
0001
0000
,  // measure 10
0100
0000
0000
0000
,  // measure 11
0010
0000
0000
0000
,  // measure 12
1000
0000
0000
0000
,  // measure 13
0001
0000
0000
0000
,  // measure 14
1000
0000
1000
0000
,  // measure 15
0001
0000
0001
0000
,  // measure 16
0100
0000
0100
0000
,  // measure 17
0110
0000
0000
0000
,  // measure 18
1000
0000
0100
0000
,  // measure 19
1000
0000
0001
0000
,  // measure 20
0100
0000
0010
0000
,  // measure 21
0100
0000
0001
0000
,  // measure 22
0010
0000
0001
0000
,  // measure 23
1000
0000
0010
0000
,  // measure 24
1000
0000
0001
0000
,  // measure 25
1001
0000
0000
0000
,  // measure 26
1000
0000
0001
0000
,  // measure 27
0010
0000
0100
0000
,  // measure 28
1000
0000
0001
0000
,  // measure 29
0100
0000
0010
0000
,  // measure 30
0100
0000
0001
0000
,  // measure 31
1000
0000
0001
0000
,  // measure 32
0010
0000
0100
0000
,  // measure 33
0110
0000
0000
0000
,  // measure 34
0001
0000
0000
0000
,  // measure 35
1000
0000
0001
0000
,  // measure 36
1000
0000
0000
0000
,  // measure 37
0001
0000
1000
0000
,  // measure 38
0100
0000
0000
0000
,  // measure 39
0010
0000
0000
0000
,  // measure 40
0001
0000
0000
0000
,  // measure 41
1000
0000
0000
0000
,  // measure 42
0001
0000
0001
0000
,  // measure 43
1000
0000
1000
0000
,  // measure 44
0001
0000
0001
0000
,  // measure 45
1000
0000
1000
0000
,  // measure 46
0010
0000
0100
0000
,  // measure 47
0001
0000
1000
0000
,  // measure 48
0001
0000
1000
0000
,  // measure 49
1001
0000
0000
0000
,  // measure 50
0001
0000
1000
0000
,  // measure 51
0010
0000
0010
0000
,  // measure 52
1000
0000
0001
0000
,  // measure 53
0100
0000
0010
0000
,  // measure 54
1000
0000
0001
0000
,  // measure 55
0010
0000
0010
0000
,  // measure 56
0001
0000
1000
0000
,  // measure 57
1001
0000
0000
0000
,  // measure 58
0001
0001
0001
0000
,  // measure 59
0100
0100
0100
0000
,  // measure 60
0010
0010
0010
0000
,  // measure 61
1000
0000
0001
0000
,  // measure 62
1000
1000
1000
0000
,  // measure 63
0010
0010
0010
0000
,  // measure 64
0100
0100
0100
0000
,  // measure 65
0110
0000
0000
0000
,  // measure 66
1001
0000
0000
0000
;

//---------------dance-single - ---------------
#NOTES:
     dance-single:
     :
     Easy:
     5:
     0.247605,0.258809,0.078427,0.000000,0.000000,221.000000,211.000000,10.000000,0.000000,0.000000,0.000000,0.247605,0.258809,0.078427,0.000000,0.000000,221.000000,211.000000,10.000000,0.000000,0.000000,0.000000:
// measure 0
0000
0000
0000
0000
,  // measure 1
0000
0000
0000
0000
,  // measure 2
0000
0000
0000
0000
,  // measure 3
0000
0000
0000
0000
,  // measure 4
0000
0000
0000
0000
,  // measure 5
0000
0000
0000
0000
,  // measure 6
0000
1000
0010
0100
,  // measure 7
0000
0010
1000
0100
,  // measure 8
0000
1000
0001
0100
,  // measure 9
0001
0010
0100
1000
,  // measure 10
0001
0100
0001
0100
,  // measure 11
0010
1000
0010
1000
,  // measure 12
0001
0010
0001
0010
,  // measure 13
0100
1000
0100
1000
,  // measure 14
0001
0001
1000
1000
,  // measure 15
0001
0100
0010
1000
,  // measure 16
0010
0010
0100
0100
,  // measure 17
0110
0000
0000
0000
,  // measure 18
1000
0010
0100
0001
,  // measure 19
1000
0100
0001
0100
,  // measure 20
1000
0001
0010
0100
,  // measure 21
0010
0001
1001
0000
,  // measure 22
0001
0010
0100
1000
,  // measure 23
0001
0100
1000
0100
,  // measure 24
0001
1000
0010
0100
,  // measure 25
0110
0000
0000
0000
,  // measure 26
0001
0100
0100
1000
,  // measure 27
0100
0010
1000
0001
,  // measure 28
1000
0010
0010
0001
,  // measure 29
0010
0100
0001
1000
,  // measure 30
0010
1000
1000
0001
,  // measure 31
0010
0001
0100
0010
,  // measure 32
0100
0001
0001
1000
,  // measure 33
1001
0000
0000
0000
,  // measure 34
0000
0001
0100
0010
,  // measure 35
0000
0100
0001
0010
,  // measure 36
0000
0001
1000
0010
,  // measure 37
1000
0100
0010
0001
,  // measure 38
0000
0100
0010
1000
,  // measure 39
0000
0001
0100
1000
,  // measure 40
0000
0100
0010
1000
,  // measure 41
0001
0010
0100
1000
,  // measure 42
0001
0100
0001
0100
,  // measure 43
0010
1000
0010
1000
,  // measure 44
0001
1000
0001
1000
,  // measure 45
0100
0010
0100
0010
,  // measure 46
0001
0010
0001
1000
,  // measure 47
0100
0010
0100
1000
,  // measure 48
0010
0100
0010
1000
,  // measure 49
1001
0000
0000
0000
,  // measure 50
0001
0100
1000
0100
,  // measure 51
0001
1000
0001
1000
,  // measure 52
0001
0010
1000
0010
,  // measure 53
0001
1000
1001
0000
,  // measure 54
1000
0100
0001
0100
,  // measure 55
1000
0001
1000
0001
,  // measure 56
1000
0010
0001
0010
,  // measure 57
0110
0000
0000
0000
,  // measure 58
1000
0001
0100
0100
,  // measure 59
0010
1000
0100
1000
,  // measure 60
0001
1000
0010
0010
,  // measure 61
0100
0001
1001
0000
,  // measure 62
0001
1000
0100
0100
,  // measure 63
0010
0001
0100
0001
,  // measure 64
1000
0001
0010
0010
,  // measure 65
0110
0000
0000
0000
,  // measure 66
1001
0000
0000
0000
;

//---------------dance-single - ---------------
#NOTES:
     dance-single:
     :
     Medium:
     10:
     0.419025,0.439143,0.109798,0.000000,0.000000,374.000000,360.000000,14.000000,0.000000,0.000000,0.000000,0.419025,0.439143,0.109798,0.000000,0.000000,374.000000,360.000000,14.000000,0.000000,0.000000,0.000000:
// measure 0
0000
0000
0000
0000
,  // measure 1
0000
0000
0000
0000
,  // measure 2
0000
0000
0000
0000
,  // measure 3
0000
0000
0000
0000
,  // measure 4
0000
0000
0000
0000
,  // measure 5
0000
0000
0000
0000
,  // measure 6
0001
0000
0010
0000
0001
0010
0100
0000
,  // measure 7
1000
0000
0010
0000
1000
0010
0100
0000
,  // measure 8
0001
0000
1000
0000
0001
1000
0100
0000
,  // measure 9
1000
0010
1000
0000
0001
0010
0001
0000
,  // measure 10
0010
0000
0010
0000
0001
0100
1000
0000
,  // measure 11
0010
0000
0010
0000
1000
0100
0001
0000
,  // measure 12
0100
0000
0100
0000
0001
0010
1000
0000
,  // measure 13
0100
0000
0100
0000
1000
0010
0001
0000
,  // measure 14
0100
0001
1000
0000
0100
1000
0001
0000
,  // measure 15
0010
0001
1000
0000
0010
1000
0001
0000
,  // measure 16
1000
0100
1000
0100
0010
0001
0010
0001
,  // measure 17
1001
0000
0100
0000
0100
0010
1001
0000
,  // measure 18
0110
1000
0001
0000
0010
0001
0100
0000
,  // measure 19
0001
0000
1000
0000
0001
0100
0010
1000
,  // measure 20
0000
0100
1000
0000
0010
0100
0001
0000
,  // measure 21
0101
0000
1000
0001
1000
0100
0010
0001
,  // measure 22
0000
1000
0001
0000
0100
0010
1000
0000
,  // measure 23
1010
0000
0001
0000
1000
0100
0010
0001
,  // measure 24
0000
0001
0100
0000
0001
1000
0100
0000
,  // measure 25
0110
0000
0001
0000
0001
0100
1000
0010
,  // measure 26
0000
0010
0100
0010
1000
0100
1000
0001
,  // measure 27
0000
0010
0001
0100
0001
1000
0001
0100
,  // measure 28
0000
0001
1000
0010
1000
0100
1000
0010
,  // measure 29
0000
0100
0001
0010
0001
1000
0010
0100
,  // measure 30
0000
0001
1000
0100
1000
0010
0100
0001
,  // measure 31
0000
0010
0100
1000
0010
1000
0001
0010
,  // measure 32
0000
0001
1000
0100
0010
0100
0010
0001
,  // measure 33
1001
0000
0100
0000
0100
0010
1000
0001
,  // measure 34
0100
0000
0010
0000
0100
0010
1000
0000
,  // measure 35
0100
0000
0010
0000
0100
0010
0001
0000
,  // measure 36
1000
0000
0001
0000
1000
0001
0010
0000
,  // measure 37
0001
0100
0001
0000
1000
0100
1000
0000
,  // measure 38
0010
0000
0100
0000
0010
1000
0001
0000
,  // measure 39
0100
0000
0001
0000
0010
0100
1000
0000
,  // measure 40
0001
0000
1000
0000
0010
1000
0100
0000
,  // measure 41
1000
0001
1000
0000
0010
0100
0010
0000
,  // measure 42
0100
0000
0100
0000
0001
0010
1000
0000
,  // measure 43
0100
0000
0100
0000
1000
0010
0001
0000
,  // measure 44
0010
0000
0010
0000
0001
0100
1000
0000
,  // measure 45
0010
0000
0010
0000
1000
0100
0001
0000
,  // measure 46
1000
0010
1000
0000
0001
0010
0001
0000
,  // measure 47
1000
0100
1000
0000
0001
0100
0001
0000
,  // measure 48
0010
0100
0010
0100
1000
0001
1000
0001
,  // measure 49
0110
0000
0100
0000
0100
0010
1001
0000
,  // measure 50
0110
0001
1000
0000
0010
1000
0100
0000
,  // measure 51
1000
0010
1000
0001
0010
0100
1000
0000
,  // measure 52
1010
0001
0100
0000
0001
0010
1000
0000
,  // measure 53
0010
1000
0100
1000
0001
0001
1000
0001
,  // measure 54
0100
0010
1000
0000
0100
0010
0001
0000
,  // measure 55
0010
0001
1000
0001
0100
0100
0100
0000
,  // measure 56
0110
0010
1000
0000
0001
1000
0100
0000
,  // measure 57
0110
0000
0010
0000
0010
0001
0100
1000
,  // measure 58
0001
1000
0100
0010
0001
0100
0001
0000
,  // measure 59
1000
0010
1000
0100
1000
0001
0100
0000
,  // measure 60
0010
1000
0100
0000
1000
0001
0100
0000
,  // measure 61
0001
0010
0100
0000
1000
1000
0001
1000
,  // measure 62
0001
0010
0001
0100
0010
1000
0001
0000
,  // measure 63
0100
0001
0100
0010
1000
0100
0001
0000
,  // measure 64
0010
0001
1000
0100
1000
0010
0001
0000
,  // measure 65
1001
0000
0100
0000
0100
0001
1000
0010
;

//---------------dance-single - ---------------
#NOTES:
     dance-single:
     :
     Hard:
     13:
     0.544508,0.569380,0.023528,0.196068,0.333315,486.000000,483.000000,3.000000,25.000000,0.000000,0.000000,0.544508,0.569380,0.023528,0.196068,0.333315,486.000000,483.000000,3.000000,25.000000,0.000000,0.000000:
// measure 0
0000
0000
0000
0000
,  // measure 1
0000
0000
0000
0000
,  // measure 2
0000
0000
0000
0000
,  // measure 3
0000
0000
0000
0000
,  // measure 4
0000
0000
0000
0000
,  // measure 5
0000
0000
0000
0000
,  // measure 6
1001
0000
0001
0100
0001
0100
0010
0000
,  // measure 7
0000
1000
0100
1000
0100
0010
0001
0000
,  // measure 8
0000
1000
0010
1000
0001
0010
0100
0000
,  // measure 9
0010
0010
0001
1000
0010
0100
0010
0000
,  // measure 10
0000
0200
0000
0301
0100
0000
0001
0000
1000
0000
0100
0000
0010
0000
0001
0000
,  // measure 11
0000
2000
0000
3010
1000
0000
0010
0000
0100
0000
0001
0000
1000
0000
0100
0000
,  // measure 12
0000
0020
0000
0031
0010
0000
0001
0000
1000
0000
0010
0000
0100
0000
0001
0000
,  // measure 13
0000
0020
0000
0130
0010
0000
0100
0000
1000
0000
0001
0000
1000
0000
0000
0000
,  // measure 14
0001
0100
0001
0100
0010
1000
0100
1000
,  // measure 15
0001
0010
0100
1000
0010
0100
0001
1000
,  // measure 16
0010
0100
0010
0100
0001
1000
0100
0010
,  // measure 17
0001
0000
0100
0010
1000
0001
1000
0000
,  // measure 18
0001
0001
0010
0100
0020
0230
1300
0001
,  // measure 19
2000
0000
3000
0010
0100
0000
0010
0000
1000
0000
0010
0000
0100
0000
0001
0000
,  // measure 20
1000
1000
0010
0100
0020
0230
0301
1000
,  // measure 21
0002
0000
0003
0010
0100
0000
0010
0000
0001
0000
1000
0000
0010
0000
0100
0000
,  // measure 22
0010
0010
1000
0001
0020
0230
0310
0001
,  // measure 23
2000
0000
3000
0010
0100
0000
0010
0000
1000
0000
0100
0000
0010
0000
0001
0000
,  // measure 24
0100
0100
0001
1000
0200
0320
0130
1000
,  // measure 25
0002
0000
0003
0100
0010
0000
0100
0000
0001
0000
0010
0000
0100
0000
1000
0000
,  // measure 26
0002
0000
0000
2003
0000
0000
3010
0000
0100
0010
0000
0100
0010
0000
0000
1000
0000
0000
0100
0000
0000
0010
0000
0000
,  // measure 27
0001
0000
0000
0010
0000
0100
0010
0000
0100
0010
0000
0000
0001
0000
0000
1000
0000
0000
0010
0000
0000
0100
0000
0000
,  // measure 28
0020
0000
0000
2030
0000
0000
3001
0000
0100
0001
0000
0100
0001
0000
0000
0010
0000
0000
0001
0000
0000
1000
0000
0000
,  // measure 29
0100
0000
0000
0010
0000
0001
0010
0000
0001
0010
0000
0000
0100
0000
0000
1000
0000
0000
0001
0000
0000
0100
0000
0000
,  // measure 30
0002
0000
0000
2003
0000
0000
3100
0000
0010
0100
0000
0010
0100
0000
0000
1000
0000
0000
0010
0000
0000
0100
0000
0000
,  // measure 31
0001
0000
0000
0100
0000
0010
0100
0000
0010
0100
0000
0000
0001
0000
0000
1000
0000
0000
0100
0000
0000
0010
0000
0000
,  // measure 32
0200
0000
0000
2300
0000
0000
3001
0000
0010
0001
0000
0010
0001
0000
0000
0100
0000
0000
0001
0000
0000
1000
0000
0000
,  // measure 33
0020
0000
0000
1030
0001
0000
0100
0000
0001
0000
0010
0000
0100
0000
1000
0000
,  // measure 34
1001
0000
1000
0010
1000
0010
0100
0000
,  // measure 35
0000
0001
0010
0001
0010
0100
1000
0000
,  // measure 36
0000
0001
0100
0001
1000
0100
0010
0000
,  // measure 37
0100
0100
1000
0001
0100
0010
0100
0000
,  // measure 38
0000
0000
0001
0010
0001
1000
0010
0000
,  // measure 39
0000
0100
0010
0100
0001
0010
0100
0000
,  // measure 40
0000
1000
0001
0100
0001
0010
0100
0000
,  // measure 41
1000
1000
0010
0100
0001
1000
0001
0000
,  // measure 42
0000
0100
0000
0010
0100
0000
0100
0000
0001
0000
1000
0000
0100
0000
1000
0000
,  // measure 43
0000
0001
0000
0010
0001
0000
0001
0000
1000
0000
0100
0000
0010
0000
0001
0000
,  // measure 44
0000
1000
0000
0010
1000
0000
1000
0000
0001
0000
0010
0000
0100
0000
1000
0000
,  // measure 45
0000
0001
0000
0100
0001
0000
0001
0000
1000
0000
0010
0000
0100
0000
0000
0000
,  // measure 46
0010
1000
1000
0001
1000
0100
0010
0100
,  // measure 47
1000
0001
0100
0001
1000
0100
0010
0001
,  // measure 48
1000
0010
0010
0100
0010
1000
0100
1000
,  // measure 49
0001
0000
0100
0010
1000
0001
1000
0000
,  // measure 50
0001
0000
0000
0100
0000
0000
0001
0000
0000
0000
0000
0010
0000
0000
0010
0100
0000
0000
0010
0000
0000
0000
0000
0001
,  // measure 51
0000
0000
0001
1000
0000
0000
0010
0000
0000
0100
0000
0000
0001
0000
0000
0100
0000
0000
0010
0000
0000
1000
0000
0000
,  // measure 52
0100
0000
0000
0010
0000
0000
0100
0000
0000
0000
0000
1000
0000
0000
1000
0010
0000
0000
1000
0000
0000
0000
0000
0001
,  // measure 53
0000
0000
0001
0100
0000
0000
0001
0000
0000
0100
0000
0000
0010
0000
0000
0010
0000
0000
1000
0000
0000
0001
0000
0000
,  // measure 54
1000
0000
0000
0100
0000
0000
1000
0000
0000
0000
0000
0010
0000
0000
0010
0100
0000
0000
0010
0000
0000
0000
0000
1000
,  // measure 55
0000
0000
1000
0001
0000
0000
0010
0000
0000
0100
0000
0000
1000
0000
0000
0100
0000
0000
0010
0000
0000
0001
0000
0000
,  // measure 56
0100
0000
0000
0010
0000
0000
0100
0000
0000
0000
0000
0001
0000
0000
0001
0010
0000
0000
0001
0000
0000
1000
0000
0000
,  // measure 57
0001
0000
0000
0010
0100
0000
1000
0000
0001
0000
0010
0000
0100
0000
1000
0000
,  // measure 58
0010
0000
0000
0100
0000
0000
0010
0000
1000
0010
0000
1000
0000
0000
0001
0000
0000
0100
0000
0000
0001
1000
0000
0000
,  // measure 59
0001
0000
0000
0010
0000
0001
0010
0000
0001
0010
0000
0100
0000
0000
0010
0000
0000
0001
0000
0000
1000
0001
0000
0000
,  // measure 60
0100
0000
0000
0010
0000
0000
1000
0000
0100
1000
0000
0100
0000
0000
0010
0000
0000
0001
0000
0000
1000
0001
0000
0000
,  // measure 61
0100
0000
0000
0001
0000
0000
0100
0000
0010
0100
0000
0010
1000
0000
0000
0100
0000
0000
0010
0000
0000
0001
0000
0000
,  // measure 62
0100
0000
0000
0010
0000
0000
0100
0000
0001
0100
0000
0001
0000
0000
1000
0000
0000
0010
0000
0000
1000
0001
0000
0000
,  // measure 63
1000
0000
0000
0100
0000
1000
0100
0000
1000
0100
0000
0010
0000
0000
0100
0000
0000
1000
0000
0000
0001
1000
0000
0000
,  // measure 64
0010
0000
0000
0100
0000
0000
0001
0000
0010
0001
0000
0010
0000
0000
0100
0000
0000
1000
0000
0000
0001
1000
0000
0000
,  // measure 65
0001
0000
0000
0010
0100
0000
1000
0000
0001
0000
0010
0000
0100
0000
1000
0000
,  // measure 66
1001
0000
0000
0000
;

//---------------dance-single - ---------------
#NOTES:
     dance-single:
     :
     Challenge:
     16:
     0.873902,0.854071,0.509776,0.243124,1.007788,780.000000,715.000000,65.000000,31.000000,0.000000,0.000000,0.873902,0.854071,0.509776,0.243124,1.007788,780.000000,715.000000,65.000000,31.000000,0.000000,0.000000:
// measure 0
0000
0000
0000
0000
,  // measure 1
0000
0000
0000
0000
,  // measure 2
0000
0000
0000
0000
,  // measure 3
0000
0000
0000
0000
,  // measure 4
0000
0000
0000
0000
,  // measure 5
0000
0000
0000
0000
,  // measure 6
1001
0000
0000
1000
0010
1000
0001
0000
0100
0001
1000
0000
0010
0000
0100
0000
,  // measure 7
0110
0000
0001
0100
0010
0000
1000
0100
1000
0100
0010
0001
1000
0000
0010
0000
,  // measure 8
0110
0000
0100
0001
0010
0000
0001
0010
0001
0010
0100
1000
0001
0000
0011
0000
,  // measure 9
1000
0010
0100
0010
1000
0100
0010
0001
1000
0000
0010
1000
0100
0000
0110
0000
,  // measure 10
1000
0200
0000
0301
0100
0001
0100
0000
1000
0010
0100
0000
0101
0000
0001
0010
,  // measure 11
0001
0200
0000
1300
0100
1000
0100
0000
0010
1000
0100
0000
1000
0000
0001
1000
,  // measure 12
0001
0020
0000
1030
0001
0100
1000
0000
0010
0100
0001
0000
0011
0000
1000
0001
,  // measure 13
1000
0200
0000
0301
1000
0010
0001
0000
0100
0010
1000
0000
1001
0000
0000
0000
,  // measure 14
0001
0010
0001
0000
1000
0001
1000
0010
0200
0000
0302
0000
1003
0010
0001
0010
,  // measure 15
1000
0010
1000
0010
0100
0001
0010
0100
2000
0000
3002
0000
0013
0100
1000
0000
,  // measure 16
0001
0100
0010
0001
0010
0100
0001
0010
0100
0001
0100
1000
0010
0100
1000
0100
,  // measure 17
0010
0100
0000
0001
0100
1000
0100
0000
0001
0000
1000
0000
1001
0000
0000
0000
,  // measure 18
0001
0000
0011
0000
0020
0000
1030
0010
0001
0000
0020
0000
0031
0100
0010
1000
,  // measure 19
0002
0000
0013
0100
0010
0001
1000
0100
0010
0000
0100
0000
1100
0000
0011
0000
,  // measure 20
1000
0000
1100
0000
0200
0000
0301
0100
1000
0000
0200
0000
1300
0010
0100
0001
,  // measure 21
2000
0000
0000
0000
0000
0000
3010
0000
0000
0100
0000
0000
0001
0000
0000
0010
0000
0000
0100
0000
0000
0000
0000
0000
1000
0000
0000
0000
0010
0000
0100
0000
0000
0000
0000
0000
0110
0000
0000
0000
0000
0000
1001
0000
0000
0000
0000
0000
,  // measure 22
1000
0000
1010
0000
0020
0000
0031
0010
1000
0000
0200
0000
1300
0001
0010
0100
,  // measure 23
2000
0000
3010
0100
0001
0100
1000
0100
0001
0000
1000
0000
0110
0000
1001
0000
,  // measure 24
0001
0000
0101
0000
0200
0000
1300
0100
0001
0000
0200
0000
0301
0010
0100
1000
,  // measure 25
0002
0000
0000
1003
0010
0000
0100
0000
0001
1000
0100
0010
0001
1000
0100
0000
,  // measure 26
2000
0000
0000
3002
0000
0000
0103
0000
0010
1000
0000
0010
0100
0000
0100
0010
0000
0010
1000
0000
1000
0001
0000
0000
,  // measure 27
0010
0000
0000
0100
0000
0010
0001
0000
0100
0010
0000
0010
1000
0000
1000
0001
0000
0001
0200
0000
0000
0310
0000
1000
,  // measure 28
0002
0000
0000
2003
0000
0000
3100
0000
0010
0001
0000
0010
0100
0000
0100
0010
0000
0010
0001
0000
0001
1000
0000
0000
,  // measure 29
0010
0000
0000
0100
0000
0010
1000
0000
0100
0010
0000
0010
0001
0000
0001
1000
0000
0000
0010
0000
0000
0110
0000
0000
,  // measure 30
0200
0000
0000
0320
0000
0000
1030
0000
0100
0010
0000
0100
1000
0000
1000
0001
0000
0001
0100
0000
0100
0010
0000
0000
,  // measure 31
1000
0000
0000
0001
0000
0100
0010
0000
1000
0001
0000
0001
0010
0000
0010
0100
0000
0100
2000
0000
0000
3001
0000
0100
,  // measure 32
0020
0000
0000
0230
0000
0000
0301
0000
0010
0100
0000
0010
0001
0000
0001
1000
0000
1000
0010
0000
0010
0100
0000
0000
,  // measure 33
0002
0000
0000
1003
0100
0000
0010
0000
0001
1000
0100
0010
0001
1000
0100
0000
,  // measure 34
1001
0000
0000
0001
0010
0100
1000
0000
0001
0100
0010
0000
0100
0000
0101
0000
,  // measure 35
1001
0000
1000
0010
0001
0000
0001
0010
0100
0001
0010
0001
0100
0000
1001
0000
,  // measure 36
1100
0000
0001
0100
1000
0000
1000
0100
0010
1000
0100
1000
0010
0000
1001
0000
,  // measure 37
0001
0100
0010
0100
0001
0010
1000
0010
0001
0000
0011
0000
1100
0000
0000
0000
,  // measure 38
1001
0000
0000
1000
0100
0010
0001
0000
1000
0010
0100
0000
0010
0000
1010
0000
,  // measure 39
1001
0000
0001
0100
1000
0000
1000
0100
0010
1000
0100
1000
0010
0000
1001
0000
,  // measure 40
0011
0000
1000
0010
0001
0000
0001
0010
0100
0001
0010
0001
0100
0000
1001
0000
,  // measure 41
1000
0010
0100
0010
1000
0100
0001
0100
1000
0000
1100
0000
0011
0000
0000
0000
,  // measure 42
0001
0101
0000
1000
0100
0010
0100
0000
1000
0010
1000
0010
0100
0000
0001
0010
,  // measure 43
0100
1100
0000
0001
0010
0100
0010
0000
0001
0100
0001
0100
0010
0000
1000
0100
,  // measure 44
0010
0011
0000
1000
0100
0001
0100
0000
1000
0010
1000
0010
0001
0000
0010
1000
,  // measure 45
0001
1001
0000
1000
0010
0001
0010
0000
1000
0100
1000
0100
0001
0000
0000
0000
,  // measure 46
0100
0000
0010
0000
1001
0000
0010
0100
0010
0100
0010
0000
1001
0000
0100
0010
,  // measure 47
0100
0010
0100
0000
0110
0000
1001
0000
1000
0010
0100
0001
0010
0100
1000
0000
,  // measure 48
0100
0000
0010
0000
0110
0000
0001
1000
0001
1000
0001
0000
0110
0000
0000
1000
,  // measure 49
0010
0100
0010
0000
1000
0100
1000
0100
0010
0000
0001
0000
1000
0000
0000
0000
,  // measure 50
0010
0000
0100
0010
0000
0000
1000
0000
0000
0001
0000
0010
0001
0000
1000
0001
0000
0000
0100
0000
0000
0010
0000
1000
,  // measure 51
0010
0000
0100
0010
0000
0000
1000
0000
0100
1000
0000
0000
0001
0000
0010
0100
0000
0100
0010
0000
0000
0110
0000
0000
,  // measure 52
1000
0000
0010
1000
0000
0000
0001
0000
0000
0010
0000
0100
0010
0000
0001
0010
0000
0000
0100
0000
0000
1000
0000
0010
,  // measure 53
1000
0000
0100
1000
0000
0000
0001
0000
0010
0100
0000
0000
1000
0000
0001
0010
0000
0000
0011
0000
0000
1100
0000
0000
,  // measure 54
0100
0000
0010
0100
0000
0000
1000
0000
0000
0001
0000
0100
0001
0000
1000
0001
0000
0000
0010
0000
0000
0100
0000
1000
,  // measure 55
0100
0000
0010
0100
0000
0000
1000
0000
0010
1000
0000
0000
0001
0000
0100
0010
0000
0010
0100
0000
0000
0110
0000
0000
,  // measure 56
1000
0000
0100
1000
0000
0000
0001
0000
0000
0100
0000
0010
0100
0000
0001
0100
0000
0000
0010
0000
1000
0100
0000
0000
,  // measure 57
1000
0000
0000
0010
0100
0000
0001
0000
1000
0100
0010
0001
1000
0100
0010
0000
,  // measure 58
1001
0000
0000
1100
0000
0000
0001
0000
0010
1000
0000
0010
0100
0000
0100
1000
0000
1000
0001
0000
0001
0100
0000
0000
,  // measure 59
0110
0000
0000
0101
0000
1000
0010
0000
1000
0100
0000
0100
0010
0000
0010
0001
0000
0001
1000
0000
1000
0010
0000
0000
,  // measure 60
1010
0000
0000
0110
0000
0000
1000
0000
0100
0010
0000
0100
0001
0000
0001
0100
0000
0100
1000
0000
1000
0010
0000
0000
,  // measure 61
0110
0000
0000
0101
0000
0000
1000
0000
0100
0001
0000
0100
1000
0000
0100
0010
0000
0000
0001
0000
0000
1000
0000
0000
,  // measure 62
1001
0000
0000
0101
0000
0000
1000
0000
0010
0001
0000
0010
0100
0000
0100
0001
0000
0001
1000
0000
1000
0100
0000
0000
,  // measure 63
0110
0000
0000
1100
0000
0001
0010
0000
0001
0100
0000
0100
0010
0000
0010
1000
0000
1000
0001
0000
0001
0010
0000
0000
,  // measure 64
0011
0000
0000
0110
0000
0000
0001
0000
0100
0010
0000
0100
1000
0000
1000
0100
0000
0100
0001
0000
0001
0010
0000
0000
,  // measure 65
0001
0000
0000
0010
0100
0000
1000
0000
0001
0010
0100
1000
0001
0010
0100
0000
,  // measure 66
1001
0000
0000
0000
;

//---------------dance-double - ---------------
#NOTES:
     dance-double:
     :
     Easy:
     5:
     0.246485,0.258809,0.070584,0.000000,0.000000,220.000000,211.000000,9.000000,0.000000,0.000000,0.000000,0.246485,0.258809,0.070584,0.000000,0.000000,220.000000,211.000000,9.000000,0.000000,0.000000,0.000000:
// measure 0
00000000
00000000
00000000
00000000
,  // measure 1
00000000
00000000
00000000
00000000
,  // measure 2
00000000
00000000
00000000
00000000
,  // measure 3
00000000
00000000
00000000
00000000
,  // measure 4
00000000
00000000
00000000
00000000
,  // measure 5
00000000
00000000
00000000
00000000
,  // measure 6
00000000
00000001
00001000
00000100
,  // measure 7
00000000
00010000
00001000
01000000
,  // measure 8
00000000
00010000
10000000
01000000
,  // measure 9
10000000
00100000
01000000
00010000
,  // measure 10
10000000
01000000
10000000
01000000
,  // measure 11
00100000
00010000
00100000
00010000
,  // measure 12
00001000
00000100
00001000
00000100
,  // measure 13
00000010
00000001
00000010
00000001
,  // measure 14
00001000
00001000
00000100
00000100
,  // measure 15
00010000
00001000
00100000
00010000
,  // measure 16
10000000
10000000
00010000
00010000
,  // measure 17
10010000
00000000
00000000
00000000
,  // measure 18
10000000
00100000
00010000
00001000
,  // measure 19
00010000
00001000
00000100
00000001
,  // measure 20
00001000
00000001
00000010
00001000
,  // measure 21
00010000
01000000
10000000
00000000
,  // measure 22
00010000
01000000
00001000
00010000
,  // measure 23
00001000
00000100
00000001
00000100
,  // measure 24
00001000
00010000
01000000
10000000
,  // measure 25
10010000
00000000
00000000
00000000
,  // measure 26
00010000
01000000
01000000
00001000
,  // measure 27
00010000
00001000
00000010
00000001
,  // measure 28
00001000
00000100
00000100
00010000
,  // measure 29
00001000
00010000
00100000
10000000
,  // measure 30
00010000
00100000
00100000
00001000
,  // measure 31
00010000
00001000
00000100
00000001
,  // measure 32
00001000
00000010
00000010
00010000
,  // measure 33
00011000
00000000
00000000
00000000
,  // measure 34
00000000
00001000
00100000
00010000
,  // measure 35
00000000
01000000
00010000
10000000
,  // measure 36
00000000
00010000
00100000
00001000
,  // measure 37
00010000
00001000
00000100
00000010
,  // measure 38
00000000
00000100
00000001
00001000
,  // measure 39
00000000
00000100
00010000
00001000
,  // measure 40
00000000
00100000
00010000
10000000
,  // measure 41
01000000
00010000
00001000
00000010
,  // measure 42
00000001
00000100
00000001
00000100
,  // measure 43
00000010
00001000
00000010
00001000
,  // measure 44
00010000
01000000
00010000
01000000
,  // measure 45
00100000
10000000
00100000
10000000
,  // measure 46
01000000
00100000
00010000
00100000
,  // measure 47
00001000
00010000
00001000
00010000
,  // measure 48
00000010
00001000
00000100
00001000
,  // measure 49
00001001
00000000
00000000
00000000
,  // measure 50
00000001
00000100
00001000
00010000
,  // measure 51
00100000
01000000
00100000
01000000
,  // measure 52
10000000
01000000
00010000
01000000
,  // measure 53
00100000
10000000
10010000
00000000
,  // measure 54
10000000
01000000
00010000
00001000
,  // measure 55
00000010
00000100
00000010
00000100
,  // measure 56
00000001
00000100
00001000
00000001
,  // measure 57
00001001
00000000
00000000
00000000
,  // measure 58
00001000
00000100
00010000
00010000
,  // measure 59
00001000
00100000
00010000
01000000
,  // measure 60
00010000
10000000
00100000
00100000
,  // measure 61
01000000
00010000
01010000
00000000
,  // measure 62
00010000
00100000
00001000
00001000
,  // measure 63
00010000
00000100
00001000
00000010
,  // measure 64
00001000
00000001
00000100
00000100
,  // measure 65
00000110
00000000
00000000
00000000
,  // measure 66
00011000
00000000
00000000
00000000
;

//---------------dance-double - ---------------
#NOTES:
     dance-double:
     :
     Medium:
     10:
     0.414543,0.439143,0.101955,0.000000,0.000000,370.000000,357.000000,13.000000,0.000000,0.000000,0.000000,0.414543,0.439143,0.101955,0.000000,0.000000,370.000000,357.000000,13.000000,0.000000,0.000000,0.000000:
// measure 0
00000000
00000000
00000000
00000000
,  // measure 1
00000000
00000000
00000000
00000000
,  // measure 2
00000000
00000000
00000000
00000000
,  // measure 3
00000000
00000000
00000000
00000000
,  // measure 4
00000000
00000000
00000000
00000000
,  // measure 5
00000000
00000000
00000000
00000000
,  // measure 6
00000010
00000000
00010000
00000000
00000010
00010000
00001000
00000000
,  // measure 7
00100000
00000000
00001000
00000000
00100000
00001000
00010000
00000000
,  // measure 8
00000100
00000000
00010000
00000000
00000100
00010000
00001000
00000000
,  // measure 9
01000000
00000000
00001000
00000000
01000000
00001000
00010000
00000000
,  // measure 10
00000010
00000000
00000010
00000000
00001000
00000100
00000001
00000000
,  // measure 11
00000010
00000000
00000010
00000000
00000001
00000100
00001000
00000000
,  // measure 12
01000000
00000000
01000000
00000000
10000000
00100000
00010000
00000000
,  // measure 13
01000000
00000000
01000000
00000000
00010000
00100000
10000000
00000000
,  // measure 14
01000000
10000000
00010000
00000000
01000000
00010000
10000000
00000000
,  // measure 15
00100000
01000000
00001000
00000000
00010000
00000010
00000100
00000000
,  // measure 16
00000001
00000010
00000001
00000010
00000100
00001000
00000100
00001000
,  // measure 17
00001001
00000000
00000010
00000000
00000010
00000100
00001001
00000000
,  // measure 18
00000110
00000001
00001000
00000000
00000010
00010000
00001000
00000000
,  // measure 19
00011000
00000000
00001000
00000000
01000000
00100000
01000000
00010000
,  // measure 20
00000000
10000000
01000000
00000000
10000000
00100000
01000000
00000000
,  // measure 21
01010000
00000000
10000000
00000000
00010000
00100000
00001000
01000000
,  // measure 22
00000000
00001000
00010000
00000000
00000010
00000100
00000010
00000000
,  // measure 23
00001010
00000000
00000001
00000000
00000010
00000100
00001000
00000001
,  // measure 24
00000000
00000100
00000010
00000000
00001000
00000100
00010000
00000000
,  // measure 25
00011000
00000000
00001000
00000000
00010000
00001000
01000000
00100000
,  // measure 26
00000000
10000000
00010000
00100000
00010000
01000000
00100000
10000000
,  // measure 27
00000000
01000000
00100000
00001000
00010000
00000010
00001000
00000100
,  // measure 28
00000000
00010000
00001000
00100000
00010000
01000000
00100000
10000000
,  // measure 29
00000000
01000000
10000000
00100000
10000000
00010000
01000000
00001000
,  // measure 30
00000000
00010000
00000100
00000010
00000100
00001000
00000001
00000100
,  // measure 31
00000000
00000010
00001000
00000001
00000010
00000100
00010000
00001000
,  // measure 32
00000000
00100000
01000000
00100000
00001000
00010000
00001000
01000000
,  // measure 33
01100000
00000000
00100000
00000000
01000000
00010000
10000000
01000000
,  // measure 34
10000000
00000000
10000000
00000000
10000000
01000000
00010000
00000000
,  // measure 35
00100000
00000000
00100000
00000000
00001000
00010000
00001000
00000000
,  // measure 36
00010000
00000000
00010000
00000000
00000010
00000100
00000010
00000000
,  // measure 37
00001000
00000001
00000010
00000000
00000001
00000100
00001000
00000000
,  // measure 38
00000010
00000000
00010000
00000000
00000010
00010000
00001000
00000000
,  // measure 39
00100000
00000000
00001000
00000000
00100000
00001000
00010000
00000000
,  // measure 40
00000100
00000000
00010000
00000000
00000100
00010000
00001000
00000000
,  // measure 41
01000000
00000000
00001000
00000000
01000000
00001000
00010000
00000000
,  // measure 42
00000100
00000000
00000100
00000000
00001000
00000010
00000001
00000000
,  // measure 43
00000100
00000000
00000100
00000000
00000001
00000010
00001000
00000000
,  // measure 44
00100000
00000000
00100000
00000000
10000000
01000000
00010000
00000000
,  // measure 45
00100000
00000000
00100000
00000000
00010000
01000000
10000000
00000000
,  // measure 46
00010000
01000000
00010000
00000000
10000000
01000000
10000000
00000000
,  // measure 47
00010000
00100000
00010000
00000000
10000000
00100000
10000000
00000000
,  // measure 48
00010000
01000000
00010000
01000000
00001000
00100000
00001000
00100000
,  // measure 49
00011000
00000000
00010000
00000000
00010000
00001000
00011000
00000000
,  // measure 50
00000110
00000001
00001000
00000000
00000010
00000100
00000001
00000000
,  // measure 51
00000010
00000100
00001000
00000001
00001000
00000100
00010000
00000000
,  // measure 52
00001000
01000000
00100000
00000000
10000000
01000000
00010000
00000000
,  // measure 53
00100000
00010000
00100000
01000000
10000000
00010000
10000000
01000000
,  // measure 54
00100000
00001000
01000000
00000000
00100000
10000000
00010000
00000000
,  // measure 55
00100000
00001000
00010000
00000010
00001000
00000001
00000100
00000000
,  // measure 56
00000001
00000010
00000001
00000000
00001000
00000010
00001000
00000000
,  // measure 57
00001001
00000000
00000001
00000000
00001000
00000100
00010000
00001000
,  // measure 58
01000000
00100000
01000000
00010000
01000000
00100000
10000000
00000000
,  // measure 59
01000000
00100000
01000000
10000000
01000000
10000000
00010000
00000000
,  // measure 60
00100000
00001000
00100000
00010000
00100000
00001000
01000000
00000000
,  // measure 61
00100000
10000000
00100000
01000000
00010000
00100000
00001000
00010000
,  // measure 62
00000010
00000100
00000001
00000000
00000010
00000001
00001000
00000000
,  // measure 63
00000100
00010000
00001000
00000000
00100000
01000000
10000000
00000000
,  // measure 64
00100000
10000000
01000000
10000000
00100000
01000000
00010000
00000000
,  // measure 65
10010000
00000000
01000000
00000000
00100000
10000000
00010000
01000000
;

//---------------dance-double - ---------------
#NOTES:
     dance-double:
     :
     Hard:
     13:
     0.544508,0.569380,0.023528,0.196068,0.333315,486.000000,483.000000,3.000000,25.000000,0.000000,0.000000,0.544508,0.569380,0.023528,0.196068,0.333315,486.000000,483.000000,3.000000,25.000000,0.000000,0.000000:
// measure 0
00000000
00000000
00000000
00000000
,  // measure 1
00000000
00000000
00000000
00000000
,  // measure 2
00000000
00000000
00000000
00000000
,  // measure 3
00000000
00000000
00000000
00000000
,  // measure 4
00000000
00000000
00000000
00000000
,  // measure 5
00000000
00000000
00000000
00000000
,  // measure 6
10010000
00000000
00010000
00100000
00001000
00010000
00001000
00000000
,  // measure 7
00000000
00010000
00000100
00001000
00000100
00001000
00000001
00000000
,  // measure 8
00000000
00000100
00000010
00001000
00000100
00010000
00001000
00000000
,  // measure 9
00010000
00010000
00001000
01000000
00010000
01000000
00100000
00000000
,  // measure 10
00000000
20000000
00000000
30010000
10000000
00000000
00010000
00000000
00100000
00000000
00001000
00000000
00010000
00000000
00000100
00000000
,  // measure 11
00000000
00002000
00000000
00003001
00001000
00000000
00000001
00000000
00000100
00000000
00000010
00000000
00010000
00000000
00001000
00000000
,  // measure 12
00000000
00200000
00000000
00310000
00100000
00000000
00010000
00000000
10000000
00000000
00100000
00000000
01000000
00000000
00010000
00000000
,  // measure 13
00000000
20000000
00000000
30010000
10000000
00000000
01000000
00000000
00010000
00000000
00001000
00000000
00000010
00000000
00000000
00000000
,  // measure 14
00000001
00000100
00000001
00000100
00000010
00001000
00000100
00010000
,  // measure 15
00001000
00010000
00001000
00010000
00001000
00100000
00010000
10000000
,  // measure 16
00100000
01000000
00100000
01000000
00010000
01000000
00001000
00010000
,  // measure 17
00001000
00000000
00010000
00000010
00001000
00000001
00001000
00000000
,  // measure 18
00000001
00000001
00000100
00000010
00000200
00000320
00001030
00000100
,  // measure 19
00020000
00000000
00030000
00001000
00010000
00000000
00001000
00000000
00100000
00000000
00010000
00000000
10000000
00000000
01000000
00000000
,  // measure 20
10000000
10000000
01000000
00100000
02000000
03200000
00310000
01000000
,  // measure 21
00002000
00000000
00003000
00010000
00001000
00000000
00010000
00000000
00001000
00000000
00000100
00000000
00000001
00000000
00001000
00000000
,  // measure 22
00000010
00000010
00001000
00000001
00002000
00003200
00010300
00001000
,  // measure 23
02000000
00000000
03000000
00010000
01000000
00000000
00010000
00000000
10000000
00000000
01000000
00000000
00100000
00000000
00010000
00000000
,  // measure 24
01000000
01000000
00010000
10000000
00020000
00230000
00301000
00010000
,  // measure 25
00000020
00000000
00000030
00001000
00000010
00000000
00001000
00000000
00000001
00000000
00000100
00000000
00000010
00000000
00001000
00000000
,  // measure 26
00000002
00000000
00000000
00000023
00000000
00000000
00000130
00000000
00001000
00000100
00000000
00001000
00000100
00000000
00000000
00010000
00000000
00000000
00001000
00000000
00000000
01000000
00000000
00000000
,  // measure 27
00010000
00000000
00000000
10000000
00000000
01000000
10000000
00000000
01000000
10000000
00000000
00000000
00010000
00000000
00000000
00100000
00000000
00000000
00001000
00000000
00000000
00010000
00000000
00000000
,  // measure 28
00000020
00000000
00000000
00002030
00000000
00000000
00003001
00000000
00000100
00000001
00000000
00000100
00000001
00000000
00000000
00001000
00000000
00000000
00000010
00000000
00000000
00010000
00000000
00000000
,  // measure 29
00001000
00000000
00000000
01000000
00000000
00010000
01000000
00000000
00010000
01000000
00000000
00000000
00100000
00000000
00000000
10000000
00000000
00000000
00010000
00000000
00000000
01000000
00000000
00000000
,  // measure 30
00020000
00000000
00000000
20030000
00000000
00000000
31000000
00000000
00100000
01000000
00000000
00100000
01000000
00000000
00000000
00010000
00000000
00000000
00001000
00000000
00000000
00000010
00000000
00000000
,  // measure 31
00000001
00000000
00000000
00001000
00000000
00000010
00000100
00000000
00000010
00000100
00000000
00000000
00001000
00000000
00000000
00010000
00000000
00000000
00100000
00000000
00000000
10000000
00000000
00000000
,  // measure 32
00020000
00000000
00000000
20030000
00000000
00000000
30100000
00000000
01000000
00100000
00000000
01000000
00100000
00000000
00000000
00010000
00000000
00000000
00001000
00000000
00000000
00000100
00000000
00000000
,  // measure 33
00000002
00000000
00000000
00000013
00000100
00000000
00001000
00000000
00010000
00000000
00100000
00000000
01000000
00000000
10000000
00000000
,  // measure 34
01100000
00000000
10000000
00100000
10000000
00100000
01000000
00000000
,  // measure 35
00000000
00010000
00100000
00001000
00010000
00001000
00010000
00000000
,  // measure 36
00000000
00000010
00001000
00000010
00001000
00000001
00000010
00000000
,  // measure 37
00000001
00000001
00000100
00001000
00010000
00100000
10000000
00000000
,  // measure 38
00000000
00000000
00010000
01000000
00001000
00010000
00001000
00000000
,  // measure 39
00000000
00010000
00000010
00001000
00000010
00001000
00000001
00000000
,  // measure 40
00000000
00000010
00000100
00001000
00000010
00010000
00001000
00000000
,  // measure 41
00010000
00010000
00001000
00100000
00010000
00100000
01000000
00000000
,  // measure 42
00000000
10000000
00000000
00010000
01000000
00000000
01000000
00000000
00001000
00000000
00010000
00000000
00001000
00000000
00010000
00000000
,  // measure 43
00000000
00000010
00000000
00001000
00000001
00000000
00000001
00000000
00000010
00000000
00000100
00000000
00000010
00000000
00000100
00000000
,  // measure 44
00000000
00001000
00000000
00000001
00000010
00000000
00000010
00000000
00001000
00000000
00010000
00000000
01000000
00000000
10000000
00000000
,  // measure 45
00000000
00010000
00000000
10000000
00100000
00000000
00100000
00000000
00010000
00000000
00001000
00000000
00000100
00000000
00000000
00000000
,  // measure 46
00000001
00001000
00001000
00000010
00010000
00001000
00010000
00000100
,  // measure 47
00010000
00001000
00100000
00001000
00010000
00100000
01000000
10000000
,  // measure 48
01000000
00010000
00010000
10000000
01000000
00010000
00001000
00000100
,  // measure 49
00000001
00000000
00001000
00000100
00010000
00001000
00010000
00000000
,  // measure 50
00001000
00000000
00000000
00100000
00000000
00000000
00010000
00000000
00000000
00000000
00000000
10000000
00000000
00000000
10000000
00100000
00000000
00000000
10000000
00000000
00000000
00000000
00000000
00010000
,  // measure 51
00000000
00000000
00010000
01000000
00000000
00000000
00001000
00000000
00000000
00010000
00000000
00000000
00001000
00000000
00000000
00010000
00000000
00000000
00000100
00000000
00000000
00001000
00000000
00000000
,  // measure 52
00000010
00000000
00000000
00000100
00000000
00000000
00000010
00000000
00000000
00000000
00000000
00001000
00000000
00000000
00001000
00000100
00000000
00000000
00010000
00000000
00000000
00000000
00000000
00001000
,  // measure 53
00000000
00000000
00001000
00100000
00000000
00000000
00010000
00000000
00000000
10000000
00000000
00000000
01000000
00000000
00000000
01000000
00000000
00000000
00100000
00000000
00000000
00010000
00000000
00000000
,  // measure 54
00001000
00000000
00000000
00000100
00000000
00000000
00001000
00000000
00000000
00000000
00000000
00000001
00000000
00000000
00000001
00000010
00000000
00000000
00001000
00000000
00000000
00000000
00000000
00010000
,  // measure 55
00000000
00000000
00010000
00100000
00000000
00000000
10000000
00000000
00000000
00100000
00000000
00000000
10000000
00000000
00000000
01000000
00000000
00000000
00100000
00000000
00000000
00010000
00000000
00000000
,  // measure 56
10000000
00000000
00000000
00100000
00000000
00000000
10000000
00000000
00000000
00000000
00000000
00100000
00000000
00000000
00100000
00010000
00000000
00000000
00001000
00000000
00000000
00010000
00000000
00000000
,  // measure 57
00001000
00000000
00000000
00010000
00000100
00000000
00001000
00000000
00000001
00000000
00000010
00000000
00000100
00000000
00001000
00000000
,  // measure 58
00000010
00000000
00000000
00001000
00000000
00000000
00000010
00000000
00010000
00000010
00000000
00010000
00000000
00000000
00001000
00000000
00000000
00010000
00000000
00000000
01000000
10000000
00000000
00000000
,  // measure 59
00010000
00000000
00000000
00100000
00000000
00001000
00100000
00000000
00001000
00010000
00000000
00001000
00000000
00000000
00000100
00000000
00000000
00000001
00000000
00000000
00001000
00000001
00000000
00000000
,  // measure 60
00000010
00000000
00000000
00000100
00000000
00000000
00001000
00000000
00000001
00001000
00000000
00000001
00000000
00000000
00000010
00000000
00000000
00001000
00000000
00000000
00010000
00001000
00000000
00000000
,  // measure 61
00010000
00000000
00000000
00100000
00000000
00000000
10000000
00000000
00100000
10000000
00000000
00100000
01000000
00000000
00000000
00010000
00000000
00000000
10000000
00000000
00000000
01000000
00000000
00000000
,  // measure 62
10000000
00000000
00000000
00010000
00000000
00000000
00100000
00000000
01000000
00100000
00000000
01000000
00000000
00000000
00010000
00000000
00000000
00001000
00000000
00000000
00010000
00001000
00000000
00000000
,  // measure 63
00000100
00000000
00000000
00000001
00000000
00001000
00000001
00000000
00001000
00000100
00000000
00000001
00000000
00000000
00000100
00000000
00000000
00001000
00000000
00000000
00000001
00001000
00000000
00000000
,  // measure 64
00000001
00000000
00000000
00001000
00000000
00000000
00000100
00000000
00000010
00000100
00000000
00000010
00000000
00000000
00001000
00000000
00000000
00010000
00000000
00000000
00001000
00010000
00000000
00000000
,  // measure 65
00100000
00000000
00000000
10000000
01000000
00000000
00100000
00000000
00010000
00000000
00001000
00000000
00000100
00000000
00000001
00000000
,  // measure 66
00000110
00000000
00000000
00000000
;

//---------------dance-double - ---------------
#NOTES:
     dance-double:
     :
     Challenge:
     16:
     0.841410,0.776428,0.290180,0.243124,1.003866,751.000000,714.000000,37.000000,31.000000,0.000000,0.000000,0.841410,0.776428,0.290180,0.243124,1.003866,751.000000,714.000000,37.000000,31.000000,0.000000,0.000000:
// measure 0
00000000
00000000
00000000
00000000
,  // measure 1
00000000
00000000
00000000
00000000
,  // measure 2
00000000
00000000
00000000
00000000
,  // measure 3
00000000
00000000
00000000
00000000
,  // measure 4
00000000
00000000
00000000
00000000
,  // measure 5
00000000
00000000
00000000
00000000
,  // measure 6
00011000
00000000
00000000
00001000
00100000
00001000
00010000
00000000
00100000
01000000
00010000
00000000
10000000
00000000
00010000
00000000
,  // measure 7
01000000
00000000
00001000
00010000
00001000
00000000
00010000
00001000
00000010
00000001
00000010
00000001
00001000
00000000
00000100
00000000
,  // measure 8
00000010
00000000
00000001
00001000
00000100
00000000
00010000
00001000
00010000
00001000
01000000
00010000
10000000
00000000
00010000
00000000
,  // measure 9
10000000
01000000
00100000
00010000
00100000
00001000
00010000
00000100
00001000
00000000
00000010
00001000
00000100
00000000
00000110
00000000
,  // measure 10
00000001
00000200
00000000
00001300
00010000
00001000
00010000
00000000
00001000
00100000
00010000
00000000
00100000
00000000
01000000
10000000
,  // measure 11
01000000
00020000
00000000
00031000
00010000
00001000
00010000
00000000
00000100
00001000
00000010
00000000
00000100
00000000
00000001
00001000
,  // measure 12
00000001
00000020
00000000
00001030
00010000
01000000
10000000
00000000
00010000
01000000
00100000
00000000
01100000
00000000
10000000
00010000
,  // measure 13
10000000
00200000
00000000
00310000
00001000
00000100
00000001
00000000
00001000
00000010
00000100
00000000
00000110
00000000
00000000
00000000
,  // measure 14
00001000
00000100
00001000
00000000
00000010
00010000
00001000
00010000
00002000
00000000
02003000
00000000
03010000
00100000
10000000
00100000
,  // measure 15
00010000
01000000
00001000
00010000
00001000
00010000
00000010
00001000
00000002
00000000
00000203
00000000
00001300
00010000
00100000
00000000
,  // measure 16
10000000
01000000
00100000
00010000
00001000
00000100
00000010
00000001
00001000
00000001
00000010
00000100
00001000
00010000
00100000
01000000
,  // measure 17
10000000
00100000
00000000
01000000
00001000
00010000
00001000
00000000
00000100
00000000
00000001
00000000
00001001
00000000
00000000
00000000
,  // measure 18
00001000
00000000
00000100
00000000
00020000
00000000
00031000
00010000
00100000
00000000
00020000
00000000
00031000
00000100
00000010
00000100
,  // measure 19
00002000
00000000
01003000
00010000
10000000
00100000
01000000
00000000
00010000
00000000
10000000
00000000
11000000
00000000
00110000
00000000
,  // measure 20
00010000
00000000
00100000
00000000
00002000
00000000
00013000
00001000
00000100
00000000
00002000
00000000
00013000
00100000
01000000
00100000
,  // measure 21
00020000
00000000
00000000
00000000
00000000
00000000
00030010
00000000
00000000
00001000
00000000
00000000
00000001
00000000
00000000
00000010
00000000
00000000
00000100
00000000
00000000
00000000
00000000
00000000
00001000
00000000
00000000
00000000
00000001
00000000
00000100
00000000
00000000
00000000
00000000
00000000
00000101
00000000
00000000
00000000
00000000
00000000
00001010
00000000
00000000
00000000
00000000
00000000
,  // measure 22
00000001
00000000
00000010
00000000
00000002
00000000
00000103
00001000
00010000
00000000
00002000
00000000
00013000
01000000
10000000
01000000
,  // measure 23
00200000
00000000
10300000
00100000
00010000
01000000
10000000
01000000
00100000
00000000
10000000
00000000
10100000
00000000
01010000
00000000
,  // measure 24
10000000
00000000
00100000
00000000
20000000
00000000
31000000
00010000
00001000
00000000
00020000
00000000
00031000
00000100
00000001
00000100
,  // measure 25
00000020
00000000
00000000
00001030
00000100
00000000
00000001
00000000
00000100
00000010
00000001
00000100
00001000
00010000
00001000
00000000
,  // measure 26
00200000
00000000
00000000
00320000
00000000
00000000
10030000
00000000
00100000
01000000
00000000
00010000
01000000
00000000
01000000
00001000
00000000
00001000
00010000
00000000
00010000
00000100
00000000
00000000
,  // measure 27
00001000
00000000
00000000
00000001
00000000
00000010
00000100
00000000
00000010
00000001
00000000
00000001
00001000
00000000
00001000
00000100
00000000
00000100
00020000
00000000
00000000
00031000
00000000
00010000
,  // measure 28
00200000
00000000
00000000
02300000
00000000
00000000
03010000
00000000
10000000
00010000
00000000
10000000
01000000
00000000
01000000
00010000
00000000
00010000
00001000
00000000
00001000
00010000
00000000
00000000
,  // measure 29
00001000
00000000
00000000
00000010
00000000
00000001
00001000
00000000
00000001
00000100
00000000
00000100
00001000
00000000
00001000
00010000
00000000
00000000
00000010
00000000
00000000
00001010
00000000
00000000
,  // measure 30
00002000
00000000
00000000
00003200
00000000
00000000
00000301
00000000
00000100
00000010
00000000
00000100
00001000
00000000
00001000
00000010
00000000
00000010
00010000
00000000
00010000
00001000
00000000
00000000
,  // measure 31
00100000
00000000
00000000
00010000
00000000
00100000
10000000
00000000
00100000
01000000
00000000
01000000
10000000
00000000
10000000
00010000
00000000
00010000
00200000
00000000
00000000
00301000
00000000
00010000
,  // measure 32
00000020
00000000
00000000
00000230
00000000
00000000
00000301
00000000
00000010
00000001
00000000
00000010
00001000
00000000
00001000
00010000
00000000
00010000
01000000
00000000
01000000
10000000
00000000
00000000
,  // measure 33
00020000
00000000
00000000
10030000
01000000
00000000
00100000
00000000
00010000
10000000
01000000
00100000
00010000
00001000
00000100
00000000
,  // measure 34
00000110
00000000
00000000
00000001
00000010
00000100
00001000
00000000
00000100
00010000
00001000
00000000
00100000
00000000
00110000
00000000
,  // measure 35
10010000
00000000
10000000
00100000
00010000
00000000
00010000
00100000
01000000
00001000
00010000
00001000
00100000
00000000
00101000
00000000
,  // measure 36
00011000
00000000
00010000
00001000
00000010
00000000
00000010
00001000
00010000
00000100
00010000
00001000
00000100
00000000
00000101
00000000
,  // measure 37
00000001
00000100
00000001
00000100
00001000
00010000
00001000
00010000
01000000
00000000
11000000
00000000
00110000
00000000
00000000
00000000
,  // measure 38
01100000
00000000
00000000
10000000
00100000
01000000
00010000
00000000
01000000
00001000
00010000
00000000
00000010
00000000
00001010
00000000
,  // measure 39
00001001
00000000
00000001
00000010
00001000
00000000
00001000
00000010
00000100
00010000
00001000
00010000
00000010
00000000
00010010
00000000
,  // measure 40
00011000
00000000
00001000
00010000
00100000
00000000
00100000
00010000
00001000
01000000
00001000
00010000
01000000
00000000
11000000
00000000
,  // measure 41
10000000
01000000
10000000
01000000
00010000
00001000
00010000
00001000
00000100
00000000
00000101
00000000
00001010
00000000
00000000
00000000
,  // measure 42
00000001
00001000
00000000
00001000
00000100
00010000
00001000
00000000
00100000
00010000
00100000
00010000
10000000
00000000
00010000
01000000
,  // measure 43
00010000
10000000
00000000
10000000
00010000
00100000
00001000
00000000
00010000
00000100
00010000
00000100
00001000
00000000
00000001
00000010
,  // measure 44
00000100
00000010
00000000
00000010
00000001
00001000
00000001
00000000
00000100
00001000
00000100
00001000
00010000
00000000
00001000
00010000
,  // measure 45
00100000
10000000
00000000
10000000
00010000
10000000
01000000
00000000
00010000
00001000
00010000
00001000
00000010
00000000
00000000
00000000
,  // measure 46
00000001
00000000
00001000
00000000
00001100
00000000
00000100
00010000
00000100
00010000
00000100
00000000
00010100
00000000
00010000
00001000
,  // measure 47
00010000
00001000
00010000
00000000
01001000
00000000
01010000
00000000
00010000
10000000
01000000
00100000
00010000
10000000
00010000
00000000
,  // measure 48
10000000
00000000
00010000
00000000
00110000
00000000
00100000
00001000
00100000
00001000
00100000
00000000
00101000
00000000
00000000
00001000
,  // measure 49
00010000
00000010
00001000
00000000
00000001
00000100
00000001
00000100
00000010
00000000
00001000
00000000
00000001
00000000
00000000
00000000
,  // measure 50
00000100
00000000
00000010
00000100
00000000
00000000
00000001
00000000
00000000
00001000
00000000
00000100
00001000
00000000
00000100
00010000
00000000
00000000
00001000
00000000
00000000
00100000
00000000
00010000
,  // measure 51
10000000
00000000
01000000
10000000
00000000
00000000
00010000
00000000
01000000
00100000
00000000
00000000
10000000
00000000
01000000
00010000
00000000
00010000
00001000
00000000
00000000
00011000
00000000
00000000
,  // measure 52
00100000
00000000
00010000
00100000
00000000
00000000
00001000
00000000
00000000
00010000
00000000
00000100
00001000
00000000
00000001
00001000
00000000
00000000
00000100
00000000
00000000
00000010
00000000
00000001
,  // measure 53
00000100
00000000
00001000
00000100
00000000
00000000
00000010
00000000
00001000
00000001
00000000
00000000
00000100
00000000
00001000
00010000
00000000
00000000
00100000
00000000
00000000
10000000
00000000
00000000
,  // measure 54
01000000
00000000
00100000
01000000
00000000
00000000
10000000
00000000
00000000
00010000
00000000
01000000
00010000
00000000
01000000
00001000
00000000
00000000
00010000
00000000
00000000
00000010
00000000
00001000
,  // measure 55
00000001
00000000
00000100
00000001
00000000
00000000
00001000
00000000
00000100
00000010
00000000
00000000
00000001
00000000
00000100
00001000
00000000
00001000
00010000
00000000
00000000
00011000
00000000
00000000
,  // measure 56
00000010
00000000
00001000
00000010
00000000
00000000
00010000
00000000
00000000
00001000
00000000
01000000
00010000
00000000
10000000
00010000
00000000
00000000
01000000
00000000
00010000
00100000
00000000
00000000
,  // measure 57
01000000
00000000
00000000
10000000
00100000
00000000
00010000
00000000
00100000
00010000
00001000
00000100
00000001
00001000
00000100
00000000
,  // measure 58
00000010
00000000
00000000
00000100
00000000
00000000
00001000
00000000
00000100
00000001
00000000
00000100
00001000
00000000
00001000
00000010
00000000
00000010
00010000
00000000
00010000
00001000
00000000
00000000
,  // measure 59
00100000
00000000
00000000
00010000
00000000
01000000
10000000
00000000
01000000
00100000
00000000
00100000
10000000
00000000
10000000
01000000
00000000
01000000
00010000
00000000
00010000
00001000
00000000
00000000
,  // measure 60
00000100
00000000
00000000
00000010
00000000
00000000
00010000
00000000
00001000
00000100
00000000
00001000
00010000
00000000
00010000
01000000
00000000
01000000
10000000
00000000
10000000
00010000
00000000
00000000
,  // measure 61
00100000
00000000
00000000
00001000
00000000
00000000
00010000
00000000
00001000
00000100
00000000
00000001
00000010
00000000
00000100
00001000
00000000
00000000
00010000
00000000
00000000
00100000
00000000
00000000
,  // measure 62
00010000
00000000
00000000
10000000
00000000
00000000
01000000
00000000
00010000
01000000
00000000
10000000
01000000
00000000
01000000
00010000
00000000
00010000
00001000
00000000
00001000
00000010
00000000
00000000
,  // measure 63
00000001
00000000
00000000
00001000
00000000
00000010
00000001
00000000
00000010
00000100
00000000
00000100
00000001
00000000
00000001
00000010
00000000
00000010
00001000
00000000
00001000
00010000
00000000
00000000
,  // measure 64
01000000
00000000
00000000
00100000
00000000
00000000
00010000
00000000
10000000
01000000
00000000
00010000
01000000
00000000
01000000
10000000
00000000
10000000
00100000
00000000
00100000
00010000
00000000
00000000
,  // measure 65
00001000
00000000
00000000
00000100
00000010
00000000
00001000
00000000
00000001
00000010
00000100
00001000
00010000
00100000
01000000
00000000
,  // measure 66
10010000
00000000
00000000
00000000
;

//---------------dance-solo - ---------------
#NOTES:
     dance-solo:
     :
     Beginner:
     3:
     0,0,0,0,0:
// measure 0
000000
000000
000000
000000
,  // measure 1
000000
000000
000000
000000
,  // measure 2
000000
000000
000000
000000
,  // measure 3
000000
000000
000000
000000
,  // measure 4
000000
000000
000000
000000
,  // measure 5
000000
000000
000000
000000
,  // measure 6
000010
000000
000000
000000
,  // measure 7
010000
000000
000000
000000
,  // measure 8
000001
000000
000000
000000
,  // measure 9
100000
000000
000000
000000
,  // measure 10
000100
000000
000000
000000
,  // measure 11
001000
000000
000000
000000
,  // measure 12
000100
000000
000000
000000
,  // measure 13
001000
000000
000000
000000
,  // measure 14
000010
000000
000010
000000
,  // measure 15
100000
000000
100000
000000
,  // measure 16
000100
000000
010000
000000
,  // measure 17
001100
000000
000000
000000
,  // measure 18
000001
000000
000100
000000
,  // measure 19
000010
000000
010000
000000
,  // measure 20
001000
000000
000100
000000
,  // measure 21
000001
000000
100000
000000
,  // measure 22
001000
000000
010000
000000
,  // measure 23
001000
000000
100000
000000
,  // measure 24
000010
000000
000100
000000
,  // measure 25
010010
000000
001100
000000
,  // measure 26
000010
000000
001000
000000
,  // measure 27
000001
000000
100000
000000
,  // measure 28
000100
000000
010000
000000
,  // measure 29
001000
000000
000100
000000
,  // measure 30
000001
000000
010000
000000
,  // measure 31
000010
000000
100000
000000
,  // measure 32
001000
000000
000100
000000
,  // measure 33
001100
000000
100001
000000
,  // measure 34
001000
000000
000000
000000
,  // measure 35
000100
000000
000000
000000
,  // measure 36
010000
000000
000000
000000
,  // measure 37
000001
000000
000000
000000
,  // measure 38
000100
000000
000000
000000
,  // measure 39
000010
000000
000000
000000
,  // measure 40
010000
000000
000000
000000
,  // measure 41
001000
000000
000000
000000
,  // measure 42
100000
000000
000000
000000
,  // measure 43
000001
000000
000000
000000
,  // measure 44
100000
000000
000000
000000
,  // measure 45
000001
000000
000000
000000
,  // measure 46
000100
000000
000100
000000
,  // measure 47
001000
000000
001000
000000
,  // measure 48
010000
000000
000010
000000
,  // measure 49
010010
000000
000000
000000
,  // measure 50
001000
000000
000001
000000
,  // measure 51
000100
000100
000100
000000
,  // measure 52
000010
000000
100000
000000
,  // measure 53
001000
000000
010000
000000
,  // measure 54
000010
000000
010000
000000
,  // measure 55
000001
000001
000001
000000
,  // measure 56
001000
000000
000100
000000
,  // measure 57
100001
000000
001100
000000
,  // measure 58
010000
010000
010000
000000
,  // measure 59
000010
000010
000010
000000
,  // measure 60
000100
000100
000100
000000
,  // measure 61
100000
000000
000001
000000
,  // measure 62
001000
001000
001000
000000
,  // measure 63
000010
000010
000010
000000
,  // measure 64
010000
010000
010000
000000
,  // measure 65
010010
000000
001100
000000
;

//---------------dance-solo - ---------------
#NOTES:
     dance-solo:
     :
     Easy:
     7:
     0,0,0,0,0:
// measure 0
000000
000000
000000
000000
,  // measure 1
000000
000000
000000
000000
,  // measure 2
000000
000000
000000
000000
,  // measure 3
000000
000000
000000
000000
,  // measure 4
000000
000000
000000
000000
,  // measure 5
000000
000000
000000
000000
,  // measure 6
000010
000010
000010
000010
,  // measure 7
010000
010000
010000
010000
,  // measure 8
000100
000100
001000
001000
,  // measure 9
000001
000100
100000
000010
,  // measure 10
000000
001000
000010
001000
,  // measure 11
000000
000001
000100
000001
,  // measure 12
000000
010000
001000
010000
,  // measure 13
000000
000100
100000
000001
,  // measure 14
000100
000100
000010
000010
,  // measure 15
001000
001000
100000
100000
,  // measure 16
000100
010000
000100
001000
,  // measure 17
010010
001000
001000
001000
,  // measure 18
001100
000001
000010
010000
,  // measure 19
101000
010000
001000
000010
,  // measure 20
100010
001000
000001
000010
,  // measure 21
011000
000000
001000
000000
100000
100000
100000
000000
,  // measure 22
001001
000100
000010
001000
,  // measure 23
100001
010000
001000
000100
,  // measure 24
000110
000001
100000
001000
,  // measure 25
010010
001000
001000
001000
,  // measure 26
100001
010000
000100
001000
,  // measure 27
100100
010000
000001
001000
,  // measure 28
001100
000010
000100
100000
,  // measure 29
010100
000000
100000
000000
000001
000001
000001
000000
,  // measure 30
010001
000100
000010
001000
,  // measure 31
001100
000001
100000
010000
,  // measure 32
101000
100000
010000
000010
,  // measure 33
001100
000001
000001
000001
,  // measure 34
000000
000100
000010
010000
,  // measure 35
000000
001000
100000
000100
,  // measure 36
000000
010000
001000
000010
,  // measure 37
000100
000000
000100
000000
000100
000010
010000
000000
,  // measure 38
000001
000001
000001
000001
,  // measure 39
100000
100000
100000
100000
,  // measure 40
000100
000100
001000
001000
,  // measure 41
000010
010000
001000
100000
,  // measure 42
000000
000001
000100
000001
,  // measure 43
000000
010000
000010
010000
,  // measure 44
000000
001000
100000
001000
,  // measure 45
000000
010000
000100
000010
,  // measure 46
001000
001000
001000
001000
,  // measure 47
000100
000100
000100
000100
,  // measure 48
010000
000010
100000
000001
,  // measure 49
010010
001000
001000
001000
,  // measure 50
100001
000100
000010
010000
,  // measure 51
011000
000000
001000
000000
010000
000010
010000
000000
,  // measure 52
100001
000100
000010
010000
,  // measure 53
000101
000000
100000
000000
001000
001000
001000
000000
,  // measure 54
010001
000010
000100
100000
,  // measure 55
101000
000000
010000
000000
000010
000100
000010
000000
,  // measure 56
100010
001000
000001
000010
,  // measure 57
001100
010000
010000
010000
,  // measure 58
000010
100000
001000
000000
010000
000000
000001
000000
,  // measure 59
000100
000010
010000
000000
001000
000000
100000
000000
,  // measure 60
000010
000100
000001
000000
010000
000000
001000
000000
,  // measure 61
010000
000100
100000
000000
000001
000001
000001
000000
,  // measure 62
000100
000010
001000
000000
000100
000000
100000
000000
,  // measure 63
001000
010000
000001
000000
001000
000000
000100
000000
,  // measure 64
010000
000010
000100
000000
000001
000000
100000
000000
,  // measure 65
010010
001000
001000
001000
;

//---------------dance-solo - ---------------
#NOTES:
     dance-solo:
     :
     Medium:
     11:
     0,0,0,0,0:
// measure 0
000000
000000
000000
000000
,  // measure 1
000000
000000
000000
000000
,  // measure 2
000000
000000
000000
000000
,  // measure 3
000000
000000
000000
000000
,  // measure 4
000000
000000
000000
000000
,  // measure 5
000000
000000
000000
000000
,  // measure 6
000010
000000
000100
000001
001000
000100
010000
000000
,  // measure 7
001000
100000
100000
000100
100000
000001
010000
000000
,  // measure 8
000010
000100
000100
001000
010000
000001
100000
000000
,  // measure 9
000100
001000
000100
100000
001000
000100
000010
000000
,  // measure 10
000000
001000
000010
100000
000001
000100
001000
010000
,  // measure 11
000000
000001
000100
000001
100000
000100
010000
001000
,  // measure 12
000000
100000
000010
000100
000001
010000
000100
001000
,  // measure 13
000000
000001
100000
000010
010000
000100
001000
000000
,  // measure 14
000100
100000
001000
000000
000100
000010
010000
000000
,  // measure 15
000100
001000
000001
000000
000100
000010
010000
000000
,  // measure 16
000010
010000
000010
010000
000001
100000
000001
100000
,  // measure 17
001100
000000
000100
000000
000100
001000
010010
000000
,  // measure 18
000100
010000
001000
010000
000001
000100
000010
100000
,  // measure 19
001000
000000
001000
010000
000010
100000
000001
000100
,  // measure 20
000000
000001
000001
100000
000100
010000
001000
100000
,  // measure 21
000010
000000
000010
010000
000100
000100
100000
000001
,  // measure 22
000000
000010
000010
010000
001000
100000
000100
001000
,  // measure 23
000001
000000
000010
010000
000100
100000
000001
001000
,  // measure 24
000000
000100
000100
010000
001000
100000
000001
001000
,  // measure 25
100001
000000
000100
001000
000010
010000
000001
100000
,  // measure 26
000000
000010
000100
000001
100000
001000
010000
000100
,  // measure 27
000000
001000
000100
001000
000010
000100
000001
010000
,  // measure 28
000000
100000
000100
001000
000010
000100
000001
100000
,  // measure 29
000000
001000
010000
001000
100000
100000
100000
000001
,  // measure 30
000000
000100
000010
000100
000001
010000
001000
100000
,  // measure 31
000000
000100
001000
000100
010000
001000
100000
000010
,  // measure 32
000000
000001
000100
001000
010000
000100
010000
000010
,  // measure 33
100001
000000
000100
001000
000010
010000
000001
100000
,  // measure 34
001000
000000
001000
000000
010000
000100
000010
000000
,  // measure 35
001000
000000
001000
000000
000010
000100
010000
000000
,  // measure 36
000100
000000
000100
000000
010000
001000
000010
000000
,  // measure 37
100000
100000
100000
000001
000100
000010
001000
000000
,  // measure 38
000100
000000
000100
010000
001000
100000
000001
000000
,  // measure 39
000100
000010
000010
001000
000001
000100
010000
000000
,  // measure 40
001000
100000
100000
000100
010000
001000
000001
000000
,  // measure 41
000100
000010
000100
001000
010000
000010
100000
000000
,  // measure 42
000000
000001
100000
010000
100000
001000
010000
000010
,  // measure 43
000000
001000
000100
010000
001000
100000
000001
000010
,  // measure 44
000000
010000
001000
100000
001000
000100
000001
010000
,  // measure 45
000000
000001
000010
000100
001000
010000
100000
000000
,  // measure 46
000010
010000
001000
000000
010000
000010
001000
000000
,  // measure 47
000001
000100
000001
100000
000100
010000
001000
000000
,  // measure 48
010000
000010
010000
000010
100000
000001
100000
000001
,  // measure 49
010010
000000
001000
000000
001000
000100
100001
000000
,  // measure 50
000010
000100
000010
001000
010000
000100
100000
000000
,  // measure 51
000001
000100
000010
010000
001000
010000
000100
000000
,  // measure 52
001000
000010
000100
000010
010000
001000
100000
000000
,  // measure 53
000010
010000
000001
000000
001000
001000
000100
001000
,  // measure 54
000001
100000
010000
000000
000100
010000
000001
000000
,  // measure 55
001000
000010
001000
000010
000100
000001
010000
001000
,  // measure 56
100000
000010
000001
000000
001000
000100
010000
000001
,  // measure 57
010010
000000
000100
001000
000010
010000
000001
100000
,  // measure 58
000100
010000
001000
010000
000010
000100
000001
000000
,  // measure 59
100000
000010
010000
000100
010000
001000
000001
000000
,  // measure 60
000010
010000
001000
100000
000100
001000
000010
000000
,  // measure 61
010000
001000
010000
000001
001000
001000
001000
000100
,  // measure 62
100000
010000
100000
000001
000010
010000
001000
000000
,  // measure 63
000100
000010
010000
000100
100000
000001
010000
000000
,  // measure 64
000010
001000
000010
000100
000010
010000
001000
000100
,  // measure 65
100001
000000
000100
001000
000010
010000
000001
100000
;

//---------------dance-solo - ---------------
#NOTES:
     dance-solo:
     :
     Hard:
     15:
     0.646463,0.646206,0.227438,0.000000,0.662709,577.000000,548.000000,29.000000,0.000000,0.000000,0.000000,0.646463,0.646206,0.227438,0.000000,0.662709,577.000000,548.000000,29.000000,0.000000,0.000000,0.000000:
// measure 0
000000
000000
000000
000000
,  // measure 1
000000
000000
000000
000000
,  // measure 2
000000
000000
000000
000000
,  // measure 3
000000
000000
000000
000000
,  // measure 4
000000
000000
000000
000000
,  // measure 5
000000
000000
000000
000000
,  // measure 6
000010
000000
000000
000010
001000
000000
000100
000000
100000
001000
100000
000000
100001
000000
000000
000000
,  // measure 7
000100
000000
010000
000000
010000
000000
001000
000000
100000
000100
100000
000000
001100
000000
000000
000000
,  // measure 8
000001
000000
000100
000000
000010
000000
010000
000000
001000
000000
100000
000001
100000
000000
000000
000000
,  // measure 9
000001
000100
000001
000000
010000
000000
001000
000000
000100
000000
000010
010000
000010
000000
000000
000000
,  // measure 10
001000
000100
000000
000100
100000
000000
000010
000000
001000
000000
010000
000000
001000
000000
000010
000000
,  // measure 11
000100
001000
000000
001000
100000
000000
000001
000000
001000
000000
010000
000000
001000
000000
000010
000000
,  // measure 12
000100
001000
000000
001000
010000
000000
000001
000000
000100
000000
100000
000000
000100
000000
000010
000000
,  // measure 13
100000
000001
000000
000001
010000
000000
001000
000000
000010
000000
001000
000000
100000
000000
000100
000000
,  // measure 14
001000
000000
000001
000000
001000
000001
001000
000000
000100
000000
010000
000000
000100
010000
000100
000000
,  // measure 15
100000
000000
001000
000000
100000
001000
100000
000000
000010
000000
000100
000000
000010
000100
000010
000000
,  // measure 16
010000
010000
000010
000010
100000
100000
000001
000001
,  // measure 17
010010
000000
001000
000000
001000
000100
100001
000000
,  // measure 18
010010
000000
000100
000000
100000
000000
000010
001000
000100
000000
000100
000000
010000
000010
010000
001000
,  // measure 19
100000
000000
000010
000100
000000
000100
000001
000100
001000
000000
001000
000000
010000
000000
000010
000000
,  // measure 20
000000
000000
001000
000000
001000
000000
000001
010000
001000
000000
001000
000000
100000
000010
000100
000010
,  // measure 21
010000
000000
000000
000000
000000
000000
000001
000000
000000
000100
000000
000000
000000
000000
000000
001000
000000
000000
100000
000000
000000
000000
000000
000000
000001
000000
000000
000000
001000
000000
000001
000000
000000
000000
000000
000000
100000
000000
000000
000000
000000
000000
010000
000000
000000
000000
000000
000000
,  // measure 22
000000
000000
000010
000000
000010
000000
000100
000001
010000
000000
001000
000000
100000
000010
010000
001000
,  // measure 23
010000
000000
000100
001000
000000
000001
010000
000010
100000
000000
100000
000000
000001
000000
000010
000000
,  // measure 24
000000
000000
010000
000000
010000
001000
000100
000010
100000
000000
000001
000000
001000
000100
001000
000010
,  // measure 25
010000
000000
000000
000000
000000
000000
000000
000000
000000
010000
000000
000000
000001
000000
000000
000000
000000
000000
001000
000000
000000
000000
000000
000000
000010
000000
000000
000000
000100
000000
000000
000000
000010
000000
000000
000000
010000
000000
000000
000000
000100
000000
000000
000000
100000
000000
000000
000000
,  // measure 26
000000
000000
000000
100001
000000
000000
000100
000000
010000
000100
000000
001000
000000
000000
000010
000000
000000
000010
000000
000000
000010
000000
000000
000000
,  // measure 27
000110
000000
000000
010000
000000
000000
001000
000000
100000
000001
000000
010000
000000
000000
000100
000000
000000
000100
000000
000000
001000
000010
000000
001000
,  // measure 28
000000
000000
000000
001001
000000
000000
000001
000000
100000
000010
000000
100000
000000
000000
001000
000000
000000
001000
000000
000000
001000
000000
000000
000000
,  // measure 29
011000
000000
000000
010000
000000
000000
000100
000000
001000
000001
000000
001000
000100
000000
100000
000001
000000
000000
010010
000000
000000
001100
000000
000000
,  // measure 30
000000
000000
000000
100001
000000
000000
001000
000000
000010
100000
000000
000001
000000
000000
010000
000000
000000
001000
000000
000000
100000
000000
000000
000000
,  // measure 31
000000
000000
000000
000100
000000
000000
001000
000000
000010
010000
000000
000100
000000
000000
100000
000000
000000
100000
000000
000000
000001
000100
000000
000010
,  // measure 32
000000
000000
000000
010000
000000
000000
010000
000000
001000
100000
000000
000001
000000
000000
001000
000000
000000
000100
000000
000000
100000
000000
000000
000000
,  // measure 33
001100
000000
000000
000000
000000
000000
000000
000000
000000
000100
000000
000000
001000
000000
000000
000000
000000
000000
000001
000000
000000
000000
000000
000000
100000
000000
000000
000000
001000
000000
000000
000000
100000
000000
000000
000000
000010
000000
000000
000000
000100
000000
000000
000000
000010
000000
000000
000000
,  // measure 34
001000
000000
000000
000001
001000
000000
000100
000000
100000
000010
100000
000000
100001
000000
000000
000000
,  // measure 35
001000
000000
010000
000000
010000
000000
000010
000000
001000
000100
001000
000000
001001
000000
000000
000000
,  // measure 36
000010
000000
100000
000000
000100
000000
100000
000000
001000
000000
010000
000001
010000
000000
000000
000000
,  // measure 37
000010
000100
000010
000000
100000
000000
000010
000100
000010
000000
100001
000000
001100
000000
000000
000000
,  // measure 38
000010
000000
000000
000010
100000
000000
001000
000000
010000
000100
010000
000000
010010
000000
000000
000000
,  // measure 39
000100
000000
100000
000000
100000
000000
001000
000000
010000
000010
010000
000000
010100
000000
000000
000000
,  // measure 40
000001
000000
100000
000000
100000
000000
000010
000000
000100
000000
001000
010000
001000
000000
000000
000000
,  // measure 41
100000
000010
100000
000000
001000
000000
100000
000001
100000
000000
001000
000000
101000
000000
000000
000000
,  // measure 42
000100
000010
000000
000010
010000
000000
000001
000000
001000
000000
100000
000000
001000
000000
000001
000000
,  // measure 43
010000
001000
000000
001000
000100
000000
000010
000000
001000
000000
100000
000000
001000
000000
000001
000000
,  // measure 44
000100
001000
000000
001000
010000
000000
000001
000000
001000
000000
010000
000000
001000
000000
000010
000000
,  // measure 45
001000
000001
000000
000001
100000
000000
001000
000000
010000
000000
000010
000000
000001
000000
000000
000000
,  // measure 46
000100
000000
001000
000000
000100
001000
000100
000000
000001
000000
010000
000000
000001
010000
000001
000000
,  // measure 47
100000
000000
000010
000000
100000
000010
100000
000000
000100
000000
010000
000000
000100
010000
000100
000000
,  // measure 48
001000
001000
000001
000001
010000
010000
000010
000010
,  // measure 49
010010
000000
000000
000000
001000
000001
001000
000001
001000
000000
000100
000000
100001
000000
000000
000000
,  // measure 50
001100
000000
000000
000010
000000
000000
010000
000000
000000
001000
000000
100000
000000
000000
100000
000001
000000
000000
000100
000000
000000
000010
000000
001000
,  // measure 51
000000
000000
001000
000100
000000
000000
010000
000000
000000
001000
000000
000000
100000
000000
000000
100000
000000
000000
100000
000000
000000
000001
000000
000000
,  // measure 52
000100
000000
000000
000010
000000
000000
000010
000000
000000
010000
000000
001000
000000
000000
001000
100000
000000
000000
000001
000000
000000
000100
000000
000010
,  // measure 53
000000
000000
000010
010000
000000
000000
001000
000000
000000
000100
000000
000000
000001
000000
100000
000010
000000
000000
010000
000000
000000
001000
000000
000000
,  // measure 54
100000
000000
000000
000010
000000
000000
000100
000000
000000
000001
000000
001000
000000
000000
001000
000010
000000
000000
010000
000000
000000
001000
000000
100000
,  // measure 55
000000
000000
100000
000100
000000
000000
010000
000000
000000
000010
000000
000000
000100
000000
000000
000100
000000
000000
000100
000000
000000
000001
000000
000000
,  // measure 56
100000
000000
000000
000001
000000
000000
010000
000000
000000
000010
000000
100000
000000
000000
100000
001000
000000
000000
010000
000000
000000
000100
000000
000000
,  // measure 57
010010
000000
000000
000000
000000
000000
000000
000000
000000
000010
000000
000000
001000
000000
000000
000000
000000
000000
000100
000000
000000
000000
000000
000000
100000
000000
000000
000000
001000
000000
000000
000000
010000
000000
000000
000000
000100
000000
000000
000000
001000
000000
000000
000000
000001
000000
000000
000000
,  // measure 58
000100
000000
000000
000100
000000
000000
000010
000000
010000
000010
000000
001000
000000
000000
000100
000000
000000
100100
000000
000000
100100
000000
000000
000000
,  // measure 59
000001
000000
000000
010000
000000
000000
001000
000000
010000
000100
000000
100000
000000
000000
000010
000000
000000
000010
000000
000000
000100
000010
000000
000000
,  // measure 60
000100
000000
000000
001000
000000
000000
010000
000000
000100
100000
000000
000001
000000
000000
001000
000000
000000
001010
000000
000000
001010
000000
000000
000000
,  // measure 61
000100
000000
000000
000100
000000
000000
010000
000000
001000
010000
000000
000010
100000
000000
000001
001000
000000
000000
000100
000000
000000
000100
000000
000000
,  // measure 62
100000
000000
000000
000001
000000
000000
010000
000000
001000
010000
000000
000010
000000
000000
000100
000000
000000
000001
000000
000000
100000
001000
000000
000000
,  // measure 63
010000
000000
000000
000010
000000
000000
000100
000000
001000
100000
000000
000010
000000
000000
000100
000000
000000
000001
000000
000000
010000
001000
000000
000000
,  // measure 64
100000
000000
000000
000010
000000
000000
000100
000000
000001
010000
000000
000010
000000
000000
001000
000000
000000
001000
000000
000000
000100
100000
000000
000000
,  // measure 65
100001
000000
000000
000000
000000
000000
000000
000000
000000
100000
000000
000000
000100
000000
000000
000000
000000
000000
001000
000000
000000
000000
000000
000000
000001
000000
000000
000000
100000
000000
000000
000000
000010
000000
000000
000000
000100
000000
000000
000000
001000
000000
000000
000000
010000
000000
000000
000000
;

//---------------dance-solo - ---------------
#NOTES:
     dance-solo:
     :
     Challenge:
     17:
     0,0,0,0,0:
// measure 0
000000
000000
000000
000000
,  // measure 1
000000
000000
000000
000000
,  // measure 2
000000
000000
000000
000000
,  // measure 3
000000
000000
000000
000000
,  // measure 4
000000
000000
000000
000000
,  // measure 5
000000
000000
000000
000000
,  // measure 6
000010
000000
000000
000010
000100
000001
001000
000100
010000
001000
100000
000000
001100
000000
010010
000000
,  // measure 7
000000
000000
001000
000000
001000
000000
000010
000100
001000
100000
000001
000000
000110
000000
011000
000000
,  // measure 8
000000
000000
100000
000000
000010
000000
000100
000000
010010
000000
001000
100000
000001
000000
000000
000000
,  // measure 9
000100
000010
001000
000000
001100
000000
000100
010000
001000
000000
101000
000000
001001
000000
000000
000000
,  // measure 10
000010
000100
000000
000010
010000
001000
100000
000000
000001
000000
000010
000000
000001
000000
010000
001000
,  // measure 11
000000
100000
000000
000100
001000
000100
010000
000000
000010
000000
100000
000000
010000
000000
000001
000100
,  // measure 12
000000
001000
000000
001000
010000
000100
100000
000000
000001
000000
010000
000000
001000
000000
100000
000001
,  // measure 13
000000
000010
000000
000001
001000
000100
010000
000000
011000
000000
001100
000000
000110
000000
000000
000000
,  // measure 14
010000
000000
001000
000000
100000
000000
000001
000100
001000
000000
010000
000000
000010
000100
000010
100000
,  // measure 15
001000
000000
010000
000010
000100
000001
100000
000001
000100
000000
000010
000000
001000
000000
010000
000000
,  // measure 16
000001
000010
000001
010000
001000
100000
000010
001000
000100
010000
001000
010000
000001
000010
000001
100000
,  // measure 17
001000
010000
000000
010000
000010
000100
001000
000000
101000
000000
010010
000000
001001
000000
100000
000001
,  // measure 18
001000
000000
000100
000000
000100
000000
010000
001000
000010
000000
100000
000000
000001
000100
000010
010000
,  // measure 19
001000
000000
100000
010000
100000
000100
001000
000001
000100
000000
000010
000000
001000
000000
100000
000000
,  // measure 20
110000
000000
000001
000000
000001
000000
000100
000010
010000
000000
001000
000000
100000
000010
000100
000001
,  // measure 21
001000
000000
000000
000000
000000
000000
000010
000000
000000
000100
000000
000000
000001
000000
000000
001000
000000
000000
100000
000000
000000
000000
000000
000000
000100
000000
000000
000000
000100
000000
010000
000000
000000
000000
000000
000000
011000
000000
000000
000000
000000
000000
001010
000000
000000
000000
000000
000000
,  // measure 22
100001
000000
010000
000000
000010
000000
000100
000001
001000
000000
100000
000000
000010
000100
000001
001000
,  // measure 23
100000
000000
000100
001000
000100
010000
001000
100000
000010
000000
000100
000000
000001
000000
010000
000000
,  // measure 24
001100
000000
100000
000000
100000
000000
000010
000001
001000
000000
000100
000000
010000
001000
010000
000010
,  // measure 25
100001
000000
000000
000000
000000
000000
000000
000000
000000
001000
000000
000000
000100
000000
000000
000000
000000
000000
100000
000000
000000
000000
000000
000000
000010
000000
000000
000000
000010
000000
000000
000000
000010
000000
000000
000000
010000
000000
000000
000000
010000
000000
000000
000000
010000
000000
000000
000000
,  // measure 26
010010
000000
000000
000100
000000
000000
100000
000000
010000
100000
000000
000010
000000
000000
000100
000001
000000
001000
000000
000000
000100
100000
000000
000000
,  // measure 27
010001
000000
000000
000001
000000
000001
000100
000000
000010
010000
000000
001000
000000
000000
100000
000000
000000
100000
000001
000000
000000
000100
000000
000010
,  // measure 28
001000
000000
000000
010010
000000
000000
000100
000000
100000
000001
000000
010000
000000
000000
000001
000100
000000
000010
000000
000000
010000
001000
000000
000000
,  // measure 29
101000
000000
000000
100000
000000
100000
000001
000000
000001
000100
000000
001000
010000
000000
010000
000010
000000
000000
000110
000000
000000
010100
000000
000000
,  // measure 30
100001
000000
000000
000010
000000
000000
000001
000000
010000
001000
000000
100000
000000
000000
000010
000100
000000
001000
000000
000000
001000
100000
000000
000000
,  // measure 31
110000
000000
000000
001000
000000
001000
000100
000000
000010
010000
000000
000001
000000
000000
000011
000000
000000
000001
100000
000000
000000
000100
000000
001000
,  // measure 32
000010
000000
000000
001100
000000
000000
100000
000000
010000
100000
000000
001000
000000
000000
000100
000001
000000
001000
000000
000000
000010
010000
000000
000000
,  // measure 33
100001
000000
000000
000000
000000
000000
000000
000000
000000
000100
000000
000000
001000
000000
000000
000000
000000
000000
000001
000000
000000
000000
000000
000000
010000
000000
000000
000000
010000
000000
000000
000000
010000
000000
000000
000000
000010
000000
000000
000000
000010
000000
000000
000000
000010
000000
000000
000000
,  // measure 34
001000
000000
000000
001000
000001
000100
000010
001000
000100
010000
000001
000000
000101
000000
101000
000000
,  // measure 35
000000
000000
010000
000000
010000
000000
001000
100000
000100
001000
000001
000000
000011
000000
110000
000000
,  // measure 36
000000
000000
000100
000000
000100
000000
001000
000000
100001
000000
000100
000010
010000
000000
000000
000000
,  // measure 37
001000
100000
000001
000000
010010
000000
000100
100000
001000
000000
011000
000000
001010
000000
000100
000000
,  // measure 38
100000
000000
000000
010000
100000
000010
000100
001000
010000
000001
001000
000000
100001
000000
010010
000000
,  // measure 39
001000
000000
000100
000000
000100
000000
010000
001000
100000
000100
000001
000000
001001
000000
100100
000000
,  // measure 40
010000
000000
001000
000000
001000
000000
100000
000000
100001
000000
000100
000010
001000
000000
010000
000000
,  // measure 41
000001
100000
000010
000000
010100
000000
001000
000001
100000
000000
011000
000000
000110
000000
000000
000000
,  // measure 42
000001
000010
000000
000001
100000
001000
010000
000000
000100
000000
100000
000000
001000
000000
010000
000001
,  // measure 43
000000
000100
000000
000010
010000
001000
100000
000000
000100
000000
001000
000000
000001
000000
010000
001000
,  // measure 44
000000
100000
000000
000010
000100
000010
001000
000000
000100
000000
010000
000000
001000
000000
100000
000001
,  // measure 45
000000
000001
000000
000010
000100
000001
001000
000000
010010
000000
001100
000000
100001
000000
000000
000000
,  // measure 46
000100
000000
000000
010000
000000
000000
001000
000000
000000
100000
000000
000010
000100
000000
000010
010000
000000
000000
001000
000000
000000
100000
000000
000001
,  // measure 47
000100
000000
000010
010000
000000
000000
001000
000000
000100
000001
000000
000000
010000
000000
001000
100000
000000
000000
000010
000000
000100
000001
000000
000000
,  // measure 48
100000
001000
010000
000010
000100
010000
001000
000100
000001
000010
001000
010000
000100
100000
000001
001000
,  // measure 49
000100
000000
010010
000000
001000
000100
010000
000010
001000
000000
100100
000000
000101
000000
000010
010000
,  // measure 50
001000
000000
000000
100000
000000
000000
010000
000000
000000
000001
000000
000100
000010
000000
001000
100000
000000
000000
000100
000000
000000
010000
000000
000010
,  // measure 51
000100
000000
000100
000001
000000
000000
001000
000000
000100
100000
000000
000000
001000
000000
001000
010000
000000
000000
000010
000000
000010
000100
000000
000000
,  // measure 52
000101
000000
000000
000001
000000
000000
100000
000000
000000
000100
000000
010000
001000
000000
100000
000001
000000
000000
000010
000000
000000
000001
000000
001000
,  // measure 53
000100
000000
000100
100000
000000
000000
001000
000000
010000
000001
000000
000000
001000
000000
001000
000100
000000
000000
001100
000000
000000
010010
000000
000000
,  // measure 54
100001
000000
000000
010000
000000
000000
001000
000000
000000
100000
000000
100000
000010
000000
000010
000100
000000
000000
000001
000000
000000
010000
000000
000001
,  // measure 55
000100
000000
000010
001000
000000
000000
000100
000000
100000
001000
000000
000000
010000
000000
000100
000010
000000
000000
001000
000000
000001
100000
000000
000000
,  // measure 56
011000
000000
000000
000010
000000
000000
000100
000000
000000
000001
000000
100000
010000
000000
100000
000100
000000
000000
001000
000000
000010
010000
000000
000000
,  // measure 57
001100
000000
000000
000000
000000
000000
000000
000000
000000
000001
000000
000000
100000
000000
000000
000000
000000
000000
001000
000000
000000
000000
000000
000000
010000
000000
000000
000000
010000
000000
000000
000000
010000
000000
000000
000000
000010
000000
000000
000000
000010
000000
000000
000000
000010
000000
000000
000000
,  // measure 58
010010
000000
000000
100100
000000
000000
000001
000000
000100
000010
000000
010000
001000
000000
100000
001000
000000
010000
000100
000000
001000
000010
000000
000000
,  // measure 59
000110
000000
000000
100001
000000
000010
000001
000000
100000
001000
000000
000100
000010
000000
000010
010000
000000
010000
000100
000000
100000
000001
000000
000000
,  // measure 60
000011
000000
000000
110000
000000
000000
000100
000000
001000
000100
000000
100000
001000
000000
010000
000001
000000
000010
000001
000000
001000
100000
000000
000000
,  // measure 61
101000
000000
000000
010100
000000
000000
000100
000000
001000
000100
000000
100000
000001
000000
000001
001000
000000
000000
001010
000000
000000
011000
000000
000000
,  // measure 62
010010
000000
000000
001100
000000
000000
100000
000000
000001
000010
000000
001000
010000
000000
010000
000100
000000
000100
100000
000000
000001
001000
000000
000000
,  // measure 63
001001
000000
000000
100100
000000
010000
000001
000000
000100
000010
000000
001000
000100
000000
000100
100000
000000
100000
001000
000000
010000
000001
000000
000000
,  // measure 64
001010
000000
000000
110000
000000
000000
000001
000000
000001
010000
000000
000100
100000
000000
001000
010000
000000
000010
000100
000000
000100
001000
000000
000000
,  // measure 65
101000
000000
000000
000000
000000
000000
000000
000000
000000
100000
000000
000000
000001
000000
000000
000000
000000
000000
010000
000000
000000
000000
000000
000000
000100
000000
000000
000000
000100
000000
000000
000000
000100
000000
000000
000000
001000
000000
000000
000000
001000
000000
000000
000000
001000
000000
000000
000000
;
