#TITLE:ROCK BEAT;
#SUBTITLE:(Radio Edit);
#ARTIST:LOUD FORCE;
#TITLETRANSLIT:;
#SUBTITLETRANSLIT:;
#ARTISTTRANSLIT:;
#GENRE:;
#CREDIT:;
#BANNER:ROCK BEAT (Radio Edit)-bn.png;
#BACKGROUND:ROCK BEAT (Radio Edit)-bg.png;
#LYRICSPATH:;
#CDTITLE:;
#MUSIC:ROCK BEAT (Radio Edit).ogg;
#OFFSET:0.000000;
#SAMPLESTART:182.399994;
#SAMPLELENGTH:20.000000;
#SELECTABLE:YES;
#DISPLAYBPM:150.000000;
#BPMS:0.000000=150.000000
;
#STOPS:
;
#BGCHANGES:;
#KEYSOUNDS:;
#ATTACKS:;

//---------------dance-single - ----------------
#NOTES:
     dance-single:
     :
     Hard:
     13:
     0.557568,0.615710,0.278287,0.142622,0.109576,1122.000000,1042.000000,80.000000,41.000000,0.000000,0.000000,0.557568,0.615710,0.278287,0.142622,0.109576,1122.000000,1042.000000,80.000000,41.000000,0.000000,0.000000:
0000
0000
0000
0000
,
0000
0000
0000
0000
,
0000
0000
0000
0000
,
0000
0000
0000
0000
,
0000
0000
0000
0000
,
0000
0000
0000
0000
,
0000
0000
0000
0000
,
0001
0000
1000
0000
,
0001
0010
0100
1000
0000
0000
0000
0000
,
0010
0000
0100
0000
,
0001
1000
0001
0010
0000
0100
0000
0000
,
1000
0000
0001
0000
,
1000
0100
0010
0001
0000
0000
0000
0000
,
0100
0000
0010
0000
,
1000
0010
1000
0001
0000
0100
0000
0000
,
0010
1000
0000
1000
0100
0010
0000
0010
,
0001
1000
0001
0100
0000
0010
0000
0010
,
1000
0001
0000
0001
0010
0100
0000
0100
,
1000
0010
0100
0001
0000
0010
0000
0100
,
1000
0010
0000
0010
1000
0001
0000
0001
,
0010
0100
0010
0001
0000
1000
0000
1000
,
0001
0100
0000
0100
0001
0010
0000
0010
,
0100
0010
0001
1000
0000
0010
0000
0100
,
0002
0020
0000
0000
,
0000
0000
0000
0000
0033
0000
0000
0000
0100
0000
1000
0010
1000
0000
0001
0000
,
0000
0000
0000
0100
0000
0000
0001
0000
0000
1000
0000
0000
0000
0000
0000
0010
0000
1000
0000
0100
0000
1000
0000
0000
,
0000
0001
0000
0100
0000
0010
1000
0000
0000
0000
0000
0000
0000
0000
0000
0000
,
1001
0000
1001
0000
,
1100
0000
0000
0000
0101
0000
0000
0000
1100
0000
0000
1000
0001
0000
0000
0000
,
1001
0010
1000
0100
1000
0010
0100
0001
,
0010
0100
0010
0001
0100
0010
1000
0001
,
0010
1000
0010
0001
0100
0010
0100
0000
,
2020
0000
0000
3030
,
1001
0010
1000
0100
1000
0010
0100
0001
,
0010
0100
0010
0001
0100
0010
1000
0001
,
0100
1000
0100
0001
0100
0010
1000
0000
,
2020
0000
3030
0202
0000
0000
0303
0000
,
1001
0010
0001
0100
1000
0100
0010
0100
,
0001
0010
0100
0010
0001
0100
1000
0100
,
0001
0100
0010
1000
0100
0001
0100
0000
,
2200
0000
0000
3300
,
1001
0001
0010
0100
0010
0001
0100
1000
,
0100
0010
0100
1000
0100
0001
0010
0100
,
0001
0100
1000
0010
0100
0001
1000
0000
,
2200
0000
3300
0022
0000
0000
0033
0000
,
1000
0001
0100
0000
0010
1000
0001
0000
,
1000
0010
0100
0001
0010
0100
1000
0000
,
0001
0010
0001
0100
0010
1000
0001
0000
,
1000
0100
1000
0010
0100
0001
1000
0000
,
0010
1000
0100
0000
0010
0001
0100
0000
,
0001
1000
0001
0010
0100
1000
0010
0000
,
0100
0010
1000
0001
1000
0100
0010
0000
,
0001
0010
0001
1000
0100
0010
0001
0000
,
0011
0100
1000
0000
1010
0100
0001
0000
,
1000
0010
1000
0001
0010
0100
1000
0000
,
1100
0001
0100
0000
0101
1000
0100
0000
,
1000
0010
1000
0001
0010
0100
1000
0000
,
0110
1000
0001
0000
0110
0001
1000
0000
,
0010
1000
0001
1000
0100
0010
0001
0000
,
1001
0010
0100
0000
1001
0100
0010
0000
,
1000
0001
1000
0100
0010
0001
0100
0000
,
1000
1000
0001
0001
,
1000
1000
0001
0001
,
1001
0000
0000
0000
0000
0000
0010
0000
0001
0100
0000
0001
1000
0000
0000
0000
,
0000
0000
1000
0010
1000
0000
0001
0000
1000
0000
0100
0000
0010
0000
0001
0000
,
0100
0000
0000
0000
0000
0000
0010
0000
1000
0001
0000
1000
0100
0000
0000
0000
,
0010
0001
0000
0010
0100
0000
1000
0000
0001
0000
0001
0000
1000
0000
0100
0000
,
0010
0000
0001
0000
0000
0000
0100
0000
0010
0000
1000
0001
0000
0000
0000
0000
,
0000
0000
1000
0100
1000
0000
0010
0000
0100
0000
0010
0000
1000
0000
0001
0000
,
0010
0000
0000
0000
0000
0000
0001
0000
1000
0000
0010
0100
0000
0010
0100
0000
,
0001
0000
0010
0000
0001
0000
0100
0010
0000
0010
0000
0010
1000
0000
0001
0000
,
0010
0000
0000
0000
0000
0000
0001
0000
0100
0000
0010
1000
0000
0010
1000
0000
,
0100
0010
0000
0010
0001
0000
1000
0000
0001
0100
0000
0100
0010
0000
1000
0000
,
0001
0000
0000
0000
0000
0000
1000
0000
0100
0000
1000
0010
0000
0000
0000
0000
,
0100
0001
0000
0001
1000
0000
0100
0000
0010
0001
0000
0001
1000
0000
0010
0000
,
1001
0000
0000
0000
0000
0000
0100
0010
0000
0100
0001
0000
1001
0000
0000
0000
,
0000
0000
0010
0000
1000
0000
0100
1000
0000
0001
1000
0000
0010
0000
0100
0000
,
0001
1000
0110
0000
1001
0000
0010
0100
,
0001
1000
0001
0010
0100
1000
0001
0000
,
0200
0000
0000
0000
,
0000
0000
0000
0000
,
0020
0000
0000
0330
,
1001
0010
1000
0100
1000
0010
0100
0001
,
0010
1000
0010
0001
0100
0010
0100
0001
,
1000
0100
0001
0100
1000
0010
0100
0000
,
0202
0000
0000
0303
,
1001
0001
0010
0100
1000
0010
1000
0100
,
0001
0100
0010
0100
1000
0010
1000
0001
,
0100
0010
0100
1000
0100
0001
0010
0000
,
2200
0000
3300
0202
0000
0000
0303
0000
,
0110
0001
1000
0010
1000
0100
1000
0001
,
0010
0100
0010
0001
0100
1000
0100
0001
,
0100
0010
0100
1000
0100
0001
1000
0000
,
2020
0000
0000
3030
,
0110
1000
0100
1000
0010
0100
0001
0010
,
1000
0010
0001
0100
0010
0100
0001
1000
,
0100
0010
0100
0001
0100
1000
0001
0000
,
0022
0000
0033
2020
0000
0000
3030
0000
,
0100
0001
0010
0000
0010
0001
1000
0000
,
0001
0100
0010
1000
0100
0010
0001
0000
,
1000
0010
1000
0001
0010
0100
1000
0000
,
0010
1000
0001
1000
0010
1000
0100
0000
,
0010
0001
1000
0000
0010
1000
0100
0000
,
0010
0001
1000
0001
0010
0100
1000
0000
,
0100
0010
0100
1000
0100
0010
0001
0000
,
0100
0001
1000
0001
0010
0100
1000
0000
,
0010
1000
0001
0000
1000
0100
0010
0000
,
0100
0010
0001
0100
0001
0010
1000
0000
,
0100
0010
0001
0100
0001
1000
0010
0000
,
1000
0100
0001
0010
0100
0010
0001
0000
,
0010
0001
1000
0000
0100
0010
0001
0000
,
0100
0001
0010
0100
1000
0010
0001
0000
,
1000
0100
1000
0010
1000
0100
0001
0000
,
0010
0001
1000
0001
0100
0010
1000
0000
,
1100
0010
0001
0000
0101
0010
1000
0000
,
0001
0010
0100
0010
0100
1000
0001
0000
,
0101
0001
0100
0000
1100
1000
0100
0000
,
1000
0010
0001
1000
0001
0100
0010
0000
,
1010
0100
0001
0000
0011
0100
1000
0000
,
0100
0010
0001
0100
0001
1000
0010
0000
,
1010
1000
0010
0000
0011
0001
0010
0000
,
0100
0010
0100
0010
0100
1000
0001
0000
,
0110
0001
1000
0000
0110
1000
0001
0000
,
0100
0001
1000
0001
0010
0100
1000
0000
,
0110
0010
0100
0000
0110
0100
0010
0000
,
0100
1000
0010
0001
0100
0001
1000
0000
,
1001
0010
0100
0000
1001
0100
0010
0000
,
0100
0001
1000
0100
0010
0001
0100
0000
,
1001
1000
0001
0000
1001
0001
1000
0000
,
0010
1000
0100
1000
0001
0010
0100
0000
,
1000
1000
0001
0001
,
1000
1000
0001
0001
,
1001
0000
0000
0000
0010
0000
0100
0000
0001
1000
0000
0001
0100
0000
0000
0000
,
0010
1000
0000
0010
1000
0000
0100
0000
0010
0001
0000
0010
0001
0000
0100
0000
,
0110
0000
0000
0000
1000
0000
0010
0000
0100
0001
0000
0100
0001
0000
0000
0000
,
0001
0010
0001
0000
1000
0000
0100
0000
1000
0000
0000
0000
0001
0000
0000
0000
,
0011
0000
0000
0000
0100
0000
1000
0000
0010
0000
0100
0001
0100
0000
0000
0000
,
0010
0000
1000
0000
0001
0000
1000
0100
0000
0100
0000
0100
0010
0000
0001
0000
,
0101
0000
0000
0000
1000
0000
0001
0000
0010
0001
0000
0001
0100
0000
0000
0000
,
0010
1000
0010
0000
0100
0000
0001
0000
1000
0000
0000
0000
0001
0000
0000
0000
,
1010
0000
0000
0000
0100
0000
0001
0000
0010
0000
0100
1000
0000
0100
1000
0000
,
0001
0000
0100
0000
1000
0000
0100
0000
0001
0010
0000
0010
0100
0000
1000
0000
,
1100
0000
0000
0000
0010
0000
0001
0000
1000
0010
0000
0010
0100
0000
0000
0000
,
0001
1000
0001
0000
0010
0000
0100
0000
1000
0000
0000
0000
0001
0000
0000
0000
,
1001
0000
0000
0000
0010
0000
1000
0100
0000
1000
0010
0000
0110
0000
0000
0000
,
0100
0000
0001
0000
0010
0000
0100
1000
0000
1000
0001
0000
0100
0000
0010
0000
,
1000
0001
1001
0000
0010
1000
0100
0000
,
0022
0000
0000
0000
0030
0000
1003
0001
,
1000
0010
0100
0001
0010
0100
1000
0000
,
1001
0010
1000
0100
1000
0001
0010
0100
,
1000
0010
0100
0010
1000
0001
0010
0100
,
0001
0100
0010
0100
1000
0010
0001
0000
,
0102
1000
1000
1003
,
1001
0010
0100
0010
1000
0100
0010
0001
,
0100
1000
0100
0001
0010
0100
1000
0010
,
0100
1000
0100
0001
0100
0010
1000
0000
,
2100
0000
3001
0201
0000
0310
1000
0001
,
1001
0010
0100
1000
0010
0100
1000
0100
,
0001
0010
0001
0100
0010
0100
0001
1000
,
0100
0001
0100
1000
0010
0100
0001
0000
,
2010
0001
0001
3001
,
0110
0100
0001
0010
0001
0100
0010
1000
,
0100
0010
0001
0100
1000
0100
0001
0100
,
0010
1000
0001
0010
0100
1000
0001
0000
,
0012
0000
1003
1020
0000
0130
0001
1000
,
1001
0010
0100
0001
0010
0100
1000
0001
,
0100
1000
0100
0001
0100
0010
1000
0001
,
0010
0100
0010
0001
0100
0010
1000
0000
,
1200
0001
1000
0301
,
0110
1000
0010
0100
0010
1000
0100
0010
,
0001
0100
1000
0100
0001
0010
0100
1000
,
0010
1000
0001
0010
0100
1000
0010
0000
,
0102
0000
1003
1020
0000
0130
0001
1000
,
2002
0000
0000
0000
,
0000
0000
0000
0000
,
0000
0000
0000
0000
,
0000
0000
0000
0000
,
3003
0000
0000
0000
;

//---------------dance-single - ----------------
#NOTES:
     dance-single:
     :
     Medium:
     10:
     0.449732,0.554139,0.480045,0.177408,0.000000,905.000000,767.000000,138.000000,51.000000,0.000000,0.000000,0.449732,0.554139,0.480045,0.177408,0.000000,905.000000,767.000000,138.000000,51.000000,0.000000,0.000000:
0000
0000
0000
0000
,
0000
0000
0000
0000
,
0000
0000
0000
0000
,
0000
0000
0000
0000
,
0000
0000
0000
0000
,
0000
0000
0000
0000
,
0000
0000
0000
0000
,
0001
0000
1000
0000
,
0001
0010
0100
1000
0000
0000
0000
0000
,
0010
0000
0100
0000
,
0010
1000
0001
0100
0000
0100
0000
0000
,
0001
0000
1000
0000
,
0001
0010
0100
1000
0000
0000
0000
0000
,
0010
0000
0100
0000
,
0010
1000
0001
0100
0000
0100
0000
0000
,
0001
0010
0000
0010
0000
0100
0000
1000
,
0000
0010
0000
1000
0000
0001
0000
0100
,
0000
0001
0000
0010
0000
0100
0000
1000
,
0000
0010
0000
1000
0000
0001
0000
1000
,
0000
0100
0000
0010
0000
0100
0000
1000
,
0000
0010
0000
0100
0000
0001
0000
1000
,
0000
0001
0000
0010
0000
0001
0000
0100
,
0000
0001
0000
1000
0000
0010
0000
0100
,
0002
0020
0000
0000
,
0000
0000
0000
0033
,
0100
1000
0010
1000
0100
0010
0001
0100
,
0002
0000
0000
0003
,
1001
0000
1001
0000
,
1100
0101
1100
0101
,
1001
0000
0010
1000
0000
0100
0000
0001
,
0011
0000
0100
1000
0000
0010
0000
0100
,
0101
0000
0001
0010
0000
0100
1000
0000
,
2200
0000
0000
3300
,
1001
0000
0010
0100
0000
0001
0000
1000
,
1010
0000
1000
0001
0000
0010
0000
0100
,
0110
0000
0010
0001
0000
0100
1000
0000
,
2200
0000
3300
0022
0000
0000
0033
0000
,
1001
0000
0100
0001
0000
0010
0000
0100
,
1100
0000
0001
1000
0000
0010
0000
0100
,
0101
0000
1000
0001
0000
0010
0100
0000
,
0220
0000
0000
0330
,
1001
0000
0100
0001
0000
1000
0000
0001
,
0011
0000
0010
0100
0000
1000
0000
0001
,
0101
0000
1000
0001
0000
0100
0010
0000
,
0202
0000
0303
2020
0000
0000
3030
0000
,
1000
0001
0100
0000
0010
1000
0000
1100
,
0000
0110
0000
0011
0000
0100
0001
0000
,
0010
0001
0000
0100
0000
0010
1000
0000
,
0100
1000
0000
0001
0000
0100
0010
0000
,
0100
0001
1000
0000
0100
0010
0000
0011
,
0000
0110
0000
1100
0000
0010
1000
0000
,
0010
0100
0000
0010
0000
1000
0001
0000
,
0010
0100
0000
1000
0000
0001
0100
0000
,
0101
0010
1100
0010
,
0001
1000
0001
0100
0010
0000
0000
0000
,
1010
0100
0011
0100
,
1000
0010
0100
0001
0000
0001
1000
0000
,
1001
0100
1001
0010
,
0100
0001
1000
0001
0010
0000
0000
0000
,
0110
1000
0110
0001
,
0100
0001
1000
0010
0000
0010
0000
0000
,
0200
0000
0000
0000
0300
0001
0100
0001
,
2000
0200
0000
0000
0000
0000
3300
0000
,
0110
0000
0000
0001
0100
0010
1000
0000
,
0000
0100
0010
0000
0001
0100
1000
0000
,
1001
0000
0000
0010
1000
0001
0100
0000
,
0000
0001
0010
0000
0001
0100
1000
0000
,
1010
0000
0000
0100
0010
1000
0001
0000
,
0000
0010
0001
0010
0100
1000
0001
0100
,
0101
0000
0000
1000
0010
0100
0001
0000
,
0010
0001
0100
0000
0001
0010
1000
0000
,
1100
0000
0000
0010
0001
0100
1000
0000
,
0001
0010
0001
0100
0010
1000
0001
0100
,
0110
0000
0000
0100
0010
1000
0001
0000
,
0000
0010
0001
1000
0001
0100
0010
1000
,
1001
0000
0000
0010
1000
0100
1001
0000
,
0000
0010
0001
0100
0001
1000
0010
0100
,
0001
1000
0110
0000
1001
0000
0100
0010
,
1000
0001
0100
0000
0000
0000
0000
0000
,
0002
0000
0000
0000
,
0000
0000
0000
0000
,
2000
0000
0000
3003
,
1001
0000
0010
1000
0000
0100
0000
0010
,
0011
0000
0001
1000
0000
0001
0000
0100
,
0110
0000
0010
1000
0000
0100
0001
0000
,
0022
0000
0000
0033
,
1001
0000
0100
0001
0000
1000
0000
0010
,
1010
0000
0100
0010
0000
1000
0000
0100
,
1100
0000
0010
0100
0000
1000
0001
0000
,
0202
0000
0303
2200
0000
0000
3300
0000
,
0110
0000
0010
0001
0000
0100
0000
1000
,
1001
0000
0001
0010
0000
0100
0000
1000
,
1010
0000
1000
0001
0000
0100
0010
0000
,
2020
0000
0000
3030
,
0110
0000
1000
0001
0000
0100
0000
0001
,
0011
0000
0100
0010
0000
0001
0000
1000
,
1001
0000
0001
1000
0000
0010
0100
0000
,
2020
0000
3030
0022
0000
0000
0033
0000
,
0100
1000
0001
0000
0010
0100
0000
1100
,
0000
0110
0000
0011
0000
0100
0010
0000
,
0100
0001
0000
1000
0000
0100
0010
0000
,
0001
1000
0000
0001
0000
0100
0010
0000
,
1000
0001
0010
0000
0100
1000
0000
1001
,
0000
1010
0000
1100
0000
0010
0100
0000
,
0010
1000
0000
0100
0000
0010
0001
0000
,
0100
0001
0000
0010
0000
0001
1000
0000
,
0001
0100
0010
0000
1000
0001
0000
0101
,
0000
0110
0000
1010
0000
0100
0010
0000
,
0100
0001
0000
0010
0000
0100
1000
0000
,
0001
1000
0000
0010
0000
1000
0100
0000
,
1000
0010
0001
0000
0100
0010
0000
0110
,
0000
1001
0000
0110
0000
1000
0001
0000
,
0010
0001
0000
0100
0000
0010
1000
0000
,
0100
1000
0000
0001
0000
1000
0010
0000
,
0101
0010
1100
0010
,
0001
1000
0001
0010
0100
0000
0000
0000
,
1100
0001
0011
1000
,
0010
1000
0001
0100
0000
0010
0100
0000
,
1010
0100
0011
0100
,
0010
0100
1000
0001
0100
0000
0000
0000
,
1010
0001
0101
1000
,
0100
0010
0100
1000
0000
0001
0100
0000
,
0110
0001
0110
1000
,
0001
1000
0100
0010
0001
0000
0000
0000
,
1001
0100
1001
0010
,
0100
0001
0010
0100
0000
0100
1000
0000
,
0110
0010
0110
0100
,
1000
0010
0100
0001
1000
0000
0000
0000
,
1001
0001
1001
1000
,
0001
0010
0100
1000
0000
0010
0000
0000
,
0100
0100
0100
0100
,
0100
0100
0100
0100
,
1001
0000
0000
1000
0010
1000
0001
0000
,
0010
0001
0010
0100
1000
0010
1000
0001
,
0101
0000
0000
0010
1000
0001
0100
0000
,
0010
1001
0000
0110
0000
1000
0001
0000
,
0011
0000
0000
0100
1000
0010
0001
0000
,
0100
0001
1000
0001
0010
0100
1000
0010
,
1010
0000
0000
1000
0010
0100
0001
0000
,
0010
1001
0000
0110
0000
1000
0001
0000
,
0011
0000
0100
1000
0010
1000
0001
0100
,
0010
0100
0010
1000
0100
0010
0001
0100
,
0101
0000
0000
1000
0001
0010
0100
0000
,
1000
1100
0000
0101
0000
0001
0100
0000
,
0110
0000
0010
1000
0100
0010
0110
0000
,
0001
1000
0001
0010
0100
1000
0010
0100
,
0001
1000
1001
0000
0010
0000
1000
0000
,
2200
0000
0000
0300
,
3001
0100
0001
0000
0100
0010
1000
0000
,
1001
0000
0100
0001
0000
0010
0100
1000
,
1100
0000
0010
0100
0000
0001
1000
0010
,
0110
0000
1000
0001
0000
0010
0100
0000
,
2200
0000
0000
3300
,
1001
0000
0001
0010
0000
0001
0100
0010
,
1010
0000
1000
0001
0000
1000
0100
0010
,
0011
0000
0100
0010
0000
1000
0001
0000
,
0202
0000
0303
0022
0000
0000
0033
0000
,
0110
0000
1000
0010
0000
1000
0001
0100
,
0101
0000
0001
0010
0000
0001
1000
0100
,
1100
0000
0010
1000
0000
0100
0001
0000
,
0202
0000
0000
0303
,
0110
0000
0010
1000
0000
0100
0010
0001
,
1001
0000
0001
1000
0000
0001
0010
0100
,
1100
0000
0010
1000
0000
0001
0100
0000
,
2020
0000
3030
2200
0000
0000
3300
0000
,
1001
0000
0010
0001
0010
0100
1000
0001
,
1001
0000
1000
0010
1000
0100
0010
0001
,
0011
0000
0100
0001
0010
0100
1000
0000
,
2010
0001
0100
3001
,
0101
0000
0001
0010
0001
1000
0100
0010
,
0011
0000
0100
0010
0100
0001
1000
0100
,
1001
0000
0001
0010
0001
0100
1000
0000
,
0102
0000
1003
2100
0000
3010
0100
0001
,
2002
0000
0000
0000
,
0000
0000
0000
0000
,
0000
0000
0000
0000
,
0000
0000
0000
0000
,
3003
0000
0000
0000
;

//---------------dance-single - ----------------
#NOTES:
     dance-single:
     :
     Easy:
     7:
     0.301146,0.369426,0.382645,0.166972,0.000000,606.000000,496.000000,110.000000,48.000000,0.000000,0.000000,0.301146,0.369426,0.382645,0.166972,0.000000,606.000000,496.000000,110.000000,48.000000,0.000000,0.000000:
0000
0000
0000
0000
,
0000
0000
0000
0000
,
0000
0000
0000
0000
,
0000
0000
0000
0000
,
0000
0000
0000
0000
,
0000
0000
0000
0000
,
0000
0000
0000
0000
,
0001
0000
1000
0000
,
0001
0100
0010
0000
,
0100
0000
0010
0000
,
0100
0001
1000
0000
,
0010
0000
0100
0000
,
0001
1000
0100
0000
,
1000
0000
0001
0000
,
1000
0100
0010
0000
,
0001
0000
0100
0000
,
0001
0010
0100
0000
,
1000
0000
0010
0000
,
1000
0001
0100
0000
,
0001
0000
0010
0000
,
0100
1000
0010
0000
,
1000
0000
0100
0000
,
1000
0001
0100
0000
,
0020
2000
0000
0000
,
0000
0000
0000
3030
,
0100
0100
0001
1000
,
0010
0100
0001
0000
,
1001
0000
1001
0000
,
0100
0100
0100
0100
,
1001
0000
0010
1000
,
1100
0000
0010
0001
,
0101
0000
0010
1000
,
2020
0000
0000
3030
,
1001
0000
0001
0010
,
0011
0000
0001
0100
,
0101
0000
1000
0001
,
0202
0303
2200
3300
,
1001
0000
0010
1000
,
1010
0000
0100
0010
,
0011
0000
0001
1000
,
2002
0000
0000
3003
,
0110
0000
0010
1000
,
1100
0000
0010
0001
,
1001
0000
0100
0001
,
0022
0033
0220
0330
,
1000
0010
1000
0001
,
0010
0010
0010
0000
,
0100
0100
0100
0000
,
1000
1000
1000
0000
,
0010
1000
0001
1000
,
0100
0100
0100
0000
,
0010
0010
0010
0000
,
0001
0001
0001
0000
,
0110
0000
1001
0000
,
0010
1000
0100
0000
,
0110
0000
1001
0000
,
0100
0001
0010
0000
,
0011
0000
1100
0000
,
0010
1000
0001
0000
,
0101
0000
1010
0000
,
1000
0100
0001
0000
,
0010
0010
0010
0010
,
0001
1000
0001
1000
,
1001
0000
0010
1000
,
0100
0010
0001
0100
,
0101
0000
1000
0001
,
1000
0010
0100
0001
,
0011
0000
0010
0100
,
1000
0010
1000
0100
,
1100
0000
0001
1000
,
0001
0010
0100
1000
,
1010
0000
0100
0010
,
0100
0001
1000
0010
,
0110
0000
1000
0001
,
1000
0010
0100
0001
,
1001
0000
0010
1001
,
0100
0001
0010
0100
,
1100
0101
0010
0010
,
1000
0001
1000
0100
,
0020
0000
0000
0000
,
0000
0000
0000
0000
,
0200
0000
0000
0330
,
0110
0000
1000
0001
,
0011
0000
0100
0010
,
1010
0000
0010
1000
,
2200
0000
0000
3300
,
1001
0000
0001
0010
,
0011
0000
1000
0010
,
0110
0000
0100
0001
,
2002
3003
0202
0303
,
1001
0000
0010
0100
,
1100
0000
1000
0001
,
0011
0000
0010
1000
,
2020
0000
0000
3030
,
0110
0000
1000
0100
,
1001
0000
0001
0010
,
0011
0000
0100
0001
,
0022
0033
0220
0330
,
1000
0010
1000
0001
,
0100
0100
0100
0000
,
0010
0010
0010
0000
,
1000
1000
1000
0000
,
0001
0010
0001
0100
,
0010
0010
0010
0000
,
1000
1000
1000
0000
,
0001
0001
0001
0000
,
0010
0001
0010
0100
,
1000
0001
0100
0000
,
0001
0010
0100
0000
,
1000
0001
1000
0000
,
0010
1000
0100
0010
,
0001
0010
1000
0000
,
0100
1000
0010
0000
,
0100
0010
0100
0000
,
0101
0000
1100
0000
,
0001
0010
1000
0000
,
1010
0000
0101
0000
,
0001
0010
0100
0000
,
1100
0000
0011
0000
,
0100
0001
1000
0000
,
1010
0000
0011
0000
,
0010
0001
0100
0000
,
0110
0000
1001
0000
,
0010
1000
0100
0000
,
1001
0000
0110
0000
,
0010
1000
0001
0000
,
1001
0000
1001
0000
,
0010
1000
0100
0000
,
0110
0000
0110
0000
,
0010
0001
0100
0000
,
0010
0010
0010
0010
,
1000
0001
1000
0001
,
1001
0100
0001
0010
,
0100
1000
0001
0100
,
0110
0010
1000
0001
,
0010
0100
1000
0000
,
1100
0001
1000
0010
,
1000
0100
0010
0001
,
0101
0010
1000
0100
,
1000
0010
0001
0000
,
0011
0100
0001
1000
,
0010
1000
0100
0001
,
1010
0100
0010
1000
,
0001
1000
0100
0000
,
0110
0001
0100
0110
,
0010
1000
0001
0100
,
1010
0101
1000
0001
,
0010
0000
0000
0000
,
0001
0100
1000
0010
,
0110
0010
1000
0100
,
1100
0001
1000
0010
,
1001
0100
0001
0010
,
0022
0000
0000
0033
,
1001
0001
0010
0100
,
1100
0010
0100
0010
,
1010
1000
0001
1000
,
2200
3300
0202
0303
,
1001
0001
0010
0001
,
0011
0100
0010
1000
,
1100
0010
0001
0100
,
2020
0000
0000
3030
,
1001
0001
0010
0100
,
1100
0010
1000
0001
,
0011
0100
0010
1000
,
0220
0330
2002
3003
,
1010
0001
0100
1000
,
0101
0001
0010
0100
,
1100
0010
1000
0001
,
0202
0000
0000
0303
,
0011
0001
0100
0010
,
1010
1000
0001
1000
,
1100
0010
0001
0100
,
2020
3030
2200
3300
,
2002
0000
0000
0000
,
0000
0000
0000
0000
,
0000
0000
0000
0000
,
0000
0000
0000
0000
,
3003
0000
0000
0000
;

//---------------dance-single - ----------------
#NOTES:
     dance-single:
     :
     Beginner:
     3:
     0.157033,0.246284,0.083486,0.062615,0.000000,316.000000,292.000000,24.000000,18.000000,0.000000,0.000000,0.157033,0.246284,0.083486,0.062615,0.000000,316.000000,292.000000,24.000000,18.000000,0.000000,0.000000:
// measure 0
0000
0000
0000
0000
,  // measure 1
0000
0000
0000
0000
,  // measure 2
0000
0000
0000
0000
,  // measure 3
0000
0000
0000
0000
,  // measure 4
0000
0000
0000
0000
,  // measure 5
0000
0000
0000
0000
,  // measure 6
0000
0000
0000
0000
,  // measure 7
0001
0000
1000
0000
,  // measure 8
0001
0000
0000
0000
,  // measure 9
0100
0000
0010
0000
,  // measure 10
0100
0000
0000
0000
,  // measure 11
1000
0000
0001
0000
,  // measure 12
1000
0000
0000
0000
,  // measure 13
0010
0000
0100
0000
,  // measure 14
0010
0000
0000
0000
,  // measure 15
1000
0000
1000
0000
,  // measure 16
1000
0000
0000
0000
,  // measure 17
0100
0000
0100
0000
,  // measure 18
0100
0000
0000
0000
,  // measure 19
0010
0000
0010
0000
,  // measure 20
0010
0000
0000
0000
,  // measure 21
0001
0000
0001
0000
,  // measure 22
0001
0000
0000
0000
,  // measure 23
0200
0000
0000
0000
,  // measure 24
0000
0000
0300
0000
,  // measure 25
0020
0000
0000
0000
,  // measure 26
0000
0000
0030
0000
,  // measure 27
1001
0000
1001
0000
,  // measure 28
0010
0010
0010
0000
,  // measure 29
1000
0000
0100
0000
,  // measure 30
1000
0000
0001
0000
,  // measure 31
0010
0000
0100
0000
,  // measure 32
2000
0000
3000
0000
,  // measure 33
0010
0000
1000
0000
,  // measure 34
0010
0000
0100
0000
,  // measure 35
0001
0000
0010
0000
,  // measure 36
0110
0000
0110
0000
,  // measure 37
1000
0000
0001
0000
,  // measure 38
1000
0000
0010
0000
,  // measure 39
0100
0000
0001
0000
,  // measure 40
0020
0000
0030
0000
,  // measure 41
0001
0000
0010
0000
,  // measure 42
0001
0000
0100
0000
,  // measure 43
0010
0000
1000
0000
,  // measure 44
1001
0000
0110
0000
,  // measure 45
1000
0000
0001
0000
,  // measure 46
0010
0000
0001
0000
,  // measure 47
0100
0000
0010
0000
,  // measure 48
1000
0000
0001
0000
,  // measure 49
1000
0000
0100
0000
,  // measure 50
0010
0000
0001
0000
,  // measure 51
0100
0000
0001
0000
,  // measure 52
1000
0000
0010
0000
,  // measure 53
0100
0000
0100
0000
,  // measure 54
0100
0000
0000
0000
,  // measure 55
0010
0000
0010
0000
,  // measure 56
0010
0000
0000
0000
,  // measure 57
1000
0000
1000
0000
,  // measure 58
1000
0000
0000
0000
,  // measure 59
0001
0000
0001
0000
,  // measure 60
0001
0000
0000
0000
,  // measure 61
0020
0000
0030
0000
,  // measure 62
0200
0000
0300
0000
,  // measure 63
1000
0000
0001
0000
,  // measure 64
1000
0000
0010
0000
,  // measure 65
0100
0000
0001
0000
,  // measure 66
0100
0000
0010
0000
,  // measure 67
1000
0000
0100
0000
,  // measure 68
1000
0000
0010
0000
,  // measure 69
0100
0000
0001
0000
,  // measure 70
1000
0000
0001
0000
,  // measure 71
0010
0000
0001
0000
,  // measure 72
0100
0000
0010
0000
,  // measure 73
1000
0000
0100
0000
,  // measure 74
1000
0000
0001
0000
,  // measure 75
1001
0000
0000
1001
,  // measure 76
0000
0010
0000
0100
,  // measure 77
0000
0110
0000
0000
,  // measure 78
0110
0000
0000
0000
,  // measure 79
2000
0000
0000
0000
,  // measure 80
0000
0000
3000
0000
,  // measure 81
0002
0000
0003
0000
,  // measure 82
0010
0000
0001
0000
,  // measure 83
0010
0000
0100
0000
,  // measure 84
1000
0000
0010
0000
,  // measure 85
0200
0000
0300
0000
,  // measure 86
0001
0000
0100
0000
,  // measure 87
0001
0000
0010
0000
,  // measure 88
0100
0000
1000
0000
,  // measure 89
1001
0000
0110
0000
,  // measure 90
0100
0000
0001
0000
,  // measure 91
0010
0000
0100
0000
,  // measure 92
1000
0000
0010
0000
,  // measure 93
2000
0000
3000
0000
,  // measure 94
0010
0000
1000
0000
,  // measure 95
0001
0000
0010
0000
,  // measure 96
0001
0000
0100
0000
,  // measure 97
0110
0000
1001
0000
,  // measure 98
0100
0000
0010
0000
,  // measure 99
0100
0000
0001
0000
,  // measure 100
0010
0000
0100
0000
,  // measure 101
1000
0000
0010
0000
,  // measure 102
1000
0000
0001
0000
,  // measure 103
1000
0000
0100
0000
,  // measure 104
0010
0000
0100
0000
,  // measure 105
0010
0000
0001
0000
,  // measure 106
0100
0000
0001
0000
,  // measure 107
1000
0000
0001
0000
,  // measure 108
0010
0000
0100
0000
,  // measure 109
1000
0000
0010
0000
,  // measure 110
1000
0000
0001
0000
,  // measure 111
1000
0000
0100
0000
,  // measure 112
0010
0000
0001
0000
,  // measure 113
0100
0000
0010
0000
,  // measure 114
1000
0000
1000
0000
,  // measure 115
0001
0000
0000
0000
,  // measure 116
0010
0000
0010
0000
,  // measure 117
0100
0000
0000
0000
,  // measure 118
1000
0000
0001
0000
,  // measure 119
0100
0000
0000
0000
,  // measure 120
0010
0000
1000
0000
,  // measure 121
0100
0000
0000
0000
,  // measure 122
0010
0000
0010
0000
,  // measure 123
0001
0000
0000
0000
,  // measure 124
1000
0000
1000
0000
,  // measure 125
1000
0000
0000
0000
,  // measure 126
0001
0000
0010
0000
,  // measure 127
0001
0000
0000
0000
,  // measure 128
0100
0000
0100
0000
,  // measure 129
0001
0000
0000
0000
,  // measure 130
2000
0000
3000
0000
,  // measure 131
0002
0000
0003
0000
,  // measure 132
0010
0000
0001
0000
,  // measure 133
0100
0000
0010
0000
,  // measure 134
1000
0000
0100
0000
,  // measure 135
0010
0010
0010
0000
,  // measure 136
0001
0000
1000
0000
,  // measure 137
0001
0000
0100
0000
,  // measure 138
0010
0000
1000
0000
,  // measure 139
0100
0100
0100
0000
,  // measure 140
1000
0000
0010
0000
,  // measure 141
0100
0000
0001
0000
,  // measure 142
1000
0000
0001
0000
,  // measure 143
0100
0100
0100
0000
,  // measure 144
0110
0000
0000
0110
,  // measure 145
0000
0010
0000
1000
,  // measure 146
0000
1001
0000
0000
,  // measure 147
1001
0000
0000
0000
,  // measure 148
0010
0000
0100
0000
,  // measure 149
0001
0000
0001
0000
,  // measure 150
1000
0000
1000
0000
,  // measure 151
0001
0000
0010
0000
,  // measure 152
0200
0000
0300
0000
,  // measure 153
1000
0000
1000
0000
,  // measure 154
0010
0000
0100
0000
,  // measure 155
0010
0000
1000
0000
,  // measure 156
1001
0000
1001
0000
,  // measure 157
0001
0000
0010
0000
,  // measure 158
0001
0000
0100
0000
,  // measure 159
0010
0000
1000
0000
,  // measure 160
0200
0000
0300
0000
,  // measure 161
0010
0000
0100
0000
,  // measure 162
0010
0000
0001
0000
,  // measure 163
1000
0000
0010
0000
,  // measure 164
0110
0000
0110
0000
,  // measure 165
0100
0000
0001
0000
,  // measure 166
1000
0000
0001
0000
,  // measure 167
0010
0000
0100
0000
,  // measure 168
0220
0000
0330
0000
,  // measure 169
1000
0000
0010
0000
,  // measure 170
1000
0000
0001
0000
,  // measure 171
0010
0000
0100
0000
,  // measure 172
1000
0000
0010
0000
,  // measure 173
2002
0000
0000
0000
,  // measure 174
0000
0000
0000
0000
,  // measure 175
0000
0000
0000
0000
,  // measure 176
0000
0000
0000
0000
,  // measure 177
3003
0000
0000
0000
;
