#VERSION:0.83;
#TITLE:ROCK BEAT;
#SUBTITLE:(Extended Mix);
#ARTIST:LOUD FORCE;
#TITLETRANSLIT:;
#SUBTITLETRANSLIT:;
#ARTISTTRANSLIT:;
#GENRE:;
#ORIGIN:;
#CREDIT:;
#BANNER:ROCK BEAT (Extended Mix)-bn.png;
#BACKGROUND:ROCK BEAT (Extended Mix)-bg.png;
#PREVIEWVID:;
#JACKET:ROCK BEAT (Extended Mix)-jacket.png;
#CDIMAGE:;
#DISCIMAGE:;
#LYRICSPATH:;
#CDTITLE:;
#MUSIC:ROCK BEAT (Extended Mix).ogg;
#OFFSET:0.000000;
#SAMPLESTART:289.600006;
#SAMPLELENGTH:20.000000;
#SELECTABLE:YES;
#DISPLAYBPM:150.000000;
#BPMS:0.000=150.000;
#STOPS:;
#DELAYS:;
#WARPS:;
#TIMESIGNATURES:0.000=4=4;
#TICKCOUNTS:0.000=4;
#COMBOS:0.000=1;
#SPEEDS:0.000=1.000=0.000=0;
#SCROLLS:0.000=1.000;
#FAKES:;
#LABELS:0.000=Song Start;
#BGCHANGES:;
#KEYSOUNDS:;
#ATTACKS:
;

//---------------dance-single - ----------------
#NOTEDATA:;
#CHARTNAME:;
#STEPSTYPE:dance-single;
#DESCRIPTION:;
#CHARTSTYLE:;
#DIFFICULTY:Challenge;
#METER:16;
#RADARVALUES:0.764463,0.901448,0.293794,0.005246,0.440690,2040.000000,1928.000000,112.000000,2.000000,0.000000,0.000000,0.000000,0.000000,0.000000,0.764463,0.901448,0.293794,0.005246,0.440690,2040.000000,1928.000000,112.000000,2.000000,0.000000,0.000000,0.000000,0.000000,0.000000;
#CREDIT:;
#DISPLAYBPM:150.000000;
#NOTES:
// measure 0
0000
0000
0000
0000
,  // measure 1
0000
0000
0000
0000
,  // measure 2
0000
0000
0000
0000
,  // measure 3
0000
0000
0000
0000
,  // measure 4
0000
0000
0000
0000
,  // measure 5
0000
0000
0000
0000
,  // measure 6
0000
0000
0000
0000
,  // measure 7
0001
0000
1000
0000
,  // measure 8
0001
0010
0100
1000
0000
0000
0000
0000
,  // measure 9
0010
0000
0100
0000
,  // measure 10
0001
1000
0001
0100
0000
0110
0000
0000
,  // measure 11
0001
0000
1000
0000
,  // measure 12
0001
0010
0100
1000
0000
0000
0000
0000
,  // measure 13
0010
0000
0100
0000
,  // measure 14
0010
1000
0001
1000
0000
1001
0000
0000
,  // measure 15
0001
0100
0000
0010
1000
0100
0000
1000
,  // measure 16
0010
0100
0010
1000
0100
0010
0001
1000
,  // measure 17
0001
0100
0000
0010
1000
0001
0000
0010
,  // measure 18
0100
0010
0001
0100
0001
1000
0010
0100
,  // measure 19
0001
0010
0000
0100
1000
0010
0000
0100
,  // measure 20
0010
1000
0001
1000
0100
0010
0100
1000
,  // measure 21
0010
0100
0000
0010
1000
0001
0000
1000
,  // measure 22
0100
0010
0001
0100
0010
1000
0001
0010
,  // measure 23
1100
0101
0010
1000
,  // measure 24
0001
0000
0000
0000
0000
0000
0000
0000
0010
0000
1000
0001
1000
0000
0100
0000
,  // measure 25
0000
0000
0000
0010
0000
0000
0001
0000
0000
0100
0000
0000
0000
0000
0000
0010
0000
1000
0000
0100
0000
1000
0000
0000
,  // measure 26
0000
0001
0100
0000
0000
0010
1000
0000
0100
0000
0000
0000
0000
0000
0000
0000
,  // measure 27
1001
0000
0000
0000
1001
0000
0010
1000
,  // measure 28
0100
0000
0010
0000
0001
0000
0100
0000
0010
0000
1000
0001
0100
0000
0010
0000
,  // measure 29
1010
0000
0001
0000
0010
0000
0100
1000
0010
0000
0100
0000
0001
0000
1000
0000
,  // measure 30
0101
0000
0001
0000
0010
0000
0100
1000
0010
0000
0100
0000
0001
0000
1000
0000
,  // measure 31
1100
0000
0010
0000
0001
0000
0100
0010
1000
0000
0001
0000
0010
0000
0100
0000
,  // measure 32
2100
0001
0000
0001
3001
0100
0010
1000
,  // measure 33
1001
0000
0001
0000
0010
0000
0001
1000
0100
0000
1000
0000
0010
0000
0100
0000
,  // measure 34
0110
0000
0001
0000
0010
0000
0100
1000
0010
0000
1000
0000
0001
0000
0100
0000
,  // measure 35
0101
0000
0010
0000
1000
0000
0100
0010
0001
0000
0100
0000
0010
0000
1000
0000
,  // measure 36
1100
0001
0100
1010
0001
0100
0010
1000
,  // measure 37
1001
0000
0010
0000
1000
0000
0001
0100
0010
0000
1000
0000
0100
0000
0010
0000
,  // measure 38
0011
0000
1000
0000
0100
0000
1000
0001
0010
0000
0100
0000
1000
0000
0010
0000
,  // measure 39
0101
0000
0010
0000
0100
0000
0001
1000
0100
0000
1000
0000
0010
0000
0100
0000
,  // measure 40
0102
1000
0000
1000
1003
0001
0010
0100
,  // measure 41
1100
0000
0010
0000
0100
0000
0010
1000
0001
0000
1000
0000
0100
0000
0010
0000
,  // measure 42
0011
0000
0100
0000
0001
0000
0010
0100
1000
0000
0010
0000
1000
0000
0001
0000
,  // measure 43
0110
0000
1000
0000
0010
0000
0100
0010
1000
0000
0001
0000
0010
0000
0100
0000
,  // measure 44
1100
1000
0010
0101
1000
0001
0010
0100
,  // measure 45
1000
0010
0100
0001
0010
0100
1000
0001
,  // measure 46
0100
1000
0100
0001
0100
0010
1000
0000
,  // measure 47
0001
0010
0100
0010
0100
0010
0001
0000
,  // measure 48
1000
0001
0010
1000
0010
0001
0100
0000
,  // measure 49
0010
1000
0010
0100
0010
1000
0001
0010
,  // measure 50
1000
0010
0100
0010
1000
0010
0001
0000
,  // measure 51
0100
0001
1000
0001
0100
0010
1000
0000
,  // measure 52
0100
0010
0001
0100
0001
1000
0010
0000
,  // measure 53
0110
0001
0010
0100
1001
0100
0001
0000
,  // measure 54
0010
0000
0001
0000
0100
0000
0001
1000
0010
0000
0100
0000
0001
0000
0000
0000
,  // measure 55
1010
1000
0001
0100
0110
0001
0100
0000
,  // measure 56
0010
0000
1000
0000
0001
0000
0010
0001
0100
0000
0010
0000
1000
0000
0000
0000
,  // measure 57
1001
0010
1000
0100
1100
0001
1000
0000
,  // measure 58
0001
0000
1000
0000
0010
0000
1000
0100
0010
0000
0001
0000
1000
0000
0000
0000
,  // measure 59
0110
0001
0010
0001
1001
1000
0001
0000
,  // measure 60
0010
0001
0100
0001
1000
0010
0100
0001
,  // measure 61
0010
0001
0010
1000
0010
0001
0010
1000
,  // measure 62
0010
0001
0010
1000
0010
0001
0010
0100
,  // measure 63
1100
0000
0000
0000
0000
0000
0010
0000
1000
0010
0100
0001
0000
0000
0000
0000
,  // measure 64
0000
0010
0000
0001
0100
0000
0010
1000
0000
0001
0000
1000
0100
0000
0010
0000
,  // measure 65
0011
0000
0000
0000
0000
0000
1000
0000
0001
0100
0010
1000
0000
0000
0000
0000
,  // measure 66
0010
1000
0000
1000
0100
0000
0010
0000
0001
0100
0001
0000
1000
0100
1000
0000
,  // measure 67
1010
0000
0000
0000
0000
0000
0100
0000
0001
1000
0001
0010
0100
0000
0000
0000
,  // measure 68
0000
1000
0000
0010
0100
0000
0010
1000
0000
0001
0000
0100
0001
0000
0010
0000
,  // measure 69
0110
0000
0000
0000
0000
0000
1000
0000
0100
1000
0001
0010
0000
0000
0100
0000
,  // measure 70
0010
0000
0001
1000
0000
0010
0000
0100
0000
0100
0000
0100
0001
0000
1000
0000
,  // measure 71
0101
0000
0000
0000
0000
0000
0010
0000
1000
0001
1000
0100
0000
0000
0010
0000
,  // measure 72
0001
0000
0100
0010
0000
1000
0000
0001
0000
1000
0000
0100
0010
0001
0100
0000
,  // measure 73
0110
0000
0000
0000
0000
0000
0010
0000
1000
0100
0010
0100
1000
0000
0000
0000
,  // measure 74
0001
0100
0000
0100
0010
0000
1000
0001
0000
1000
0000
0010
1000
0000
0100
0000
,  // measure 75
1001
0000
0000
0000
0000
0000
0010
0100
0000
0001
1000
0000
1001
0000
0000
0000
,  // measure 76
0000
0010
0000
1000
0001
0000
1000
0100
0000
0100
0010
0000
0001
0000
1000
0000
,  // measure 77
1010
0110
0101
0000
1001
0100
0010
1000
,  // measure 78
0001
0010
0001
0100
0001
0010
1000
0001
,  // measure 79
0100
0001
1000
0100
0010
0001
0010
0100
1000
0010
1000
0001
,  // measure 80
1000
0100
0010
0001
1000
0001
0100
0010
1000
0001
0010
0100
,  // measure 81
1000
0010
0100
0010
0100
0001
1000
0000
,  // measure 82
1100
0000
0010
0000
0001
0000
0100
0010
1000
0000
0001
0010
0100
0000
1000
0000
,  // measure 83
1001
0000
0001
0000
0010
0000
0001
1000
0010
0000
0100
0010
1000
0000
0001
0000
,  // measure 84
0011
0000
0010
0000
0100
0000
1000
0010
1000
0000
0001
0010
0100
0000
1000
0000
,  // measure 85
1010
0100
0010
0100
0001
0010
0001
1000
,  // measure 86
0110
0000
0001
0000
0010
0000
0001
1000
0010
0000
1000
0100
0010
0000
0001
0000
,  // measure 87
0011
0000
0100
0000
0010
0000
1000
0001
1000
0000
0100
0010
0001
0000
1000
0000
,  // measure 88
1010
0000
0001
0000
1000
0000
0001
0010
0100
0000
1000
0001
0100
0000
0010
0000
,  // measure 89
0110
0001
1000
0110
1000
0001
0010
0100
,  // measure 90
1001
0000
0010
0000
1000
0000
0001
1000
0100
0000
0010
0001
1000
0000
0100
0000
,  // measure 91
1100
0000
0010
0000
1000
0000
0001
1000
0100
0000
0010
0001
0100
0000
0010
0000
,  // measure 92
0101
0000
1000
0000
0001
0000
0010
0100
1000
0000
0010
0100
0001
0000
1000
0000
,  // measure 93
1001
0100
0010
0100
0010
1000
0001
0100
,  // measure 94
0101
0000
0001
0000
0010
0000
0100
0010
0001
0000
1000
0001
1000
0000
0100
0000
,  // measure 95
1100
0000
0010
0000
0100
0000
1000
0010
0100
0000
0001
1000
0010
0000
0100
0000
,  // measure 96
1010
0000
0001
0000
1000
0000
0001
0010
0100
0000
0010
0001
1000
0000
0010
0000
,  // measure 97
0101
1000
0010
1100
0010
0001
0100
1000
,  // measure 98
0001
0100
0010
0100
0001
0010
0100
1000
,  // measure 99
0010
1000
0001
1000
0100
0010
0001
0000
,  // measure 100
0100
0001
0010
0001
0010
0100
1000
0000
,  // measure 101
0010
1000
0001
0010
0100
1000
0010
0000
,  // measure 102
0100
0001
0010
0001
1000
0001
0010
0100
,  // measure 103
1000
0010
1000
0100
0010
0001
0100
0000
,  // measure 104
0001
0010
0001
0100
1000
0010
0001
0000
,  // measure 105
1000
0001
1000
0010
0100
0001
1000
0000
,  // measure 106
0001
1000
1000
0010
0010
0100
0100
0001
,  // measure 107
1000
0100
0001
0010
1000
0100
0001
0010
,  // measure 108
0010
0100
0100
1000
0010
0001
0001
1000
,  // measure 109
1000
0100
0010
0100
0001
1000
0001
0010
,  // measure 110
0100
0001
0001
1000
0010
0100
0010
1000
,  // measure 111
0010
1000
0010
0100
0100
1000
0001
0001
,  // measure 112
0100
0010
0001
0100
0010
0001
1000
1000
,  // measure 113
0100
0010
1000
0010
1000
0001
0100
0001
,  // measure 114
0011
0100
1000
0010
1001
0100
0010
1000
,  // measure 115
0100
0000
0010
0000
0001
0000
0100
0010
1000
0000
0001
0000
0010
0000
0000
0000
,  // measure 116
1100
0010
1000
0001
0101
0010
1000
0001
,  // measure 117
1000
0100
1000
0000
0010
0000
0100
0001
1000
0000
0010
0000
0100
0000
0000
0000
,  // measure 118
0101
1000
0001
0010
0011
0100
1000
0010
,  // measure 119
0100
0000
0001
0000
1000
0000
0010
1000
0100
0000
0010
0000
0001
0000
0000
0000
,  // measure 120
0101
1000
0001
0010
1001
0100
0010
1000
,  // measure 121
0100
0010
0100
0000
1000
0000
0001
0100
0010
0000
1000
0000
0001
0000
0000
0000
,  // measure 122
0011
0000
0010
0100
1000
0000
0001
0000
1010
0000
0100
0001
1000
0000
0010
0000
,  // measure 123
0100
0000
0001
0000
0010
0000
0100
1000
0010
0000
1000
0000
0001
0000
0100
0000
,  // measure 124
0110
0000
0010
1000
0100
0000
0010
0000
0011
0000
1000
0001
1000
0000
0010
0000
,  // measure 125
0100
0001
0100
0010
1000
0000
0100
0010
0001
0000
1000
0000
0001
0000
0100
0000
,  // measure 126
1001
0000
0010
1000
0001
0000
1000
0000
1100
0000
0010
0001
0100
0000
0010
0000
,  // measure 127
1000
0000
0001
0000
0010
0000
0100
1000
0010
0000
1000
0000
0001
0000
0100
0000
,  // measure 128
0110
0000
0010
1000
0001
0000
0100
0000
1010
0000
0001
1000
0100
0000
0010
0000
,  // measure 129
0001
0000
0100
0000
0010
0000
1000
0001
1000
0000
0100
0000
0010
0000
0001
0000
,  // measure 130
0011
1010
0011
1010
,  // measure 131
0101
1100
0101
1100
,  // measure 132
1001
0000
0010
0000
1000
0000
0100
0000
1000
0010
0100
0001
1000
0000
0000
0000
,  // measure 133
0001
0010
0000
0010
0100
0000
1000
0010
0000
0100
0000
0010
1000
0000
0001
0000
,  // measure 134
0011
0000
0100
0000
1000
0000
0010
0000
0100
0001
1000
0001
0010
0000
0000
0000
,  // measure 135
0100
1000
0001
0000
0100
0000
0010
0000
1000
0000
0100
0000
0001
0000
0000
0000
,  // measure 136
0011
0000
1000
0000
0001
0000
0100
0000
0010
1000
0100
0010
0001
0000
0000
0000
,  // measure 137
1000
0010
0000
0100
0001
0000
0010
0100
0000
0100
0000
0100
1000
0001
1000
0000
,  // measure 138
1010
0000
0010
0000
0100
0000
0001
0000
1000
0010
1000
0001
0100
0000
0000
0000
,  // measure 139
0010
1000
0100
0000
1000
0000
0001
0000
0010
0000
0100
0000
1000
0000
0000
0000
,  // measure 140
1100
0000
0001
0000
1000
0000
0010
0000
0100
0001
0010
0100
1000
0000
0001
0000
,  // measure 141
0100
0001
0000
0010
0100
0000
1000
0001
0000
1000
0000
0010
0100
0001
1000
0000
,  // measure 142
1010
0000
0100
0000
0001
0000
0010
0000
0100
1000
0001
1000
0010
0000
0000
0000
,  // measure 143
0100
0001
0010
0000
0100
0000
1000
0000
0001
0000
1000
0000
0010
0000
0000
0000
,  // measure 144
0110
0000
0001
0000
1000
0000
0100
0010
0000
0001
1000
0000
0110
0000
0001
0000
,  // measure 145
0100
0000
0010
0000
1000
0000
0100
0010
0000
0010
0001
0000
1000
0000
0001
0000
,  // measure 146
0011
0110
1100
0010
1000
0100
1000
0001
,  // measure 147
0101
0010
1000
0100
1000
0001
0100
0010
,  // measure 148
1000
0100
0001
0100
0010
0100
1000
0001
,  // measure 149
1001
0000
0010
1000
0100
0000
0010
0001
0100
0000
0010
1000
0001
0000
0100
0000
,  // measure 150
0110
0000
0010
1000
0010
0000
1000
0001
0010
0000
0001
1000
0001
0000
0100
0000
,  // measure 151
0101
0000
0001
0010
0100
0000
1000
0010
1000
0000
0100
0010
0001
0000
1000
0000
,  // measure 152
0001
0100
0010
0100
0001
0100
0010
0100
0001
0100
0010
0100
0001
0100
0010
0000
,  // measure 153
1010
0000
0001
1000
0001
0000
0100
0010
0100
0000
0001
0010
0100
0000
1000
0000
,  // measure 154
1100
0000
0010
0001
0100
0000
0001
1000
0010
0000
1000
0100
0010
0000
0001
0000
,  // measure 155
0101
0000
0001
1000
0001
0000
0010
0100
1000
0000
0010
0100
0001
0000
1000
0000
,  // measure 156
0001
0010
0100
1000
0010
0000
1000
0001
0010
0100
1000
0000
0010
0000
0100
0000
,  // measure 157
0110
0000
0001
0100
0010
0000
1000
0001
0010
0000
0100
1000
0010
0000
0100
0000
,  // measure 158
0101
0000
0001
0010
0001
0000
1000
0100
1000
0000
0010
0100
0001
0000
1000
0000
,  // measure 159
1010
0000
0001
1000
0100
0000
1000
0010
0100
0000
0001
0010
0100
0000
1000
0000
,  // measure 160
0010
1000
0100
1000
0010
1000
0100
1000
0010
1000
0100
1000
0010
1000
0100
0000
,  // measure 161
0011
0000
0001
0010
0100
0000
1000
0001
1000
0000
0010
0100
0001
0000
1000
0000
,  // measure 162
1100
0000
0010
0100
0010
0000
0001
0100
0010
0000
1000
0001
1000
0000
0100
0000
,  // measure 163
1010
0000
0100
0001
0010
0000
0100
1000
0001
0000
1000
0010
0100
0000
0001
0000
,  // measure 164
0010
0100
1000
0010
0100
0000
0001
1000
0001
0010
0100
0000
1000
0000
0001
0000
,  // measure 165
0100
1000
0001
0001
0100
0010
1000
0010
,  // measure 166
0001
0100
0100
0001
0010
1000
1000
0010
,  // measure 167
0001
1000
0010
0100
0100
1000
0001
0010
,  // measure 168
1000
0100
0100
0001
0010
0001
0010
1000
,  // measure 169
0100
0100
1000
0001
0010
1000
0001
0010
,  // measure 170
0001
1000
0100
1000
0010
0010
0001
0100
,  // measure 171
0100
0100
0010
0001
1000
1000
0010
0001
,  // measure 172
0001
0100
0100
1000
0001
0010
0010
1000
,  // measure 173
0001
1000
0010
0001
0010
0100
0100
1000
,  // measure 174
0100
0100
0001
1000
1000
0001
0010
0010
,  // measure 175
0010
0010
0001
1000
0001
1000
0100
0100
,  // measure 176
0100
0100
1000
0001
0001
0010
1000
0010
,  // measure 177
0001
1000
0100
0001
0010
0010
1000
0100
,  // measure 178
0100
0100
1000
0010
1000
0001
0001
0010
,  // measure 179
1000
0100
0001
0001
0100
1000
0010
0010
,  // measure 180
0100
0010
1000
0001
0100
1000
0001
0010
,  // measure 181
0100
1000
0010
1000
0001
0000
0010
0000
0100
1000
0001
1000
0100
0000
0000
0000
,  // measure 182
0010
0001
0010
0100
1000
0000
0001
0000
0100
0000
0010
0000
1000
0000
0000
0000
,  // measure 183
0010
1000
0100
1000
0010
0000
0100
0000
0001
0010
0001
1000
0001
0000
0000
0000
,  // measure 184
0100
0001
0010
0100
1000
0000
0010
0000
0100
0000
0001
0000
1000
0000
0000
0000
,  // measure 185
0010
1000
0001
1000
0010
0000
0100
0000
0001
0010
0100
0010
0001
0000
0000
0000
,  // measure 186
1000
0100
0010
0001
0100
0000
0001
0000
1000
0000
0010
0000
0100
0000
0000
0000
,  // measure 187
0001
0010
0100
0010
0001
0000
1000
0000
0010
1000
0100
1000
0001
0000
0000
0000
,  // measure 188
1000
0010
0100
0010
1000
0000
0001
0000
0010
0000
0100
0000
1000
0000
0000
0000
,  // measure 189
0001
0000
0010
0100
1000
0000
0010
1000
0001
0000
1000
0100
0010
0000
0001
0000
,  // measure 190
1000
0010
0100
0010
1000
0000
0001
1000
0100
0000
0010
0000
0001
0000
0100
0000
,  // measure 191
0010
0000
1000
0001
1000
0000
0100
0010
0001
0000
0100
0010
1000
0000
0001
0000
,  // measure 192
0010
0001
0010
0100
1000
0000
0001
1000
0010
1000
0100
0000
0010
0000
0001
0000
,  // measure 193
0100
0000
0010
1000
0100
0000
1000
0001
0010
0000
0100
0010
0001
0000
1000
0000
,  // measure 194
0010
0100
0010
1000
0001
0000
0100
0010
1000
0000
0001
0000
1000
0000
0100
0000
,  // measure 195
0010
0000
0100
0010
0001
0000
1000
0001
0100
0000
0010
1000
0100
0000
0010
0000
,  // measure 196
0001
1000
0010
1000
0100
0000
0010
0001
0100
0010
1000
0000
0001
0000
0100
0000
,  // measure 197
0010
0000
1000
0001
1000
0000
0100
0010
0001
0000
0100
0010
1000
0000
0001
0000
,  // measure 198
1000
0100
0010
0001
0010
0000
0100
1000
0010
0000
0100
0001
1000
0000
0010
0000
,  // measure 199
0100
0001
0010
0100
1000
0000
0001
0000
1000
0001
0010
0100
1000
0000
0001
0000
,  // measure 200
0100
0010
0100
0001
1000
0000
0010
1000
0100
0010
0001
0000
1000
0001
0100
0000
,  // measure 201
0001
0010
0100
1000
0010
0000
0100
0000
0010
1000
0001
1000
0100
0000
0010
0000
,  // measure 202
0100
0010
0001
0010
0100
0000
1000
0001
1000
0000
0010
0100
0001
0000
1000
0000
,  // measure 203
0001
0000
1000
0010
0100
0000
0010
1000
0001
0000
0010
0100
1000
0000
0001
0100
,  // measure 204
0010
0000
1000
0001
1000
0000
0100
0000
0010
0001
0100
0010
1000
0000
0001
0000
,  // measure 205
0101
0000
0000
0000
1000
0010
1000
0000
0000
0000
0100
0000
0010
0000
0001
0000
,  // measure 206
0100
0000
0000
0000
0001
1000
0001
0000
0000
0000
0100
0000
0010
0000
1000
0000
,  // measure 207
0100
0000
0000
0000
0010
0001
0010
0000
0000
0000
0100
0000
1000
0000
0010
0000
,  // measure 208
0100
0000
0000
0000
0001
0010
0001
0000
0000
0000
1000
0000
0100
0000
0010
0000
,  // measure 209
0001
0000
0000
0000
0100
0010
0100
0000
0000
0000
0010
0000
1000
0000
0001
0000
,  // measure 210
1000
0000
0000
0000
0001
0100
0001
0000
0000
0000
0010
0000
0100
0000
1000
0000
,  // measure 211
0010
0000
0000
0000
0100
0001
0100
0000
0000
0000
0001
0000
1000
0000
0010
0000
,  // measure 212
1000
0000
0000
0000
0100
1000
0100
0000
0000
0000
0010
0000
0001
0000
0100
0000
,  // measure 213
0010
0000
0000
1000
0001
0000
1000
0000
0000
0000
0100
0000
0000
0000
0010
0000
,  // measure 214
0001
0000
0000
0100
0010
0000
0100
0000
0000
0000
0001
0000
0000
0000
1000
0000
,  // measure 215
0100
0000
0000
1000
0001
0000
0100
0000
0000
0000
0010
0000
0000
0000
1000
0000
,  // measure 216
0100
0000
0000
0010
0100
0000
1000
0000
0000
0000
0001
0000
0000
0000
0010
0000
,  // measure 217
0001
0000
0000
0100
0010
0000
1000
0000
0000
0000
0001
0000
0000
0000
1000
0000
,  // measure 218
0100
0000
0000
0010
0100
0000
1000
0000
0000
0000
0001
0000
0000
0000
1000
0000
,  // measure 219
0001
0000
0000
1000
0100
0000
0010
0000
0000
0000
0010
0000
0000
0000
0001
0000
,  // measure 220
0100
0000
0000
0010
1000
0000
0001
0000
0000
0000
1000
0000
0000
0000
0100
0000
,  // measure 221
0010
0000
0000
0001
0100
0000
0010
0000
1000
0000
0100
0000
1000
0000
0001
0000
,  // measure 222
0100
0000
0000
0010
0100
0000
0001
0000
1000
0000
0100
0000
0010
0000
0001
0000
,  // measure 223
1000
0000
0000
0001
1000
0000
0010
0000
0100
0000
0001
0000
0010
0000
0100
0000
,  // measure 224
1000
0000
0000
0010
1000
0000
0001
0000
0010
0000
0100
0000
0010
0000
0001
0000
,  // measure 225
1000
0000
0000
0100
1000
0000
0010
0000
0100
0000
0001
0000
0010
0000
0001
0000
,  // measure 226
1000
0000
0000
0010
1000
0000
0100
0000
0010
0000
0001
0000
0100
0000
0001
0000
,  // measure 227
1000
0000
0000
0010
1000
0000
0100
0000
0010
0000
0001
0000
0100
0000
0001
0000
,  // measure 228
1000
0000
0000
0001
0010
0000
0001
0000
0100
0000
0010
0000
1000
0000
0001
0000
,  // measure 229
0010
0000
0000
0010
0100
0000
1000
0000
0010
0000
0100
0000
0010
0000
1000
0000
,  // measure 230
0001
0000
0000
0010
0001
0000
0100
0000
0010
0000
1000
0000
0001
0000
1000
0000
,  // measure 231
0100
0000
0000
0100
0010
0000
0001
0000
0100
0000
0010
0000
1000
0000
0001
0000
,  // measure 232
0010
0000
0000
0001
1000
0000
0010
0000
0000
0000
1000
0000
0100
0000
0010
0000
,  // measure 233
0001
0000
0000
0001
0000
0000
0001
0000
0000
0000
1000
0000
0000
0000
0010
0000
,  // measure 234
0100
0000
0000
0100
0000
0000
0100
0000
0000
0000
0001
0000
0000
0000
0010
0000
,  // measure 235
0100
0000
0000
0100
0000
0000
0100
0000
0000
0000
1000
0000
0000
0000
0001
0000
,  // measure 236
1000
0000
0000
0010
1000
0000
0001
0000
0000
0000
0010
0000
0100
0000
1000
0000
,  // measure 237
1001
0000
0000
0000
;
