#TITLE:RIGHT NOW;
#ARTIST:ATOMIC KITTEN;
#BANNER:RIGHT NOW.png;
#BACKGROUND:RIGHT NOW-bg.png;
#JACKET:RIGHT NOW-jacket.png;
#MUSIC:RIGHT NOW.ogg;
#SAMPLESTART:49.833;
#SAMPLELENGTH:20;
#DISPLAYBPM:130;
#BPMS:0=130.01;
#BGCHANGES:;

//---------------dance-single - ----------------
#NOTES:
     dance-single:
     :
     Beginner:
     3:
     :
0000
0000
0000
0000
,
0000
0000
0000
0000
,
0000
0000
0000
0000
,
1001
0000
0000
0000
,
0000
0000
0001
0000
,
0100
0100
0000
0000
,
0000
0000
0010
0000
,
1000
1000
0000
0000
,
0000
0000
0100
0000
,
1000
0000
0000
0000
,
0001
0001
0001
0000
,
0010
0000
0001
0000
,
0100
0000
0000
0000
,
0010
0000
0100
0000
,
0001
0000
1000
0000
,
0100
0000
0010
0000
,
0100
0000
0000
0000
,
1000
0000
0001
0000
,
0100
0100
0100
0000
,
0010
0000
1000
0000
,
0001
0000
0010
0000
,
0001
0000
0100
0000
,
0010
0000
1000
0000
,
0100
0000
0100
0000
,
0100
0000
1000
0000
,
0001
0000
1000
0000
,
0010
0010
0010
0000
,
1000
0000
0001
0000
,
0100
0100
0000
0000
,
0010
0010
0000
0000
,
0000
0000
0100
0000
,
0001
0001
0000
0000
,
0000
0000
1000
0000
,
0001
0001
0000
0000
,
0010
0000
0100
0000
,
1000
0000
0010
0000
,
1000
0000
0001
0000
,
0100
0000
0000
0010
,
0010
0000
1000
0000
,
0100
0000
0000
0000
,
0010
0000
0010
0000
,
0001
0001
0000
0000
,
0001
0000
1000
0000
,
0010
0000
0010
0000
,
1000
1000
0000
0000
,
0001
0001
0000
0000
,
0000
0000
1000
0000
,
0010
0010
0000
0000
,
0000
0000
0100
0000
,
0001
0001
0000
0000
;

//---------------dance-single - ----------------
#NOTES:
     dance-single:
     :
     Easy:
     6:
     :
0000
0000
0000
0000
,
0000
0000
0000
0000
,
0000
0000
0000
0000
,
1000
0000
1000
0000
,
1000
0100
0001
0100
,
1000
1000
0010
0100
,
0001
0000
0001
0000
,
0001
0100
1000
0100
,
0001
0000
0001
0000
,
0100
0000
0100
0000
,
0010
0000
1000
0001
,
0100
0100
0001
0000
,
0100
0100
0010
0000
,
0001
0001
1000
0000
,
0001
0001
0100
0010
,
1000
0100
0001
0100
,
1000
0100
0001
0100
,
0010
0000
1000
0000
,
0010
1000
0001
0100
,
0001
0001
1000
0100
,
1000
0001
0100
0100
,
0010
1000
1000
0001
,
0100
0010
1000
0001
,
0100
0001
0010
1000
,
0100
0001
0010
1000
,
0100
0000
0001
0000
,
1000
0010
0100
1001
,
0100
0100
0100
0100
,
0001
0000
1000
0100
,
1000
0000
1000
0000
,
0001
1000
1000
0010
,
0100
0000
0100
0001
,
1000
1000
0000
0100
,
1000
1001
0010
0100
,
0001
0100
0010
1001
,
0100
0001
1000
1000
,
0010
0000
0010
1001
,
0100
0001
1000
0001
,
0100
0010
1000
0001
,
0100
0000
0100
1001
,
1000
0001
0100
0010
,
1000
0110
0010
1000
,
0001
0001
0001
1000
,
0010
0110
1000
1001
,
0001
1000
0100
0110
,
0001
1000
0010
0110
,
0010
1001
0001
0100
,
0001
1000
0010
1000
,
1000
0001
0100
0010
,
1000
1001
0000
0000
;

//---------------dance-single - ----------------
#NOTES:
     dance-single:
     :
     Medium:
     8:
     :
0000
0000
0000
0000
,
0000
0000
0000
0000
,
0000
0000
0000
0000
,
1000
0010
1000
0000
0100
0000
0010
0000
,
0001
1000
0001
0000
0100
0000
0010
0000
,
0100
0001
1000
0010
,
0100
0001
0001
1000
,
0100
0000
0100
0000
1000
0001
0100
0000
,
1000
0100
1000
0000
0100
0000
1001
0000
,
0100
0001
0010
0001
,
1000
0010
1000
0100
,
1000
0000
0001
1000
0001
0000
0100
0000
,
0010
1000
0010
1000
,
0001
0000
0001
0010
0001
0000
1000
0000
,
0100
1000
0001
1001
,
1000
0000
1000
0010
1000
0000
0001
0000
,
0100
0000
0010
0000
1000
0001
1000
0000
,
0010
0110
1000
1001
,
0100
1100
0100
0101
,
0100
0010
0100
0000
0001
1000
0001
0000
,
1000
0100
0001
0100
,
0001
0010
0001
0000
1000
0100
1000
0000
,
0010
1000
0001
1001
,
1000
0100
0001
0000
0001
0100
1000
0000
,
0010
0000
0100
0001
1000
0000
1001
0000
,
0100
0110
0001
1001
,
0101
1100
1001
1001
,
1000
0000
1000
0000
1000
0010
1000
0010
,
1000
0001
0100
0100
,
0010
0000
0100
1001
,
0100
0101
1000
1100
,
0010
0011
1000
1010
,
0001
0100
0010
1000
,
0010
0100
0000
0110
,
1000
0010
0100
0001
,
1000
0010
0100
0000
1000
0001
0100
0000
,
1000
0000
0100
1000
,
0001
1000
0100
1001
,
0001
0101
1000
1001
,
0010
0000
0010
0000
0001
1000
0001
0000
,
0010
0001
1000
0000
0100
0000
0110
0000
,
0001
1001
0100
0001
,
1000
0000
1000
0001
1000
0000
0110
0000
,
0010
1000
0100
0000
0001
1000
0010
0000
,
0100
0010
1000
0001
,
1000
0000
1001
0000
0100
0010
1000
0000
,
0001
0100
1000
0000
0001
0100
1000
0100
,
0001
0000
0001
1001
,
1010
0101
1000
1000
,
0001
0100
0000
0000
;

//---------------dance-single - ----------------
#NOTES:
     dance-single:
     :
     Hard:
     10:
     :
0000
0000
0000
0000
,
0000
0000
0000
0000
,
0000
0000
0000
0000
,
0100
0000
0100
0000
0100
0100
0100
0000
,
0001
0000
1000
0000
0001
0010
0100
1000
,
0010
0000
0100
0000
0001
0100
1000
0100
,
0001
0100
1000
0100
0001
0001
0001
0000
,
1000
0000
0100
0000
0010
0001
0100
0001
,
1000
0001
0100
0001
0010
0001
0001
0000
,
1000
0000
0010
0010
1000
0010
1000
0010
,
1000
0010
0100
0001
1000
1000
1000
0001
,
0100
0010
0100
0000
0001
0000
0010
0000
,
0100
0000
1000
0001
0100
0001
0100
0001
,
1000
0100
0001
0000
0100
0000
1000
0010
,
0100
1001
0100
1001
,
1000
0010
0100
0000
0001
0010
0100
0000
,
1000
0000
1000
0000
0010
0000
0100
0001
,
0100
0101
1000
1100
,
1001
1001
1001
1001
,
0100
0010
0001
0000
1000
0010
0100
0000
,
0001
0100
0010
1000
0001
0100
0101
0000
,
1001
1000
0010
0100
0001
0100
0001
1000
,
0100
1000
0010
0100
0100
0001
0001
0000
,
1000
0000
1000
0000
0001
0100
1000
0000
,
0001
0100
1000
0100
0010
1000
1000
0001
,
0100
0101
1000
1100
,
1000
0000
1000
0000
1010
1001
1100
0100
,
1000
0010
0100
0001
1000
0010
0100
0001
,
1000
0000
1000
0000
1000
0010
1000
0001
,
0100
0000
0100
0000
0001
0010
0100
1000
,
0001
0010
1000
0010
0001
0000
1001
0000
,
0100
0000
0110
0000
1000
0001
1000
0000
,
0100
0000
0010
0000
0100
0010
0100
0010
,
0001
0010
0100
1000
0001
0001
0001
0100
,
0010
1010
0110
0101
,
1000
0100
0100
0010
0010
0001
0001
1000
,
0010
0000
1001
0000
1000
0100
0010
0001
,
1000
0000
0001
1100
,
0011
1000
0100
0011
,
1100
0000
1001
0000
0100
0001
0100
0001
,
1000
0010
0100
0000
0100
0000
1001
0000
,
0001
0000
0101
0000
0100
0010
0100
0010
,
1000
0000
1010
0000
0110
0010
1000
0001
,
0100
0010
0100
0001
1000
0010
1000
0001
,
0100
0000
1001
0000
1000
0010
1000
0001
,
0100
0000
0110
0000
0001
0010
0100
1000
,
0001
1000
0001
0100
0010
0010
0010
1000
,
0100
0010
0001
1000
0100
0010
0001
1000
,
0010
0100
0001
0100
0010
1000
0100
1000
,
0001
1100
0000
0000
;

//---------------dance-single - ----------------
#NOTES:
     dance-single:
     :
     Challenge:
     12:
     :
0000
0000
0000
0000
,
0000
0000
0000
0000
,
0000
0000
0000
0000
,
1010
0010
0001
0000
0100
0010
1000
0001
,
0010
0100
1000
0000
0010
1000
0100
0001
,
1000
0000
0000
0010
0100
0000
0000
0001
0010
0000
0100
0000
1000
0000
0001
0000
,
1000
0010
0100
0000
0001
0010
1000
0100
,
0010
0000
0000
0001
1000
0000
0000
0010
1000
0000
0100
0000
0010
0000
0001
0000
,
0100
0000
0010
0000
1000
0000
0000
0000
0001
0100
0001
0000
1000
0010
1000
0010
,
1000
0000
0100
0000
0010
0000
0001
0100
0000
0001
0100
0000
0010
0000
1000
0000
,
0110
0110
1001
1001
1010
1010
0101
0101
,
1001
0010
1000
0100
0001
0010
0001
1000
,
0100
0000
0010
0000
0001
0000
0100
0000
0010
1000
0010
1000
0010
0000
0100
0000
,
0001
0010
1000
0001
1000
0100
1000
0001
,
0010
0000
0100
0000
1000
0000
0001
0000
0100
0010
0100
0010
0100
0000
0001
0000
,
0010
1000
0100
0010
0100
1000
0001
0010
,
1000
0001
1000
0010
0100
0001
1000
0100
,
0010
0001
0100
1000
0100
0010
0001
1000
,
0010
0000
1000
0000
0100
0000
0001
0000
1000
0010
1000
0010
1000
0000
0001
0000
,
0100
1000
0100
0010
0100
0001
0010
1000
,
0100
0000
0010
0000
0001
0000
0100
0000
1000
0001
1000
0001
1000
0000
0010
0000
,
0100
0010
0001
0010
1000
0001
1000
0100
,
0001
0000
0010
0000
0100
0000
1000
0000
0001
0100
0001
0100
0001
0000
1000
0000
,
0010
1000
0001
0010
0100
0010
0001
1000
,
0100
0001
0010
0100
0010
0001
0100
1000
,
0100
0010
0100
0001
0010
0100
1000
0001
,
0010
0000
0001
0000
0100
0000
0001
0000
1000
0000
0000
0000
0010
0100
0010
0100
,
0010
1000
0100
1000
0001
0010
1000
0001
,
0100
0000
0010
1000
0010
0000
0000
0000
0100
0000
0001
0000
0010
0000
1000
0000
,
0100
0000
0010
0001
0010
0000
0000
0000
0100
0000
1000
0000
0001
0000
1000
0100
,
1000
0010
0100
0001
0010
1000
0010
0001
,
0100
0000
0001
1000
0001
0000
0000
0010
0001
0000
0100
0000
0010
0000
1000
0000
,
0100
0010
0100
1000
0001
0010
1000
0100
,
0001
0000
1000
0010
1000
0000
0100
0000
0010
0000
0100
0000
1000
0000
0001
0000
,
0100
0000
0010
0000
0100
0000
0001
0000
1000
0100
1000
0100
1000
0000
0010
0000
,
0100
1000
0100
0001
0100
0010
1000
0001
,
0010
0000
0100
0000
1000
0000
0000
0001
1000
0001
1000
0000
0010
0000
0100
0000
,
0001
0000
0010
0100
0010
0000
0000
0001
1000
0000
0100
0000
1000
0000
0010
0000
,
0100
0001
0010
0100
0010
0001
0100
1000
,
0010
0000
1000
0000
0100
0000
0000
1000
0010
0000
0100
0000
0001
0000
1000
0000
,
0100
0010
0100
1000
0010
1000
0001
0100
,
0001
0000
1000
0100
1000
0000
0000
0000
0010
0000
1000
0000
0100
0000
0010
0000
,
0001
0000
0100
0000
0010
0000
1000
0000
0100
0010
0100
0010
0100
0000
1000
0000
,
0001
0010
1000
0010
0001
0100
0010
1000
,
0100
0000
1000
0001
1000
0000
0000
0000
0010
0000
0001
0000
0100
0000
1000
0000
,
0100
0000
1000
0010
1000
0000
0000
0000
0001
0000
0100
0010
0100
0000
0001
0000
,
1000
0100
0010
0100
1000
0010
0001
0100
,
0010
0000
0100
0001
0100
0000
0000
0010
1000
0000
0001
0000
1000
0000
0100
0000
,
0010
0001
0100
0010
1000
0100
1000
0010
,
0001
1010
0000
0000
;

//---------------dance-double - ----------------
#NOTES:
     dance-double:
     :
     Easy:
     6:
     :
00000000
00000000
00000000
00000000
,
00000000
00000000
00000000
00000000
,
00000000
00000000
00000000
00000000
,
00010000
00001000
00010000
00001000
,
01000000
00001000
01000000
00001000
,
01000000
00010000
01000000
00010000
,
00100000
00010000
10000000
01000000
,
00100000
00001000
01000000
00001000
,
00010000
00001000
00010000
00000010
,
00010000
00000010
00001000
00000010
,
00001000
00000100
00000010
00000001
,
00000100
00000000
00000100
00000000
,
00000010
00000000
00001000
00000100
,
00010000
00000000
00010000
00000000
,
01000000
01000000
01000000
00000000
,
00100000
00000000
00100000
00000000
,
10000000
00010000
00000000
01000000
,
00001000
00000000
00001000
00010000
,
00001000
00010000
00001000
00011000
,
00000100
00000000
00000100
00000000
,
00001000
00000010
00000000
00000100
,
00000001
00000000
00000001
00000000
,
00001000
00000100
00000000
00001001
,
00000010
00000000
00000010
00000000
,
00010000
00000000
00010000
00010000
,
00001000
00000000
00010000
00001000
,
00010000
00011000
00011000
00011000
,
01000000
00000000
01000000
00100000
,
10000000
00010000
10000000
00010000
,
01000000
00000000
01000000
00000000
,
00100000
00100000
01000000
00001000
,
00010000
00000000
00010000
00000000
,
00001000
00000000
00001000
00010000
,
00000100
00000000
00000000
00000000
,
00001000
00000001
00001000
00000001
,
00000100
00000100
00000100
00000100
,
00000010
00000000
00000000
00010000
,
00000100
00000000
00000000
00000100
,
00010000
00001000
00010000
00001000
,
01000000
00000000
00000000
00000000
,
00100000
00000000
01000000
00010000
,
10000000
00100000
01000000
00010000
,
10000000
00100000
01000000
00010000
,
01000000
01000000
00001000
00001000
,
00010000
00010000
00000100
00000100
,
00001000
00000000
00001000
00000000
,
00000010
00000000
00000010
00001000
,
00000001
00000000
00000001
00000000
,
00000100
00000000
00000010
00001000
,
00000100
00010000
00000000
00000000
;

//---------------dance-double - ----------------
#NOTES:
     dance-double:
     :
     Medium:
     8:
     :
00000000
00000000
00000000
00000000
,
00000000
00000000
00000000
00000000
,
00000000
00000000
00000000
00000000
,
01000000
00010000
00100000
00001000
,
00010000
00000000
00010010
00000000
00000010
00000000
00001000
00000010
,
00000100
00000010
00001000
00000001
,
00001000
00000000
00000010
00000000
00000100
00000000
00000001
00001000
,
00000100
00010000
00010000
00000100
,
00010000
00001000
00010000
01001000
,
01000000
00010000
01000000
00100000
,
10000000
10000000
01000000
00101000
,
00010000
00010000
01000000
00100000
,
10000000
10010000
01000000
01000000
,
00001000
00001000
01000000
00001000
,
00010000
00000010
00001000
00000110
,
00000010
00000010
00000001
00001000
,
00000010
00000000
00010100
00000100
,
00010000
00011000
00001000
00011000
,
00001000
01000000
00010000
01100000
,
00010000
00000000
10000000
00000000
01000000
00100000
01000000
00000000
,
10000000
00100000
00010000
01000000
,
00001000
00001000
00100000
00001000
,
00010000
00000010
00001000
00011000
,
00010000
00000100
00001000
00000000
00001000
00000010
00000100
00000000
,
00000001
00001001
00000010
00000110
,
00000000
00000001
00001000
00000010
00000000
00010000
00001000
00000000
,
00010000
00011000
01000000
01010000
,
10000000
10000000
00100000
01000000
,
00010000
00010000
01000000
00100000
,
10000000
00000000
00100000
01000000
,
00001000
01000000
00001000
00100000
,
00001000
00000000
00010000
00010000
,
00000010
00010000
00000100
00001000
,
00000001
00001001
00000100
00000010
,
00001000
00000001
00001000
00000001
,
00000100
00000000
00000100
00000010
00001000
00000000
00001000
00000000
,
00000010
00010000
00000100
00010000
,
00100000
00000000
01000000
10010000
,
01000000
00000000
10000000
10010000
,
01000000
00010000
01000000
00001000
,
00010000
00011000
00010000
00000100
,
00001000
00000000
00001010
00000000
00000100
00000001
00001000
00000010
,
00000100
00000100
00000001
00001001
,
00000100
00000001
00000100
00000010
00001000
00000000
00001000
00000000
,
00010000
00001000
00100000
00010000
,
01000000
00000000
01000000
10010000
,
00100000
01000000
01000000
10010000
,
01000000
00000000
00001000
00000000
01000000
00000000
00001000
00010000
,
00010000
00000100
00001000
00000010
,
00001000
00001001
00000000
00000000
;

//---------------dance-double - ----------------
#NOTES:
     dance-double:
     :
     Hard:
     10:
     :
00000000
00000000
00000000
00000000
,
00000000
00000000
00000000
00000000
,
00000000
00000000
00000000
00000000
,
00010000
00000100
00010000
00000010
,
00001000
00000100
00000001
00000000
00001000
00000100
00000001
00000100
,
00001000
00000000
00001000
00000000
00000010
00010000
00001000
00010000
,
01000000
10000000
00100000
01000000
00010000
00000000
10010000
00000000
,
00100000
00000000
01000000
00000000
00001000
01000000
00001000
00010000
,
00000100
00000000
00010000
00000000
00000100
00001000
00000010
00000100
,
00000001
00000001
00001000
00000010
,
00000100
00000010
00001000
00000100
00010000
00000100
00010000
00001000
,
01000000
00000000
01000000
00100000
10000000
00000000
00010000
00000000
,
01000000
00000000
00100000
00000000
01000000
00000000
00010000
10000000
,
00100000
00000000
01000000
00001000
00010000
00001000
00010000
00000000
,
00000100
00001100
00001010
00001001
,
00000100
00000000
00010000
00000000
00000010
00010000
00000100
00000000
,
00001000
00000000
00011000
00000000
01000000
00000000
00010000
01000000
,
00100000
10010000
01000000
00100000
,
10000000
00110000
00101000
00011000
,
00000010
00000000
00000010
00010000
00000100
00001000
00000100
00000000
,
00000010
00000000
00000100
00000000
00000010
00000001
00001000
00000001
,
00000100
00000010
00010000
00000000
00010000
00001000
01000000
00000000
,
01100000
00010000
10000000
01100000
,
00001000
01000000
00010000
00000000
00010000
01000000
00001000
00000000
,
00010000
00001000
00010000
00000010
00001000
00000000
00001001
00000000
,
00000100
00000010
00001000
00000000
00001000
00000010
00000100
00000000
,
00000001
00000100
00000010
00001000
00010000
00000000
01010000
00000000
,
10000000
00100000
01000000
00010000
10000000
00100000
01000000
00010000
,
10000000
00000000
10000000
00000000
10000000
00100000
01000000
00010000
,
01000000
00001000
00010000
00011000
,
00000010
00001000
00000100
00000000
00000010
00001000
00000100
00001000
,
00000001
00001000
00000010
00000110
,
00000001
00000010
00000100
00001000
00010000
01000000
00100000
10000000
,
00010000
10010000
01000000
01000000
,
00100000
10000000
00010000
01000000
,
10000000
00010000
00100000
01000000
00100000
00010000
10000000
01000000
,
00100000
00000000
10010000
01010000
,
00001000
00000000
00010000
00010010
,
00001000
00000100
00000010
00000001
00000100
00000001
00001000
00000010
,
00001000
00000000
00000010
00010010
,
00010000
00001000
00000010
00001000
00010000
00100000
00010000
00001000
,
01000000
01010000
10000000
01000000
,
00010000
01000000
10000000
01000000
00010000
00000000
10010000
00000000
,
01000000
10000000
01000000
00010000
01000000
10000000
01000000
00010000
,
00100000
10010000
01100000
10010000
,
01000000
00000000
00001000
00000000
00010000
00000010
00010000
00000010
,
00001000
00000010
00000100
00000001
00000010
00000001
00001000
00000100
,
00010000
00001000
00010000
00011000
,
01000000
00010000
00100000
00010000
10000000
00010000
10000000
00010000
,
01000000
10010000
00000000
00000000
;
