#TITLE:R10K;
#SUBTITLE:;
#ARTIST:tiger YAMATO;
#TITLETRANSLIT:;
#SUBTITLETRANSLIT:;
#ARTISTTRANSLIT:;
#GENRE:;
#CREDIT:;
#BANNER:R10K-bn.png;
#BACKGROUND:R10K-bg.png;
#LYRICSPATH:;
#CDTITLE:;
#MUSIC:R10K.ogg;
#OFFSET:-0.420000;
#SAMPLESTART:25.476999;
#SAMPLELENGTH:20.000000;
#SELECTABLE:YES;
#DISPLAYBPM:188.000000:204.000000;
#BPMS:0.000000=190.000000
,56.000000=191.000000
,58.000000=192.000000
,60.000000=193.000000
,62.000000=194.000000
,64.000000=195.000000
,66.000000=196.000000
,68.000000=197.000000
,70.000000=198.000000
,74.000000=199.000000
,76.000000=196.000000
,78.000000=195.000000
,80.000000=194.000000
,82.000000=193.000000
,84.000000=192.000000
,86.000000=191.000000
,88.000000=190.000000
,90.000000=189.000000
,92.000000=188.000000
,130.000000=189.000000
,132.000000=190.000000
,134.000000=191.000000
,136.000000=192.000000
,138.000000=193.000000
,140.000000=194.000000
,142.000000=195.000000
,144.000000=196.000000
,176.000000=197.000000
,178.000000=198.000000
,180.000000=199.000000
,182.000000=200.000000
,184.000000=201.000000
,186.000000=202.000000
,188.000000=203.000000
,190.000000=204.000000
,256.000000=197.000000
,258.000000=198.000000
,260.000000=199.000000
,262.000000=200.000000
,264.000000=201.000000
,266.000000=202.000000
,268.000000=203.000000
,270.000000=204.000000
;
#STOPS:
;
#BGCHANGES:;
#KEYSOUNDS:;
#ATTACKS:;

//---------------dance-single - ----------------
#NOTES:
     dance-single:
     :
     Hard:
     15:
     0.816589,0.985060,0.166489,0.166489,0.521666,515.000000,500.000000,15.000000,15.000000,0.000000,0.000000,0.816589,0.985060,0.166489,0.166489,0.521666,515.000000,500.000000,15.000000,15.000000,0.000000,0.000000:
0000
0000
0000
0000
,
0000
0000
0000
0000
,
0000
0000
0000
0000
,
0000
0000
0000
0000
,
1000
0001
1000
0001
0100
0010
1000
0000
,
0001
1000
0001
1000
0010
0100
0001
0000
,
1000
0100
1000
0100
0010
0001
0100
0000
,
0001
0100
0001
0100
0010
1000
0001
0000
,
1000
0100
0010
0001
0100
0010
1000
0000
,
0001
0010
0100
1000
0010
0100
0001
0000
,
1000
0001
0010
0100
0010
0001
1000
0000
,
0001
0100
0010
1000
0001
1000
0100
0000
,
0010
0000
0001
0000
0100
0000
0010
0000
1000
0100
1000
0000
0001
0000
0000
0000
,
1000
0000
0010
0000
1000
0000
0001
0000
0100
0001
0100
0000
0010
0000
0000
0000
,
1000
0000
0100
0000
0001
0000
0100
0000
0010
1000
0010
0000
0001
0000
0000
0000
,
0100
0000
0001
0000
1000
0000
0100
0000
0010
0001
1000
0000
0010
0000
0000
0000
,
1000
0000
0001
0000
1000
0000
0100
0000
0010
0001
0100
0000
0010
0000
0000
0000
,
0100
0000
0001
0000
0100
0000
0010
0000
1000
0001
1000
0000
0010
0000
0000
0000
,
1000
0000
0100
0000
0010
0000
0001
0000
0100
0010
1000
0000
0001
0000
0000
0000
,
0100
0000
0001
0000
0010
0000
0100
0000
1000
0001
1000
0000
0010
0000
0000
0000
,
1010
0000
0011
0000
,
0101
0000
1100
0000
,
0010
0010
0100
0100
0001
0001
1000
1000
,
0001
0100
0001
0100
0010
1000
0010
1000
0100
1000
0100
1000
0001
0010
0001
0010
,
0001
0000
0000
1000
0100
0000
0010
0000
0001
0000
0100
0000
0010
0000
1000
0000
,
0100
1000
0000
0000
0001
0100
0000
0000
0001
0010
0000
0000
1000
0010
0000
0000
,
0100
0000
0000
0001
1000
0000
0010
0000
0100
0001
0100
0000
0001
1000
0010
0000
,
1000
0100
0000
0000
1000
0001
0000
0000
0010
0001
0000
0000
0100
0010
0000
0000
,
1000
0000
0010
0100
0001
0000
1000
0000
0100
0000
0010
0000
0001
0100
0001
0000
,
1000
0001
0000
0000
0010
0100
0000
0000
1000
0010
0000
0000
0001
0100
0000
0000
,
0010
0000
1000
0100
0010
0000
0001
0000
0100
0000
0010
0000
1000
0000
0001
0000
,
0010
0100
0000
0000
1000
0010
0000
0000
1000
0001
0000
0000
0001
0100
0000
0000
,
0210
0000
0000
0010
0010
0010
0000
1000
,
1000
1000
0000
0001
0302
0000
0103
0000
,
0001
0001
0100
0100
0010
0010
1000
1000
,
0010
0000
0010
0000
0100
0000
0100
0000
0001
0010
0100
1000
0001
1000
0001
1000
,
0100
0000
0000
0000
1000
0001
0000
0000
0010
0100
0000
0000
1000
0100
0000
0000
,
0001
0010
0000
0000
0001
0100
0000
0000
0010
1000
0000
0000
0100
1000
0000
0000
,
0001
1000
0000
0000
1000
0100
0000
0000
0001
0010
0000
0000
0010
0100
0000
0000
,
1000
0001
0000
0000
0010
0100
0000
0000
1000
0010
0000
0000
0100
0001
0000
0000
,
1000
0001
0000
0000
0010
0100
0000
0000
0001
0100
0000
0000
1000
0010
0000
0000
,
0100
0010
0000
0000
0010
1000
0000
0000
1000
0001
0000
0000
0001
0010
0000
0000
,
0001
0100
0000
0000
1000
0010
0000
0000
0001
1000
0000
0000
0100
0010
0000
0000
,
1000
0100
0000
0000
0001
1000
0000
0000
0001
0010
0000
0000
0010
0100
0000
0000
,
0022
0030
0100
1003
,
0200
1000
0000
1000
1300
0000
0001
0000
,
2200
3000
0001
1300
,
0020
0100
0000
0100
0130
0000
0001
0000
,
0010
0001
0010
0001
0100
0010
1000
0100
,
0010
0100
1000
0010
0100
0001
1000
0001
,
1000
0100
1000
0100
0010
0100
1000
0010
,
0100
0001
0010
0100
1000
0001
1000
0010
,
1000
0001
0010
0100
1000
0010
0100
0010
,
0100
0010
0001
0100
1000
0001
0100
0010
,
0100
1000
0010
1000
0100
0010
0001
1000
,
0100
0100
0100
0100
,
0001
0000
0010
0000
0100
0000
1000
0000
0010
0100
0010
0000
1000
0000
0001
0000
,
0100
0001
0000
0000
0010
0100
0000
0000
1000
0100
0000
0000
1000
0001
0000
0000
,
1000
0000
0001
0000
0010
0000
0100
0000
1000
0010
1000
0000
0001
0000
0100
0000
,
0010
1000
0000
0000
0100
0010
0000
0000
1000
0001
0000
0000
0010
0100
0000
0000
,
1000
0000
0001
0000
0010
0000
0100
0000
0001
1000
0001
0000
0100
0000
0010
0000
,
0100
0001
0000
0000
0010
0100
0000
0000
0100
1000
0000
0000
1000
0001
0000
0000
,
0010
0000
0001
0000
0100
0000
0010
0000
1000
0001
1000
0000
0100
0000
0010
0000
,
0001
0100
0000
0000
0001
1000
0000
0000
0010
0100
0000
0000
1000
0001
0000
0000
,
1001
0000
1000
0100
0020
0100
0130
0000
,
1100
0000
1000
0001
0200
0010
0310
0000
,
0101
0000
0001
1000
0002
0100
0103
0000
,
0011
0000
0010
0001
2000
0100
3100
0000
,
1010
0000
1000
0100
2000
0001
3001
0100
,
0110
0000
0010
1000
0200
0010
0310
0100
,
1100
0000
1000
0001
0200
0010
0310
1000
,
1001
0000
0000
0000
;

//---------------dance-single - ----------------
#NOTES:
     dance-single:
     :
     Medium:
     11:
     0.658028,0.669841,0.466169,0.399574,0.000000,415.000000,373.000000,42.000000,36.000000,0.000000,0.000000,0.658028,0.669841,0.466169,0.399574,0.000000,415.000000,373.000000,42.000000,36.000000,0.000000,0.000000:
0000
0000
0000
0000
,
0000
0000
0000
0000
,
0000
0000
0000
0000
,
0000
0000
0000
0000
,
1000
0100
0010
0001
0100
0000
0110
0000
,
0001
0010
0100
1000
0010
0000
1010
0000
,
1000
0001
0100
0001
1000
0000
0101
0000
,
0010
1000
0100
0010
0001
0000
1001
0000
,
0000
1000
0001
0100
0010
0000
1100
0000
,
0000
0001
0100
0010
1000
0000
0011
0000
,
0000
0010
0001
0100
1000
0000
1001
0000
,
0000
1000
0100
0010
0002
0000
0003
0000
,
0010
1000
0100
0010
0001
0000
0101
0000
,
0010
1000
0001
1000
0100
0000
1100
0000
,
1000
0010
0100
0001
0010
0000
0011
0000
,
0100
0001
0010
0100
1000
0000
1010
0000
,
1000
0100
0010
0001
1000
0000
0110
0000
,
0010
1000
0100
0010
0001
0000
0011
0000
,
0010
0001
0100
0010
1000
0000
1100
0000
,
1000
0010
0100
0010
1000
0000
0101
0000
,
2020
3030
0220
0330
,
2002
0003
0020
3030
,
1000
0001
0100
0001
0010
0100
1000
0010
,
0100
0001
0100
0010
1000
0001
1000
0010
,
0100
0000
0010
1000
0100
0010
0001
0000
,
0010
1000
0100
0000
0010
0001
0100
0000
,
0001
1000
0010
1000
0100
0010
0001
0000
,
0100
0010
1000
0000
0001
0100
0010
0000
,
0010
0000
1000
0001
0010
0100
0010
0000
,
0001
0100
0010
1000
0200
0000
2300
0000
,
3010
0100
0010
0000
1000
0001
1000
0000
,
0001
0010
0100
1000
0010
0100
0001
0000
,
0202
0303
2200
3300
,
2002
3000
0020
0033
,
0001
1000
0100
0010
0100
1000
0001
0010
,
0100
1000
0100
1000
0001
0010
0001
0010
,
1000
1010
0012
0103
,
0120
2030
3002
0203
,
0310
0000
0100
0001
1000
0000
1100
0000
,
0002
1003
1010
1001
,
0100
0001
0100
0000
1000
0001
0100
0000
,
0001
1000
0010
0000
0101
0000
0011
0000
,
0120
0230
2300
3010
,
0100
0001
0100
0010
1000
0100
0001
0000
,
0010
0100
0010
1000
,
2200
0000
3300
0001
0200
0000
0300
0000
,
0010
1000
0001
0100
,
0022
0000
0033
1000
0200
0000
0300
0000
,
0010
1000
0100
0000
1000
0100
0010
0000
,
0001
0100
0010
0000
1000
0100
0001
0000
,
0010
0001
0100
0000
0001
1000
0001
0000
,
1000
0010
0100
0000
0010
1000
0001
0000
,
1000
0100
0010
0001
0100
0010
1000
0000
,
0001
0101
1000
1010
,
0010
1000
0100
0010
0001
0100
1000
0000
,
0010
0100
1001
0110
,
1000
0100
0010
0001
1000
0010
0100
0001
,
1000
0100
0001
0000
1000
0010
0001
0000
,
0010
0100
0001
1000
0010
0100
0001
1000
,
0100
0010
0001
0000
0100
0010
1000
0000
,
0001
0010
0100
1000
0001
0100
0010
1000
,
0001
0010
1000
0000
0001
0100
1000
0000
,
0010
1000
0100
1000
0001
0100
0001
0010
,
0100
1000
0001
0000
0100
0001
1000
0000
,
0010
1000
0100
0010
0002
0000
0003
0000
,
0100
0001
0010
0100
2000
0000
3000
0000
,
0001
1000
0010
0100
0002
0000
0003
0000
,
0010
0001
0100
0010
2000
0000
3000
0000
,
1000
0100
0001
0000
0101
0000
1100
0000
,
0001
0010
1000
0000
1010
0000
0011
0000
,
0100
0010
1000
0010
0100
0000
0110
0000
,
1001
0000
0000
0000
;

//---------------dance-single - ----------------
#NOTES:
     dance-single:
     :
     Easy:
     8:
     0.499467,0.591036,0.599361,0.421772,0.000000,315.000000,261.000000,54.000000,38.000000,0.000000,0.000000,0.499467,0.591036,0.599361,0.421772,0.000000,315.000000,261.000000,54.000000,38.000000,0.000000,0.000000:
0000
0000
0000
0000
,
0000
0000
0000
0000
,
0000
0000
0000
0000
,
0000
0000
0000
0000
,
1000
0001
0000
0000
0101
0000
0000
0000
,
0001
1000
0000
0000
1100
0000
0000
0000
,
0010
0100
0000
0000
0101
0000
0000
0000
,
0100
0010
0000
0000
1010
0000
0000
0000
,
0000
1000
0200
0000
0010
0000
0310
0000
,
0000
0001
0200
0000
0010
0000
0310
0000
,
0000
1000
0002
0000
0100
0000
0103
0000
,
0000
0001
1000
0000
0020
0000
0030
0000
,
0000
1000
0002
0000
0103
0000
0110
0000
,
0000
0010
2000
0000
3100
0000
1001
0000
,
0000
1000
0200
0000
1300
0000
1100
0000
,
0000
0100
0002
0000
1003
0000
1010
0000
,
0000
0010
0200
0000
0301
0000
0011
0000
,
0000
0100
2000
0000
3010
0000
0110
0000
,
0000
1000
0200
0000
0310
0000
0011
0000
,
0000
0001
2000
0000
3010
0000
1001
0000
,
0100
0000
0100
0000
,
0100
0000
0100
0000
,
0001
0001
1000
1000
,
0001
0100
0001
0100
0001
0100
0001
0000
,
0010
0100
0101
1100
,
1000
0010
1000
0000
0110
0000
1001
0000
,
0001
1000
1100
0011
,
0100
0000
0100
0000
0001
1000
0001
0000
,
0011
0101
1001
0100
,
0010
1000
0010
0000
0100
0001
0100
0000
,
0011
0000
1000
0010
0100
0000
0001
0000
,
0010
0001
0100
0000
1001
0000
0110
0000
,
0100
0000
0100
0000
,
0100
0000
0100
0000
,
0010
0010
0100
0100
,
0010
1000
0010
1000
0010
1000
0010
0000
,
0002
0023
0230
2300
,
3020
1000
0001
0130
,
2000
3002
0203
0320
,
2030
0100
0010
3001
,
0020
2030
3002
0203
,
0302
0010
1000
0103
,
0200
0320
2030
3002
,
0203
1000
0010
0301
,
2002
3000
0010
0013
,
1000
0000
0000
1000
1000
0000
0000
0000
,
2002
3000
0010
0013
,
0001
0000
0000
0001
0001
0000
0000
0000
,
1000
0000
0001
0000
1000
0100
1000
0000
,
0001
0000
1000
0000
0001
0100
0001
0000
,
0100
0000
0010
0000
1000
0001
1000
0000
,
0010
0000
0100
0000
0001
1000
0001
0000
,
0020
0000
0000
1000
0000
1000
1030
0000
,
0001
0101
1000
1100
,
0020
0000
0000
1000
0000
1000
1030
0000
,
0001
1000
1100
0011
,
0010
0100
0010
0100
,
0011
0011
0011
0011
,
0001
1000
0001
1000
,
1100
1100
1100
1100
,
0010
0100
0001
1000
,
1010
1010
1010
1010
,
1000
0100
0010
0001
,
0101
0101
0101
0101
,
1000
0001
0000
0000
0101
0000
0000
0000
,
0001
1000
0000
0000
1100
0000
0000
0000
,
0010
0100
0000
0000
0101
0000
0000
0000
,
0100
0010
0000
0000
1010
0000
0000
0000
,
1000
1000
0000
0000
1010
0000
0000
0000
,
0001
0001
0000
0000
0011
0000
0000
0000
,
0100
0100
0000
0000
0110
0000
0000
0000
,
1001
0000
0000
0000
;

//---------------dance-single - ----------------
#NOTES:
     dance-single:
     :
     Beginner:
     5:
     0.250526,0.354622,0.033298,0.022199,0.000000,158.000000,155.000000,3.000000,2.000000,0.000000,0.000000,0.250526,0.354622,0.033298,0.022199,0.000000,158.000000,155.000000,3.000000,2.000000,0.000000,0.000000:
// measure 0
0000
0000
0000
0000
,  // measure 1
0000
0000
0000
0000
,  // measure 2
0000
0000
0000
0000
,  // measure 3
0000
0000
0000
0000
,  // measure 4
1000
0000
0000
0000
,  // measure 5
0001
0000
0000
0000
,  // measure 6
0100
0000
0000
0000
,  // measure 7
0010
0000
0000
0000
,  // measure 8
0000
0000
0100
0100
,  // measure 9
0000
0000
0010
0010
,  // measure 10
0000
0000
1000
1000
,  // measure 11
0000
0000
1001
0000
,  // measure 12
0000
0010
0010
0010
,  // measure 13
0000
0100
0100
0100
,  // measure 14
0000
0001
0001
0001
,  // measure 15
0000
1000
1000
1000
,  // measure 16
0000
0100
0100
0100
,  // measure 17
0000
0010
0010
0010
,  // measure 18
0000
0001
0001
0001
,  // measure 19
0000
0100
0100
0000
,  // measure 20
0010
0000
0000
0000
,  // measure 21
0100
0000
0000
0000
,  // measure 22
0001
0000
0001
0000
,  // measure 23
1000
1000
1000
1000
,  // measure 24
1000
0000
0100
0000
,  // measure 25
0001
0001
0001
0001
,  // measure 26
0000
0100
0100
0000
,  // measure 27
0010
0010
0010
0010
,  // measure 28
0010
0000
1000
0000
,  // measure 29
0100
0100
0100
0100
,  // measure 30
0000
1000
1000
0000
,  // measure 31
0001
0001
0001
0000
,  // measure 32
1000
0000
0000
0000
,  // measure 33
0001
0000
0000
0000
,  // measure 34
0010
0000
0010
0000
,  // measure 35
0100
0100
0100
0100
,  // measure 36
0100
0100
0100
0000
,  // measure 37
1000
1000
1000
0000
,  // measure 38
0001
0001
0001
0000
,  // measure 39
1000
1000
1000
0000
,  // measure 40
0001
0001
0001
0000
,  // measure 41
0010
0010
0010
0000
,  // measure 42
0010
0010
0010
0000
,  // measure 43
0100
0100
0100
0000
,  // measure 44
1000
0000
0000
0000
,  // measure 45
0010
0000
0100
0000
,  // measure 46
0010
0000
0000
0000
,  // measure 47
1000
0000
0001
0000
,  // measure 48
0000
0100
0000
0100
,  // measure 49
0000
0100
0000
0100
,  // measure 50
0000
0010
0000
0010
,  // measure 51
0000
0010
0000
0010
,  // measure 52
0020
0000
0000
0030
,  // measure 53
0000
1000
0000
1000
,  // measure 54
2000
0000
0000
3000
,  // measure 55
0000
0000
1001
0000
,  // measure 56
0001
0001
0001
0001
,  // measure 57
0001
0001
0001
0000
,  // measure 58
0100
0100
0100
0100
,  // measure 59
0100
0100
0100
0000
,  // measure 60
1000
1000
1000
1000
,  // measure 61
1000
1000
1000
0000
,  // measure 62
0010
0010
0010
0010
,  // measure 63
0010
0010
0010
0000
,  // measure 64
0100
0000
0000
0000
,  // measure 65
0010
0000
0000
0000
,  // measure 66
1000
0000
0000
0000
,  // measure 67
0001
0000
0000
0000
,  // measure 68
1000
0000
0001
0000
,  // measure 69
1000
0000
0001
0000
,  // measure 70
0100
0000
0100
0000
,  // measure 71
1001
0000
0000
0000
;
