#TITLE:Quick Silver;
#ARTIST:Mystic Moon;
#BANNER:Quick Silver-bn.png;
#BACKGROUND:Quick Silver-bg.png;
#JACKET:Quick Silver-jacket.png;
#MUSIC:Quick Silver.ogg;
#SAMPLESTART:35.407;
#SAMPLELENGTH:20;
#DISPLAYBPM:172;
#BPMS:0=172;
#BGCHANGES:;

//---------------dance-single - ----------------
#NOTES:
     dance-single:
     :
     Beginner:
     5:
     :
0000
0000
0000
0000
,
0000
0000
0000
0000
,
0000
0000
0000
0000
,
0000
0000
0000
0000
,
0001
0000
0001
0000
,
1000
0000
1000
0000
,
0001
0000
0001
0000
,
0110
0000
2002
0000
,
0000
0000
0000
0000
,
3003
0000
0000
0100
,
0100
0000
1000
0000
,
0001
0000
0100
0000
,
0010
0000
1000
0000
,
1001
0000
0110
0000
,
1000
1000
0000
0001
,
0000
0100
0100
0000
,
0110
0000
0110
0000
,
1001
0000
0001
0002
,
0000
0000
0000
0000
,
0003
1000
1000
0000
,
0010
0010
0010
0000
,
1001
0000
0110
0000
,
0001
0001
0001
0000
,
1000
0000
0100
0000
,
1001
0000
1001
0000
,
0110
0000
0010
0020
,
0000
0000
0000
0000
,
0030
1000
1000
1000
,
2000
0000
0000
0000
,
3000
0001
0001
0001
,
0002
0000
0000
0000
,
0003
0100
0100
0100
,
0200
0000
0000
0000
,
0300
0000
0000
0000
,
1001
0000
0000
0000
,
0000
0000
0001
0001
,
0001
0000
1000
0000
,
0010
0010
0000
1001
,
0000
0000
0000
0000
,
0000
0100
0100
0100
,
0000
0010
0010
0000
,
1000
0001
2000
0000
,
0000
3000
1000
0000
,
0010
0000
0100
0000
,
0001
0000
0010
0000
,
0001
0000
0100
0000
,
1000
0000
0100
0000
,
0010
0000
0001
0000
,
1000
0000
0001
0000
,
0010
0000
1000
0000
,
0100
0000
1001
0000
,
0000
0000
0110
0000
,
0000
0000
1001
0000
,
0000
0000
0110
0000
,
0000
0000
0001
0100
,
0000
0100
0010
0100
,
0000
0100
1000
0100
,
0000
0100
0020
0000
,
0000
0000
0000
0000
,
0030
0100
1001
0000
,
0000
0000
0000
0000
,
1000
1000
0001
0001
,
0000
0000
0000
0000
,
0000
0000
0110
0000
,
0001
0000
0010
0000
,
1000
0000
0100
0000
,
1000
0000
0010
0000
,
0100
0200
0000
0000
,
0000
0000
0300
0010
,
0010
0010
0020
0000
,
0000
0000
0030
1000
,
1000
1000
2000
0000
,
0000
0000
3000
0001
,
0001
0001
0002
0000
,
0000
0000
0003
0000
,
0000
0000
1001
0000
,
1001
0000
0110
0000
,
0000
0000
0000
2002
0000
0000
0000
0000
,
0000
0000
0000
0000
,
0000
3003
0000
0000
;

//---------------dance-single - ----------------
#NOTES:
     dance-single:
     :
     Easy:
     8:
     :
0000
0000
0000
0000
,
0000
0000
0000
0000
,
0000
0000
0000
0000
,
0000
0000
0000
0000
,
0001
0001
1000
1000
,
0001
0001
1000
1000
,
0010
0010
0100
0100
,
0001
0000
0000
1000
0000
0000
2002
0000
0000
0000
0000
0000
0000
0000
0000
0000
,
0000
0000
0000
3003
,
0020
0000
0000
0000
0000
0100
0130
0000
,
0002
0000
0000
0010
0000
1000
0000
0103
,
0000
0000
0000
0000
0110
0000
0000
0000
0001
0000
0000
1000
0000
0000
0000
0000
,
0010
0000
0000
1000
0000
0001
0100
0010
,
1000
1000
0001
0001
,
0010
0000
0001
0000
1000
0001
0000
0100
,
0010
0000
0000
0000
0110
0000
0000
0000
0001
0000
0000
1000
0000
0000
0000
0000
,
1010
1010
0101
0101
,
1001
0000
0000
0010
0000
1000
0100
0002
,
0010
0010
1000
0100
,
1003
0000
0000
0000
0110
0000
0000
0000
1000
0000
0000
0001
0000
0000
0000
0000
,
0100
0100
0100
0000
0100
0100
0100
0000
,
0001
0001
1000
1000
,
0002
0000
2003
0000
3010
0100
0000
0001
,
1000
0000
0000
0000
0110
0000
0000
0000
1000
0000
0000
0001
0000
0000
0000
0000
,
0201
0310
1200
0310
,
0110
0000
0000
0001
0000
1000
0010
0200
,
0000
0000
0000
0000
,
0300
0101
0011
0110
,
2200
0000
0000
0000
,
3300
1010
1001
0011
,
0202
0000
0000
0000
,
0303
0011
1001
0101
,
0220
0000
0000
0000
,
0330
1000
0001
0000
0100
0000
0100
0000
,
1001
0010
1000
0100
,
0001
0001
0011
0011
,
1000
0010
0001
0100
,
0010
0000
1000
0002
0000
0000
0103
0000
,
0010
1000
0100
1000
,
0001
0101
0101
0010
,
2000
0000
3100
0000
1000
0002
0000
0000
,
0013
0001
0010
0100
2000
0000
0000
0000
,
0010
3100
1000
1100
,
0001
0101
1000
1010
,
0001
0011
0100
0110
,
0010
0110
0100
0110
,
0010
0110
1000
1001
,
0001
1001
1000
1100
,
0001
0101
0100
0110
,
0010
0110
0100
0101
,
0010
0000
1010
0000
0001
0001
0000
0000
,
0000
0000
0000
0000
1000
1000
0000
0000
,
0000
0000
0000
0000
0010
0010
0000
0000
,
0000
0000
0000
0000
0100
0100
0000
0000
,
0001
1000
0001
1000
0001
0001
0100
0000
,
0010
0000
1000
0000
0100
0100
1000
0000
,
0010
0000
0001
0000
1000
1000
0001
0000
,
0100
0010
2002
0000
,
0000
0000
0000
0000
,
0003
0001
3001
0000
1001
0000
0000
0000
,
0000
0000
0000
0000
,
0200
2300
3001
0101
,
0000
0000
0000
0000
,
0000
0000
0110
1001
,
0010
1000
0100
1000
,
0010
0001
0201
0310
,
1200
0310
0110
0001
,
1000
0100
0100
0000
1000
0010
0000
1000
,
0000
0100
0000
0001
0000
0000
0011
0000
,
1001
0110
2020
0000
,
0000
0000
3030
1001
,
0101
1100
0022
0000
,
0000
0000
0033
0101
,
0011
1001
2200
0000
,
0000
0000
0000
0000
3300
1000
0001
0000
,
0100
0000
0100
0000
0001
0001
0000
1000
,
1000
0000
0001
1000
0000
0000
0010
0000
,
1000
0000
0000
0001
0000
0000
2002
0000
0000
0000
0000
0000
0000
0000
0000
0000
,
0000
0000
0000
0000
,
0000
3003
0000
0000
;

//---------------dance-single - ----------------
#NOTES:
     dance-single:
     :
     Medium:
     12:
     :
0000
0000
0000
0000
,
0000
0000
0000
0000
,
0000
0000
0000
0000
,
0000
0000
0000
0000
,
0001
0000
0000
0010
0000
0000
0001
0000
1000
0000
0000
0010
0000
0000
1000
0000
,
0001
0000
0000
0100
0000
0000
0001
0000
1000
0000
0000
0100
0000
0000
1000
0000
,
0010
0000
0000
0100
0000
0000
0010
0000
1000
0000
0000
0001
0000
0000
1000
0000
,
1100
0000
0000
0101
0000
0000
2200
0000
0000
0000
0000
0000
0000
0000
0000
0000
,
0000
0000
0000
3300
,
0001
1000
0001
1000
0001
0100
0110
0000
,
2000
0000
3010
0200
0000
0302
0000
0023
,
0000
0000
0031
0000
0100
0000
0000
0010
1000
0000
0000
0100
0000
0000
1000
0000
,
0001
0001
0000
0010
0000
0001
0100
1000
,
0010
0000
0000
0010
0000
0000
0010
0000
0100
0000
0000
0100
0000
0000
0100
0000
,
0001
0010
0001
0100
0000
0010
1000
0001
,
0100
0000
0000
0000
0010
0000
0000
1000
0001
0000
0000
0100
0000
0000
0010
0000
,
1000
0000
0000
0100
0000
0000
1000
0000
0001
0000
0000
0100
0000
0000
0001
0000
,
0010
0001
1000
0020
0000
1030
0100
0002
,
0010
0000
1000
0000
0100
0100
0000
1000
,
1003
0000
0000
0000
0010
0000
0000
0100
0001
0000
0000
1000
0000
0000
0001
0000
,
0010
0010
0010
0001
1000
1000
1000
0010
,
1000
0000
0000
1000
0000
0000
1000
0000
0001
0000
0000
0001
0000
0000
0001
0000
,
0010
0100
0010
0001
0100
0010
0000
2000
,
0000
0000
3001
0000
0100
0000
0000
0010
1000
0000
0000
0001
0000
0000
0010
0000
,
0001
0000
0000
0100
0000
0000
0010
0000
1000
0000
0000
0100
0000
0000
0010
0000
,
0001
0000
0000
0100
0000
0000
0020
0000
0000
0000
1030
0000
0001
0000
0200
0000
,
0010
0010
0000
1000
0000
0001
0000
0010
,
0310
1000
0002
0000
0023
0000
0230
0000
,
2300
0000
0000
0001
0000
0000
0001
0000
0000
0000
0100
0000
0000
0000
3010
0000
,
0000
1000
0002
0000
2003
0000
3200
0000
,
0320
0000
0000
1000
0000
0000
0001
0000
0000
0000
1000
0000
0000
0000
0130
0000
,
0000
0010
0002
0000
2003
0000
3020
0000
,
0230
0001
0001
0000
0010
0010
0000
1000
,
0000
0000
0001
0000
0301
0000
0100
0000
0010
0000
0000
1000
0000
0000
0001
0000
,
0000
1000
0100
0000
0010
0000
0001
0100
,
0000
0010
0000
1000
0020
0000
1030
0001
,
0100
0000
0010
0000
0000
0000
0010
0000
1000
0000
0001
0000
0100
0000
0000
0110
,
0000
1000
0100
2000
0000
0000
3001
1000
,
0100
0000
0010
0000
0001
0100
0000
0010
,
0000
1000
0100
1000
0001
0100
0010
1000
,
0002
0000
0000
0000
0013
0000
0001
0000
0010
0000
0200
0000
0000
0000
0000
0300
,
1100
0110
0022
0033
,
1000
0000
0010
0000
0100
0000
0001
0000
0010
0000
0000
0010
0000
0000
0001
0000
,
1000
0000
0000
1000
0000
0000
0010
0000
0100
0000
0000
0100
0000
0000
0001
0000
,
0010
0000
0000
0001
0000
0000
0100
0000
1000
0000
0000
1000
0000
0000
0001
0000
,
0010
0000
0000
0010
0000
0000
0100
0000
0010
0000
0000
0001
0000
0000
1000
0000
,
0001
0000
0000
0001
0000
0000
0100
0000
0010
0000
0000
0100
0000
0000
0001
0000
,
1000
0000
0000
0100
0000
0000
0010
0000
0001
0000
0000
0001
0000
0000
0001
0000
,
1000
0000
0000
1000
0000
0000
1000
0000
0010
0000
0000
1000
0000
0000
0001
0000
,
1000
0000
0000
0100
0000
0000
0010
0000
0001
0000
0000
1000
0000
0000
0001
0000
,
1000
0000
0000
0010
0000
0000
0100
0000
0001
0000
0001
0000
0010
0000
0000
0000
,
0001
0000
0100
0000
1000
1000
0010
0000
,
1000
0000
0001
0000
0100
0100
0001
0000
,
0010
0000
1000
0000
0010
0010
1000
0000
,
0100
0000
0000
0000
1000
0000
0000
0000
0001
0000
0001
0000
0010
0000
0000
0001
,
0000
0000
1000
0000
0000
0010
0000
0000
1000
0000
1000
0000
0100
0000
0000
0010
,
0000
0000
0001
0000
0000
1000
0000
0000
0100
0000
0100
0000
1000
0000
0000
0010
,
0000
0000
1000
0000
0000
0001
0000
0000
0100
0000
0010
0000
0100
0000
0010
0000
,
0100
0010
0100
0010
1000
0001
1000
0001
,
1000
0010
0110
0000
1001
0000
0000
0000
,
0000
0000
0000
0000
,
1000
0100
1000
0010
0001
0000
0101
0000
,
0000
0000
0000
0000
,
0000
0000
0110
1001
,
0010
0000
0000
1000
0000
0000
0001
0000
0000
0000
1000
0000
0100
0000
0000
0000
,
0010
0000
0000
0001
0000
0000
0001
0000
1000
0000
0010
0000
1000
0000
0010
0000
,
0100
0001
0100
0001
1000
0100
0010
0001
,
0100
0000
0010
0000
0110
0000
0000
0000
1000
0000
0000
0010
0000
0000
0100
0000
,
0000
0101
0000
1100
0000
0001
0020
0000
,
0032
0000
0000
0000
2003
0000
0000
0000
3200
0000
0000
0001
0000
0000
1000
0000
,
1000
1000
0000
0310
0100
1000
0002
0000
,
0203
0000
0000
0000
0320
0000
0000
0000
2030
0000
0000
0001
0000
0000
0010
0000
,
0010
0000
0000
0001
0000
0000
3100
0000
0000
0000
1000
0000
0200
0000
0000
0000
,
2300
0000
0000
0000
3002
0000
0000
0000
0023
0000
0000
0001
0000
0000
0001
0000
,
0001
0000
0000
0001
0000
0000
0031
0000
1000
0000
0010
0000
0100
0000
0000
0000
,
0001
0000
0000
0001
0000
0000
1000
0000
0010
0000
1000
0000
0000
0000
1000
0000
,
0100
0000
0100
0001
0000
1000
1000
0010
,
1000
0000
0000
0001
0000
0000
2200
0000
0000
0000
0000
0000
0000
0000
0000
0000
,
0000
0000
0000
0000
,
0000
3300
0000
0000
;

//---------------dance-single - ----------------
#NOTES:
     dance-single:
     :
     Hard:
     15:
     :
0000
0000
0000
0000
,
0000
0000
0000
0000
,
0000
0000
0000
0000
,
0000
0000
0000
0000
,
0001
0000
0000
0010
0001
0000
0100
0000
0010
0000
0000
1000
0000
0000
0001
0000
,
1000
0000
0000
0100
1000
0000
0001
0000
0010
0000
0000
0100
0000
0000
1000
0000
,
0010
0000
0000
0100
0010
0000
1000
0000
0001
0000
0000
1000
0000
0000
0100
0000
,
1100
0000
0000
0110
0000
0000
0022
0000
0000
0000
0000
0000
0000
0000
0000
0000
,
0000
0000
0000
0033
,
0100
0001
0010
0001
0100
0110
0110
0000
,
0010
0000
0000
1000
0100
0000
0011
0000
0000
0000
1000
0000
0001
0000
1000
0000
,
1100
0000
0000
0000
0010
0100
0000
0100
0001
0000
0000
1000
0000
0000
0010
0000
,
0100
0001
0010
0100
0000
1000
0010
0001
,
0101
0000
0000
0101
0000
0000
0010
0000
1100
0000
0000
1100
0000
0000
0010
0000
,
1000
0000
0001
0100
0000
0001
0100
0000
0000
0000
0010
0000
1000
0000
0001
0000
,
0011
0000
0000
0000
1000
0100
0000
0100
0010
0000
0000
0001
0000
0000
1000
0100
,
1000
0000
0010
0100
0000
0000
0001
0000
0010
0000
0001
1000
0000
0000
0010
0100
,
0010
0000
1000
0001
1000
0000
0200
0000
0000
0000
1300
0000
0010
0000
0001
0000
,
0100
0001
0010
1000
0100
0010
0100
1000
,
0001
0000
0100
0000
0010
1000
0000
0010
1000
0000
0000
0001
0000
0000
0100
0000
,
0001
0000
0001
0000
1000
0000
1000
0000
0001
0100
0001
0000
0010
0000
0100
0000
,
1100
0000
0000
1100
0000
0000
0010
0000
0101
0000
0000
0101
0000
0000
0010
0000
,
1000
0001
1000
0001
1000
0000
0010
0000
0100
0000
0001
0000
0010
0100
0010
0100
,
0010
0000
0001
0000
0100
0010
0000
0010
1000
0000
0000
0001
0000
0000
1000
0100
,
1000
0000
0010
0100
0000
0100
0001
0000
0010
0000
0001
1000
0001
0000
0100
0000
,
0010
0000
1000
0100
1000
0000
0002
0000
0000
0000
0103
0000
0010
0000
2000
0000
,
0001
0001
3100
0010
1000
0010
0001
0100
,
0010
1010
0101
0011
,
1200
0000
0000
0001
0000
0000
1000
0000
1300
0000
0010
0000
0100
0000
0001
0000
,
0010
0100
1100
0000
0101
0000
1010
0000
,
0012
0000
0000
0100
0000
0000
1000
0000
1003
0000
0010
0000
0100
0000
0001
0000
,
0010
0100
1100
0000
1010
0000
0011
0000
,
0101
0000
0010
0000
1000
0100
1000
0100
1000
0000
0010
0000
0100
0000
0001
0000
,
1000
0100
1000
0000
0001
0000
0100
0000
0010
0000
0010
1000
0000
1000
0001
0000
,
0100
0001
0001
0000
0011
0000
1000
1000
,
0000
0010
0000
0100
0100
0001
1000
0001
,
0010
0000
1001
0000
0000
0000
0100
0000
0100
0000
0001
0010
0100
0000
0000
0110
,
0000
0000
0010
0001
0010
0100
1000
0000
0010
1000
0010
0100
0001
0000
1000
0000
,
1000
0000
1010
0000
0100
0100
0000
0101
,
0000
0000
0000
0001
0000
0000
0001
0000
0010
0000
0100
0000
1000
0000
0000
0001
0000
0000
1000
0000
0000
0100
0000
0000
,
0002
0000
0013
0001
0100
2000
0000
0010
,
3010
1000
0100
0010
0001
0100
0020
0000
0000
0000
0000
0000
,
1030
0100
1000
0100
0010
0001
0010
0001
1000
0000
0010
0100
0000
0000
0001
0000
,
0010
0000
0001
1000
0000
0000
0010
1000
0100
0000
0010
0001
0000
0000
1000
0000
,
0010
0000
1000
0100
0000
0000
1000
0001
0010
0000
0001
0100
0000
0100
0010
0000
,
1000
0000
0100
1000
0000
0000
0001
0100
0010
0000
1000
0001
0000
1000
0001
0000
,
0010
0000
0001
1000
0000
0001
1000
0000
0100
0000
0010
0001
0000
0000
0100
0000
,
0010
0000
1000
0001
0000
0000
0010
0100
1000
0000
0001
0100
0000
0001
0100
0000
,
0010
0000
1000
0100
0000
0000
1000
0001
0010
0000
0001
0100
0000
0010
1000
0000
,
0100
0000
1000
0010
0000
0000
1000
0100
0010
0000
0001
1000
0000
0001
1000
0000
,
0010
0000
0000
0100
0000
0001
1000
0000
1010
0000
1010
0000
0001
0010
0000
0001
,
0000
0000
0100
0000
0000
1000
0000
0000
0101
0000
0101
0000
1000
0100
0000
1000
,
0000
0000
0010
0000
0000
0001
0000
0000
0011
0000
0011
0000
1000
0001
0000
0010
,
0000
0000
0001
0000
0000
0100
0000
0000
1100
0000
1100
0000
0010
1000
0000
0001
,
0000
0000
0100
0000
0000
1000
0000
0000
0110
0000
0110
0000
0001
0010
0000
0001
,
0100
0000
0010
0000
0000
1000
0000
0000
1100
0000
1100
0000
0010
1000
0000
1000
,
0001
0000
0010
0000
0000
0100
0000
0000
1010
0000
1010
0000
0001
0010
0000
0001
,
1000
0000
0100
0000
0000
0010
0000
0000
0001
0000
0001
0000
1000
0000
1000
0000
,
0010
0000
0010
0000
0100
0000
0100
0000
0001
1000
0001
1000
0001
1000
0001
1000
,
0001
0110
0110
0000
1001
0000
0000
0000
,
0000
0000
0000
0000
,
1000
0000
0000
0010
0000
0000
1000
0000
0100
0000
0010
0000
0001
0000
0000
0000
0000
0000
0101
0000
0000
0000
0000
0000
,
0000
0000
0000
0000
,
0000
0000
0000
0000
0000
0000
0000
0000
0110
0000
0000
0000
1000
0010
0100
0010
,
1000
0000
0000
0001
0000
0000
0010
0000
0001
0000
0000
0100
0000
0000
1000
0000
,
0010
0000
1000
0100
0000
0100
0001
0000
1000
0010
1000
0000
0001
0010
0001
0000
,
1000
0100
1000
0000
0001
0100
0001
0000
0010
0100
0010
0000
0001
1000
0001
0000
,
0100
0110
0110
0000
1000
0010
0100
0001
,
0010
1000
0010
0001
0100
0010
1010
0000
,
0101
0000
0000
0000
1100
0000
0000
0000
0011
0000
0001
0100
0000
0000
0010
0000
,
1000
0100
1000
0001
0100
0010
0101
0000
,
0011
0000
0000
0000
1100
0000
0000
0000
1010
0000
0100
1000
0000
0000
0001
0000
,
0010
1000
0010
0001
0100
0000
0011
0000
,
1010
0000
0000
0000
0101
0000
0000
0000
1100
0000
0001
0010
0001
0000
0100
0000
,
0010
0000
1000
0100
1000
0000
0001
0000
0010
0001
0100
0000
0010
0000
1000
0000
,
1100
0000
0000
0110
0000
0000
0011
0000
1000
0000
1000
0000
0000
0000
0001
0000
,
0001
0000
0000
0000
1000
0000
0001
0000
0000
0000
0010
0100
0010
0100
0010
0100
,
0010
0100
0010
0100
0010
0000
2200
0000
0000
0000
0000
0000
0000
0000
0000
0000
,
0000
0000
0000
0000
,
0000
3300
0000
0000
;

//---------------dance-single - ----------------
#NOTES:
     dance-single:
     :
     Challenge:
     16:
     :
0000
0000
0000
0000
,
0000
0000
0000
0000
,
0000
0000
0000
0000
,
0000
0000
0000
0000
,
0001
0000
0000
0001
0100
0000
0010
0000
1000
0000
0000
0001
0000
1000
0100
0000
,
0010
0000
0000
0010
0001
0000
1000
0000
0010
0000
0000
0100
0000
0001
0100
0000
,
0010
0000
0000
0010
1000
0000
0100
0000
1000
0000
0000
0001
0000
0001
0100
0000
,
0101
0000
0000
1100
0000
0000
0202
0000
0000
0000
0000
0000
0300
0000
0000
0000
,
1000
1000
1000
1000
,
1003
0000
0010
0000
0100
0000
0010
0000
1000
0001
1000
0001
1000
0000
0100
0010
,
0001
0100
0010
0100
1000
0100
0001
0100
,
0010
0000
1000
0000
0100
1000
0000
1000
0001
0000
0000
0010
0001
0000
0100
0010
,
1000
0100
0001
0100
0010
1000
0010
0001
,
0101
0000
0000
0101
0000
0000
0101
0000
1100
0000
0000
1100
0000
0000
1100
0000
,
0001
0100
0010
1000
0100
0010
0001
0000
1000
0000
0010
0000
0100
0000
0001
0000
,
0010
0000
0100
0000
1000
0001
0000
0001
0100
0000
0000
0010
1000
0000
0100
1000
,
0001
0000
0010
0001
0100
0000
0010
0000
1000
0000
0100
1000
0001
0000
0010
0100
,
1000
0000
0010
0100
0001
0000
0011
0000
0000
0000
1000
0000
0010
0000
0100
0000
,
0001
0010
0100
0010
0001
0000
1000
0000
0100
0000
0001
0000
0100
0000
1000
0000
,
0010
0000
0100
0000
0010
1000
0000
1000
0001
0000
0100
0010
0000
0010
0100
0000
,
0001
0000
0001
0000
0001
0000
1000
0000
1000
0100
0010
0000
0001
0100
0010
0000
,
1010
0000
0000
1010
0000
0000
1010
0000
0101
0000
0000
0101
0000
0000
0101
0000
,
1000
0100
0010
0001
0100
0010
1000
0000
0001
0000
0100
0000
1000
0000
0010
0000
,
0100
0000
0001
0000
0010
0100
0000
0100
1000
0000
0001
1000
0000
1000
0100
0000
,
0010
0000
0001
1000
0000
0001
1000
0000
0010
0000
1000
0100
0010
0000
0001
0100
,
0010
0000
1000
0001
1000
0000
1010
0000
0000
0000
0010
0000
0100
0000
0002
0000
,
0010
0010
1003
0001
0100
0010
1000
0100
,
0001
0000
0010
0000
1000
0100
0000
0000
0100
0010
0000
0000
0010
0001
0000
0000
,
0200
0010
0310
1000
0001
0010
0001
1000
,
0010
0000
0100
0000
0001
1000
0000
0000
1000
0100
0000
0000
0100
0010
0000
0000
,
0001
0000
0100
0010
0100
0000
0001
0000
1000
0000
0010
0000
1000
0000
0001
0000
,
0100
0000
1000
0000
0100
0001
0000
0000
0001
1000
0000
0000
1000
0100
0000
0000
,
1000
0000
0001
0010
0001
0000
0100
0000
0010
0000
1000
0001
1000
0000
0100
0000
,
0010
0001
0100
0000
0100
0000
0010
0000
1000
0000
0001
0100
0000
0010
1000
0000
,
1001
0100
0001
0000
0010
0000
1000
1010
,
0000
0011
0000
0101
0110
0010
0100
0001
,
1000
0000
1000
0000
0000
0000
0001
0000
0001
0000
0010
0001
0100
0000
0000
0110
,
0000
0000
1000
0100
1000
0000
0001
0000
0100
0010
0100
0010
0100
0000
0001
0000
,
0001
0010
0001
0100
1000
1001
0000
1010
,
0000
0000
0000
0101
0000
0000
1000
0000
0100
0000
0010
0000
0001
0000
0000
0100
0000
0000
0010
0000
0000
1000
0000
0000
,
0200
0000
1300
0010
0100
0002
0000
0000
,
0013
0001
0100
0010
1000
0100
0020
0000
0000
0000
0000
0000
,
0031
0100
0001
0100
0010
1000
0010
1000
0100
0000
1000
0001
0000
0001
0100
0000
,
0010
0000
1000
0100
0000
0100
0010
0000
0001
0000
1000
0001
0000
0001
0100
0000
,
0010
0000
1000
0100
0000
0000
1000
0001
0010
0000
0001
0100
0000
0100
0010
0000
,
1000
0000
0100
1000
0000
0000
0001
1000
0010
0000
0100
0001
0000
0001
1000
0000
,
0010
0000
1000
0100
0000
0000
1000
0001
1000
0000
0010
0100
0000
0010
0100
0000
,
0001
0000
0010
0100
0000
0010
0100
0000
1000
0000
0001
0100
0000
0001
0100
0000
,
0010
0000
1000
0100
0000
1000
0100
0000
0010
0000
0001
1000
0000
0001
1000
0000
,
0010
0000
1000
0100
0000
1000
0100
0010
0001
0000
0100
0010
0000
0010
1000
0000
,
0100
0000
1000
0001
0000
0001
0010
0100
1000
0000
1000
0000
0001
0100
0000
0001
,
0100
0000
0110
0000
0000
1001
0000
0000
0010
0000
0010
0000
1000
0001
0000
1000
,
0001
0000
0011
0000
0000
1100
0000
0000
0010
0000
0010
0000
0100
0001
0000
0100
,
0001
0000
1001
0000
0000
1010
0000
0000
0100
0000
0100
0000
1000
0010
0000
0100
,
0001
1000
0001
1000
0001
1000
0001
1000
0010
0000
0100
0000
0001
0010
0000
0010
,
0100
0000
1000
0000
0000
0010
0100
0000
0010
0000
1000
0000
0100
0010
0000
0010
,
0001
0000
1000
0000
0000
0001
0100
0000
0010
0000
0010
0000
1000
0001
0000
1000
,
0100
0000
0010
0000
0000
0001
1000
0000
0110
0000
0001
0000
1000
0000
1100
0000
,
0000
0000
0001
0000
0001
0000
0001
0000
1000
0100
1000
0100
1000
0010
1000
0010
,
1000
1010
0101
0000
1001
0000
0000
0000
,
0000
0000
0000
0000
,
1000
0000
0000
0010
0000
0000
1000
0000
0000
0010
0000
0000
1000
0000
0000
0000
0100
0000
0000
0000
0010
0000
0000
0000
0001
0000
0000
0000
0000
0000
0000
0000
0000
0000
0000
0000
0101
0000
0000
0000
0000
0000
0000
0000
0000
0000
0000
0000
,
0000
0000
0000
0000
,
0000
0000
1001
0110
,
1000
0000
0000
0010
1000
0000
0001
0000
0000
0000
0100
0000
0200
0000
0000
0000
,
0310
0000
1000
0100
0000
1000
0100
0000
1000
0010
1000
0010
0100
0001
0100
0001
,
1000
0100
1000
0100
0010
0001
0010
0001
0100
0010
0100
0010
1000
0001
1000
0001
,
0100
0000
0110
0000
1001
0000
0000
0000
0001
0010
0000
0001
0100
0000
0010
0000
,
1000
0000
0100
0000
1000
0000
0001
0000
0100
0000
1000
0000
0100
0001
0000
0000
,
0001
0010
0000
0000
0010
0100
0000
0000
1000
0000
0010
1000
0001
0000
0100
0000
,
1000
0100
0010
1000
0001
0000
0011
0000
,
1100
0000
0000
0101
0000
0000
1100
0000
0010
0000
1000
0100
0010
0000
0001
0000
,
0100
0000
1000
0000
0100
0000
0001
0000
0010
0000
0100
0000
1000
0010
0000
0000
,
0010
0100
0000
0000
0100
0001
0000
0000
0010
0000
0001
0100
0001
0000
1000
0000
,
0010
0000
1000
0100
1000
0000
0001
0000
0010
0001
0100
0000
0100
0000
0010
0000
,
1000
0000
0100
1000
0001
0000
0001
0000
0011
0000
0011
0000
0000
0000
1100
0000
,
1100
0000
0000
0000
0101
0000
0101
0000
0000
0000
0001
0010
0001
0010
0100
0010
,
0001
0100
0010
1000
0001
0000
2200
0000
0000
0000
0000
0000
0000
0000
0000
0000
,
0000
0000
0000
0000
,
0000
3300
0000
0000
;
