#VERSION:0.83;
#TITLE:Quick Master;
#SUBTITLE:;
#ARTIST:act deft;
#TITLETRANSLIT:;
#SUBTITLETRANSLIT:;
#ARTISTTRANSLIT:;
#GENRE:;
#ORIGIN:;
#CREDIT:;
#BANNER:Quick Master-bn.png;
#BACKGROUND:Quick Master-bg.png;
#PREVIEWVID:;
#JACKET:Quick Master-jacket.png;
#CDIMAGE:;
#DISCIMAGE:;
#LYRICSPATH:;
#CDTITLE:;
#MUSIC:Quick Master.ogg;
#OFFSET:0.000000;
#SAMPLESTART:24.100000;
#SAMPLELENGTH:20.000000;
#SELECTABLE:YES;
#DISPLAYBPM:125.000000:158.000000;
#BPMS:0.000=146.939,
4.000=151.345,
7.750=140.625,
8.000=147.541,
10.000=142.857,
11.000=145.161,
12.000=147.541,
15.000=134.328,
16.000=146.739,
19.000=145.161,
23.000=140.625,
24.000=146.341,
26.000=145.161,
28.000=144.578,
32.000=145.161,
34.000=147.541,
35.000=140.625,
36.000=152.542,
37.000=145.161,
40.000=145.946,
43.000=138.462,
44.000=150.000,
45.000=143.617,
48.000=145.946,
51.000=136.364,
52.000=150.000,
53.000=147.541,
55.000=145.161,
55.500=140.625,
56.000=147.541,
58.000=142.857,
59.000=134.328,
60.000=157.895,
61.000=145.161,
62.000=142.857,
63.000=145.161,
70.000=144.000,
72.000=147.541,
74.000=145.161,
76.000=145.005,
91.000=138.462,
92.000=152.542,
93.000=142.857,
94.000=145.161,
101.000=146.341,
103.000=142.857,
104.000=146.739,
107.000=140.625,
108.000=144.578,
112.000=145.946,
115.000=142.857,
116.000=147.541,
117.000=145.161,
119.000=142.857,
120.000=147.541,
121.000=143.617,
124.000=145.161,
129.000=144.000,
131.000=145.161,
132.000=152.542,
133.000=145.161,
135.000=146.739,
135.750=125.000,
136.000=145.946,
139.000=145.161,
140.000=144.578,
144.000=145.749,
148.000=144.966,
160.000=145.161,
164.000=147.541,
165.000=145.161,
167.000=140.625,
168.000=150.000,
169.000=142.857,
170.000=150.000,
171.000=130.435,
172.000=152.542,
173.000=147.541,
176.000=145.161,
204.000=145.683,
213.000=145.833;
#STOPS:;
#DELAYS:;
#WARPS:;
#TIMESIGNATURES:0.000=4=4;
#TICKCOUNTS:0.000=4;
#COMBOS:0.000=1;
#SPEEDS:0.000=1.000=0.000=0;
#SCROLLS:0.000=1.000;
#FAKES:;
#LABELS:0.000=Song Start;
#BGCHANGES:;
#KEYSOUNDS:;
#ATTACKS:
;

//---------------dance-single - ----------------
#NOTEDATA:;
#CHARTNAME:;
#STEPSTYPE:dance-single;
#DESCRIPTION:;
#CHARTSTYLE:;
#DIFFICULTY:Beginner;
#METER:4;
#RADARVALUES:0.149375,0.175004,0.088052,0.000000,0.000000,95.000000,87.000000,8.000000,0.000000,0.000000,0.000000,0.000000,0.000000,0.000000,0.149375,0.175004,0.088052,0.000000,0.000000,95.000000,87.000000,8.000000,0.000000,0.000000,0.000000,0.000000,0.000000,0.000000;
#CREDIT:;
#DISPLAYBPM:147.000000;
#NOTES:
0000
0000
0000
0000
,
0000
0000
0000
0000
,
0000
0000
0000
0000
,
0000
0000
0000
0000
,
0000
0000
0000
0000
,
0010
0000
0001
0000
,
1000
0000
0010
0000
,
1001
0000
0000
0000
,
0100
0000
0010
0000
,
1000
0000
1000
0000
,
0001
0000
0001
0000
,
0010
0000
0010
0000
,
1000
0000
1000
0000
,
0110
0000
0000
0000
,
1001
0000
0000
0000
,
0010
0000
0001
0000
,
0100
0000
0001
0000
,
1000
0000
1000
0000
,
1000
0000
0010
0000
,
0010
0000
0010
0000
,
0100
0000
1000
0000
,
0010
0000
0100
0000
,
0001
0000
0100
0000
,
0010
0000
0100
0000
,
0010
0000
0100
0000
,
1000
0000
0100
0000
,
0010
0000
0001
0000
,
0010
0000
1000
0000
,
0010
0000
0001
0000
,
1000
0000
0001
0000
,
1000
0000
0010
0000
,
0100
0000
0100
0000
,
0001
0000
0001
0000
,
0100
0000
0100
0000
,
1001
0000
0000
0000
,
0100
0000
0000
0000
,
0001
0000
0000
0000
,
0010
0000
0000
0000
,
1000
0000
0000
0000
,
0001
0000
0100
0000
,
1000
0000
0100
0000
,
0010
0010
0000
0100
,
0000
1000
0000
1001
,
0000
1000
0000
0001
,
0000
0010
0000
1000
,
0000
1000
0000
0001
,
0000
0001
0000
1000
,
0000
0000
1000
0000
,
0010
0000
0100
0000
,
0001
0000
0010
0000
,
1000
0000
0001
0000
,
1001
0000
0000
0000
,
0110
0000
0000
0000
,
1001
0000
0000
0000
,
0000
0000
0000
0000
;

//---------------dance-single - ----------------
#NOTEDATA:;
#CHARTNAME:;
#STEPSTYPE:dance-single;
#DESCRIPTION:;
#CHARTSTYLE:;
#DIFFICULTY:Easy;
#METER:5;
#RADARVALUES:0.234282,0.291674,0.110065,0.308183,0.000000,149.000000,139.000000,10.000000,28.000000,0.000000,0.000000,0.000000,0.000000,0.000000,0.234282,0.291674,0.110065,0.308183,0.000000,149.000000,139.000000,10.000000,28.000000,0.000000,0.000000,0.000000,0.000000,0.000000;
#CREDIT:;
#DISPLAYBPM:147.000000;
#NOTES:
0000
0000
0000
0000
,
0000
0000
0000
0000
,
0000
0000
0000
0000
,
0000
0000
0000
0000
,
0000
0000
0000
0000
,
0010
0000
0001
0000
,
1000
0000
0010
0000
,
2002
0000
0000
3003
,
0100
0001
0010
0001
,
1000
0100
1000
0000
,
0001
0100
0001
0000
,
0010
0100
0010
0000
,
1000
0001
1000
0000
,
0220
0000
0000
0330
,
2002
0000
0000
3003
,
0010
1000
0001
0010
,
0100
0010
0001
0100
,
1000
0010
1000
0100
,
1000
0001
0010
0100
,
0010
1000
0010
0001
,
0100
0010
1000
0001
,
0010
1000
0100
1000
,
0001
0010
0100
1001
,
0010
0001
0200
0300
,
0010
1000
0200
0300
,
1000
0001
0200
0300
,
0010
1000
0002
0003
,
0010
0100
2000
3000
,
0010
0100
0002
0003
,
2000
3000
0002
0003
,
1000
0100
0010
1001
,
0100
1000
0100
1000
,
0001
0010
0001
0010
,
0100
0010
0100
0010
,
2002
0000
0000
3003
,
0200
0000
0000
0300
,
0002
0000
0000
0003
,
0020
0000
0000
0030
,
2000
0000
0000
3000
,
0001
0000
0100
0000
,
1000
0000
0100
0000
,
0010
0010
0100
0100
,
0001
1000
0010
1001
,
0100
1000
0010
0001
,
1000
0010
0100
1000
,
0001
1000
0100
0001
,
0010
0001
0100
1000
,
0002
0003
2000
3000
,
0020
0030
0200
0300
,
0001
0100
0010
0100
,
1000
0010
0001
1000
,
2002
0000
0000
3003
,
0220
0000
0000
0330
,
1001
0000
0000
0000
,
0000
0000
0000
0000
;

//---------------dance-single - ----------------
#NOTEDATA:;
#CHARTNAME:;
#STEPSTYPE:dance-single;
#DESCRIPTION:;
#CHARTSTYLE:;
#DIFFICULTY:Medium;
#METER:8;
#RADARVALUES:0.383657,0.408343,0.275164,0.121072,0.060536,244.000000,219.000000,25.000000,11.000000,0.000000,0.000000,0.000000,0.000000,0.000000,0.383657,0.408343,0.275164,0.121072,0.060536,244.000000,219.000000,25.000000,11.000000,0.000000,0.000000,0.000000,0.000000,0.000000;
#CREDIT:;
#DISPLAYBPM:147.000000;
#NOTES:
0000
0000
0000
0000
,
0000
0000
0000
0000
,
0000
0000
0000
0000
,
0000
0000
0000
0000
,
0000
0000
0000
0000
,
0010
1000
0100
0001
,
0010
0001
0100
1000
,
0001
0010
0100
0001
,
1000
0000
0100
0010
0100
0000
1001
0000
,
0010
0000
0001
0000
0010
0100
1000
0000
,
0001
0000
0010
0000
0001
1000
0010
0000
,
0100
0000
1000
0000
0100
0001
0010
0000
,
0001
0000
1000
0000
0100
0010
0001
0000
,
2000
0010
0001
3100
,
0002
0010
0103
1001
,
1000
0000
0010
0000
0100
0010
0001
0000
,
0100
0000
0010
0000
0001
1000
0100
0000
,
0010
0101
0010
1100
,
0001
0000
0000
1000
0000
0000
0010
0000
0100
0000
0000
0000
1001
0000
0000
0000
,
0100
0000
0010
0000
0001
0100
1000
0000
,
0001
0000
1000
0000
0100
1000
0010
0000
,
0001
1100
0010
1001
,
0100
0000
0000
0010
0000
0000
1000
0000
0100
0000
0000
0000
0011
0000
0000
0000
,
0100
0000
0000
0001
0000
0000
0100
0000
0010
0000
0000
0000
1001
0000
0000
0000
,
0100
0000
0000
0010
0000
0000
0001
0000
1000
0000
0000
0000
0110
0000
0000
0000
,
1000
0000
0000
0001
0000
0000
1000
0000
0010
0000
0000
0000
0101
0000
0000
0000
,
1000
0000
0000
0001
0000
0000
0010
0000
0100
0000
0000
0000
0011
0000
0000
0000
,
0100
0000
0000
0010
0000
0000
1000
0000
0100
0000
0000
0000
0101
0000
0000
0000
,
0010
0000
0000
0100
0000
0000
0001
0000
1000
0000
0000
0000
1100
0000
0000
0000
,
0010
0000
0000
0001
0000
0000
1000
0000
0010
0000
0000
0000
0101
0000
0000
0000
,
0010
0000
0000
0001
0000
0000
1000
0000
0001
0000
0000
0000
0110
0000
0000
0000
,
1002
0100
0010
1003
,
0210
0001
1000
0310
,
2001
0100
0001
3010
,
0202
0000
0000
0000
0303
0000
0000
0000
0010
0000
0000
0001
0000
0000
0100
0000
,
0002
0000
0000
0000
,
0100
0000
0000
1000
0000
0000
0010
0000
,
2003
0000
0000
0000
,
0100
0000
0000
0001
0000
0010
3000
0001
,
1000
0000
0010
0000
0100
0010
0001
0000
,
1000
0000
0010
0000
0100
0001
1000
0000
,
0010
1000
0100
0000
0010
0001
0100
0000
,
0001
0000
0010
1000
0001
0000
0110
0000
,
1000
0000
0010
0000
0100
1000
0010
0000
,
0001
0000
0100
0001
0000
0100
1000
0000
,
0010
0000
0100
0000
0010
1000
0100
0000
,
0001
0000
1000
0010
0000
0001
0010
0000
,
1000
0000
0100
0000
0010
1000
0100
0000
,
0001
0000
0010
0000
0100
1000
0001
0000
,
0010
0000
0001
0000
1000
0010
0001
0000
,
0010
0000
0100
0010
1000
0000
1100
0000
,
0102
0010
1000
0013
,
2010
0000
0100
0000
3001
0100
0010
0000
,
1001
0000
0000
0000
,
0000
0000
0000
0000
;

//---------------dance-single - ----------------
#NOTEDATA:;
#CHARTNAME:;
#STEPSTYPE:dance-single;
#DESCRIPTION:;
#CHARTSTYLE:;
#DIFFICULTY:Hard;
#METER:11;
#RADARVALUES:0.462275,0.554180,0.231138,0.132079,0.203621,294.000000,273.000000,21.000000,12.000000,0.000000,0.000000,0.000000,0.000000,0.000000,0.462275,0.554180,0.231138,0.132079,0.203621,294.000000,273.000000,21.000000,12.000000,0.000000,0.000000,0.000000,0.000000,0.000000;
#CREDIT:;
#DISPLAYBPM:125.000000:158.000000;
#NOTES:
0000
0000
0000
0000
,
0000
0000
0000
0000
,
0000
0000
0000
0000
,
0000
0000
0000
0000
,
0000
0000
0000
0000
,
0010
0000
0000
0000
0001
0000
0000
1000
0000
0010
0000
0000
1000
0000
0000
0000
,
0100
0000
0000
0000
1000
0000
0000
0001
0000
0100
0000
0000
0001
0000
0000
0000
,
0010
0000
0000
0000
0100
0000
0000
1000
0000
0010
0000
0000
1000
0000
0000
0000
,
0100
0000
0000
0010
0001
0000
1000
0000
0001
0000
0000
0000
0100
0000
0010
0000
,
0000
0100
0001
1000
0000
0100
0010
0001
,
0000
1000
0010
0100
0000
1000
0100
0001
,
0000
0010
0001
1000
0000
0010
1000
0100
,
0000
1000
0001
0100
0000
0010
0100
1000
,
0002
0000
0000
0000
0100
0000
0000
1000
0000
1000
0000
0000
0013
0000
0000
0000
,
2000
0000
0000
0000
0001
0000
0000
0010
3000
0000
0110
0000
1001
0000
0000
0000
,
0001
1000
0100
0000
0010
0100
1000
0000
,
0010
1000
0100
0001
1000
0001
0010
0000
,
0100
0010
0001
0000
1100
0000
0010
0100
,
1000
0000
0000
0001
0100
0000
0100
0000
0010
0000
0000
0000
1001
0000
0000
0000
,
0010
1000
0100
0000
1000
0010
0001
0000
,
1000
0100
0001
0010
0100
1000
0001
0000
,
0001
0010
0001
0000
1000
0010
1000
0000
,
0010
0000
0100
0000
0001
0000
0100
0000
0010
0000
0000
1000
0100
0000
1000
0000
,
0010
0000
0000
1000
0001
0000
0010
0000
0100
0000
0000
0000
1001
0000
0000
0000
,
0010
0000
0000
1000
0100
0000
1000
0000
0001
0000
0000
0000
0110
0000
0000
0000
,
0001
0000
0000
0010
0100
0000
0010
0000
0001
0000
0000
0000
1100
0000
0000
0000
,
0010
0000
0000
1000
0001
0000
0100
0000
0010
0000
0000
0000
1000
0000
0100
0000
,
0010
0000
0000
0100
1000
0000
0001
0000
0100
0000
0000
0000
1010
0000
0000
0000
,
0100
0000
0000
0010
0001
0000
1000
0000
0010
0000
0000
0000
0101
0000
0000
0000
,
0010
0000
0000
1000
0100
0000
1000
0000
0010
0000
0000
0000
0101
0000
0000
0000
,
1100
0000
0000
1001
0000
0000
0011
0000
1010
0000
0000
0000
0110
0000
0000
0000
,
2001
0000
0000
0000
0010
0000
0000
0001
0000
0100
0000
0000
3001
0000
0000
0000
,
0210
0000
0000
0000
1000
0000
0000
0010
0000
0001
0000
0000
1300
0000
0000
0000
,
0102
0000
0000
0000
0010
0000
0000
1000
0000
0100
0000
0000
1003
0000
0000
0000
,
0220
0000
0000
0000
0330
0000
0000
0000
0001
0000
0000
0010
0000
0000
0100
0000
,
2000
0000
0001
0000
,
0010
0000
0000
0001
0000
0000
0100
0000
,
3020
0000
0200
0030
,
0001
0000
0000
1000
0000
0010
0300
0001
,
1000
0000
0000
0000
0100
0000
0000
0010
0000
0100
0000
0000
1000
0000
0000
0000
,
0001
0000
0000
0000
0100
0000
0000
0010
0000
0100
0000
0000
0001
0000
0000
0000
,
1000
0010
0001
0010
1000
0100
0001
0100
,
1000
0000
0000
0010
0100
0000
0001
0000
0010
0000
0000
0000
1100
0000
0000
0000
,
0010
1000
0100
0000
0010
0001
0100
0000
,
1000
0000
0100
0001
0000
0010
0100
0001
,
0100
1000
0001
0000
0100
0001
0010
0000
,
1000
0000
0001
0100
0000
1000
0100
0010
,
0100
1000
0010
0000
0100
0001
0010
0000
,
1000
0001
0100
0000
0010
0100
1000
0000
,
0001
0100
1000
0100
0001
0100
1000
0000
,
0100
0000
0000
0001
0010
0000
0100
0000
1000
0000
0000
0001
0100
0000
0001
0000
,
2000
0000
0000
0000
0010
0000
0000
0001
0000
0001
0000
0000
3100
0000
0000
0000
,
0102
0000
0000
0000
0010
0000
0000
1000
0003
0000
0010
0000
0100
0000
0001
0000
,
1000
0000
0000
0000
;

//---------------dance-double - ----------------
#NOTEDATA:;
#CHARTNAME:;
#STEPSTYPE:dance-double;
#DESCRIPTION:;
#CHARTSTYLE:;
#DIFFICULTY:Easy;
#METER:5;
#RADARVALUES:0.220131,0.291674,0.077046,0.264157,0.000000,140.000000,133.000000,7.000000,24.000000,0.000000,0.000000,0.000000,0.000000,0.000000,0.220131,0.291674,0.077046,0.264157,0.000000,140.000000,133.000000,7.000000,24.000000,0.000000,0.000000,0.000000,0.000000,0.000000;
#CREDIT:;
#DISPLAYBPM:147.000000;
#NOTES:
00000000
00000000
00000000
00000000
,
00000000
00000000
00000000
00000000
,
00000000
00000000
00000000
00000000
,
00000000
00000000
00000000
00000000
,
00000000
00000000
00000000
00000000
,
00000010
00000000
00001000
00000000
,
00000001
00000000
00000010
00000000
,
00000100
00000000
00001000
00000000
,
00000010
00001000
00000100
00001000
,
00000001
00000100
00000001
00000000
,
00001000
00000100
00001000
00000000
,
00010000
00001000
00010000
00000000
,
01000000
00010000
01000000
00000000
,
02200000
00000000
00000000
03300000
,
20020000
00000000
00000000
30030000
,
00100000
00010000
10000000
00100000
,
01000000
00100000
10000000
00010000
,
01000000
00100000
00010000
01000000
,
10000000
01000000
00010000
00000000
,
00001000
00000100
00000010
00000001
,
00000100
00001000
00000001
00001000
,
00000010
00000000
00000100
00000000
,
00001000
00000010
00000100
00001001
,
00000010
00001000
00000200
00000300
,
00000010
00000001
00000200
00000300
,
00000001
00001000
00000200
00000300
,
00000001
00000100
00002000
00003000
,
00001000
00010000
00002000
00003000
,
00010000
01000000
20000000
30000000
,
00020000
00030000
20000000
30000000
,
00010000
01000000
00100000
10010000
,
02000000
00000000
00000000
03000000
,
00020000
00000000
00000000
00030000
,
00002000
00000000
00000000
00003000
,
00022000
00000000
00000000
00033000
,
00000100
00000000
00000100
00000000
,
00001000
00000000
00001000
00000000
,
00000010
00000000
00000010
00000000
,
00000001
00000000
00000001
00000000
,
00001000
00000100
00001000
00000100
,
00000001
00000100
00000001
00000100
,
00001000
00001000
00010000
00010000
,
01000000
10000000
00100000
10010000
,
01000000
00010000
00100000
10000000
,
00010000
00100000
01000000
00010000
,
00001000
00000100
00000010
00001000
,
00000001
00001000
00000100
00000001
,
00002000
00003000
00000002
00000003
,
00000020
00000030
00000200
00000300
,
00002000
00000000
00000000
00003000
,
00000001
00000100
00001000
00010000
,
00002000
00000000
00000000
00000000
,
00020000
00000000
00000000
00033000
,
00011000
00000000
00000000
00000000
,
00000000
00000000
00000000
00000000
;

//---------------dance-double - ----------------
#NOTEDATA:;
#CHARTNAME:;
#STEPSTYPE:dance-double;
#DESCRIPTION:;
#CHARTSTYLE:;
#DIFFICULTY:Medium;
#METER:7;
#RADARVALUES:0.378940,0.379176,0.264157,0.099059,0.016510,241.000000,217.000000,24.000000,9.000000,0.000000,0.000000,0.000000,0.000000,0.000000,0.378940,0.379176,0.264157,0.099059,0.016510,241.000000,217.000000,24.000000,9.000000,0.000000,0.000000,0.000000,0.000000,0.000000;
#CREDIT:;
#DISPLAYBPM:147.000000;
#NOTES:
00000000
00000000
00000000
00000000
,
00000000
00000000
00000000
00000000
,
00000000
00000000
00000000
00000000
,
00000000
00000000
00000000
00000000
,
00000000
00000000
00000000
00000000
,
00100000
00010000
01000000
10000000
,
00100000
10000000
01000000
00010000
,
00001000
00010000
00001000
00010000
,
00001000
00000100
00000010
00001001
,
00000100
00000000
00001000
00000000
00000010
00000100
00000001
00000000
,
00001000
00000000
00000010
00000000
00001000
00000001
00000010
00000000
,
00001000
00000000
00010000
00000000
01000000
10000000
00100000
00000000
,
10000000
00000000
00010000
00000000
01000000
00100000
10000000
00000000
,
01020000
10000000
01000000
10030000
,
20100000
00010000
31000000
10010000
,
00010000
00000000
00100000
00000000
10000000
01000000
00010000
00000000
,
00001000
00000000
00010000
00000000
00001000
00000010
00000100
00000000
,
00001000
00000101
00000010
00001100
,
00000010
00000000
00000000
00000001
00000000
00000000
00000100
00000000
00000001
00000000
00000000
00000000
00000110
00000000
00000000
00000000
,
00000001
00000000
00000100
00000000
00001000
00010000
00001000
00000000
,
00010000
00000000
00100000
00000000
01000000
00010000
00100000
00000000
,
00010000
11000000
00100000
01010000
,
10000000
00000000
00000000
01000000
00000000
00000000
00010000
00000000
01000000
00000000
00000000
00000000
10010000
00000000
00000000
00000000
,
00100000
00000000
10000000
01000000
00100000
00000000
00010000
00000000
,
10000000
00000000
01000000
00010000
00001000
00000000
00000010
00000000
,
00000001
00000000
00001000
00000001
00000010
00000000
00000100
00000000
,
00000001
00000000
00001000
00000010
00000100
00000000
00000001
00000000
,
00000010
00000000
00000001
00000100
00001000
00000000
00010000
00000000
,
00001000
00000000
00010000
01000000
10000000
00000000
00010000
00000000
,
00100000
10010000
01000000
10010000
,
01000000
00000000
00000000
10000000
00000000
00000000
00100000
00000000
00010000
00000000
00000000
00000000
00001000
00000000
00000000
00000000
,
00012000
00100000
00010000
01003000
,
00021000
00000100
00001000
00030010
,
00012000
01000000
00010000
00103000
,
00022000
00000000
00033000
00000000
00001000
00000010
00000001
00000000
,
00001000
00000100
00000001
00000010
,
00000001
00000100
00001000
00000010
,
00000002
00000003
00002000
00003000
,
00000010
00000100
00001000
00010000
,
01010000
00000000
00000000
00000000
01000000
00100000
10000000
00000000
,
11000000
00000000
00000000
00000000
00100000
00010000
01000000
00000000
,
10000000
00010000
01000000
00000000
00010000
10000000
01000000
00000000
,
10000000
00000000
00100000
00010000
00001000
00000000
00011000
00000000
,
00000100
00000000
00000010
00000000
00000100
00000001
00000010
00000000
,
00000100
00000000
00001000
00000010
00000000
00000100
00000001
00000000
,
00001000
00000000
00000100
00000000
00000010
00000100
00001000
00000000
,
00000001
00000000
00000100
00000010
00000000
00001000
00000010
00000000
,
00010000
00011000
00100000
01010000
,
10000000
00110000
01000000
10010000
,
00100000
00000000
10000000
00000000
00010000
00100000
01000000
00000000
,
10000000
00000000
00010000
01000000
00100000
00000000
10010000
00000000
,
01000000
10000000
00100000
00010000
,
00001000
00000010
00000001
00000100
,
00001000
00000000
00000000
00000000
,
00000000
00000000
00000000
00000000
;

//---------------dance-double - ----------------
#NOTEDATA:;
#CHARTNAME:;
#STEPSTYPE:dance-double;
#DESCRIPTION:;
#CHARTSTYLE:;
#DIFFICULTY:Hard;
#METER:10;
#RADARVALUES:0.440262,0.466678,0.198118,0.022013,0.170602,280.000000,262.000000,18.000000,2.000000,0.000000,0.000000,0.000000,0.000000,0.000000,0.440262,0.466678,0.198118,0.022013,0.170602,280.000000,262.000000,18.000000,2.000000,0.000000,0.000000,0.000000,0.000000,0.000000;
#CREDIT:;
#DISPLAYBPM:147.000000;
#NOTES:
00000000
00000000
00000000
00000000
,
00000000
00000000
00000000
00000000
,
00000000
00000000
00000000
00000000
,
00000000
00000000
00000000
00000000
,
00000000
00000000
00000000
00000000
,
00000010
00000000
00001000
00000000
00000001
00000010
00000001
00000000
,
00000100
00000000
00000001
00000000
00001000
00000100
00001000
00000000
,
00000010
00000000
00000100
00000000
00000001
00001000
00000001
00000000
,
00000100
00000000
00000000
00000010
00000001
00000000
00000100
00000000
00001000
00000000
00000000
00000000
00011000
00000000
00000000
00000000
,
01000000
10000000
00010000
00000000
01000000
00100000
10000000
00000000
,
00010000
00000000
00100000
00000000
01000000
00000000
00000000
00000000
00010000
00000000
00000000
01000000
10000000
00000000
00010000
00000000
,
00100000
10000000
00010000
00000000
01000000
10000000
00100000
00000000
,
00010000
00000000
00001000
00000000
00000100
00000000
00000000
00000000
00000010
00000000
00000000
00000100
00000001
00000000
00000010
00000000
,
00000001
00000000
00000000
00000000
00001000
00000000
00000000
00000100
00000000
00000010
00000000
00000000
00000100
00000000
00000000
00000000
,
00001000
00000000
00000000
00000000
00000001
00000000
00000000
00000100
00000000
00000000
00000010
00000000
00000100
00000000
00000000
00000000
,
00001000
00010000
00100000
00000000
00100000
01000000
00010000
00000000
,
10000000
00000000
01000000
00010000
00000000
10000000
00100000
00000000
,
00010000
10000000
01000000
00000000
00100000
01000000
10000000
00000000
,
00100000
00000000
00000000
00010000
00000000
00000000
00001000
00000000
00000010
00000000
00000000
00000000
00001001
00000000
00000000
00000000
,
00000010
00000001
00000100
00000000
00000001
00000010
00001000
00000000
,
00000001
00000000
00001000
00000010
00000000
00001000
00000100
00000000
,
00010000
00000010
00010000
00000000
00001000
00010000
00001000
00000000
,
01000000
00000000
00000000
00010000
00000000
00000000
00100000
00000000
01000000
00000000
00000000
00000000
10010000
00000000
00000000
00000000
,
00100000
00000000
00000000
00010000
00000000
00000000
01000000
00000000
00010000
00000000
00000000
00000000
10100000
00000000
00000000
00000000
,
01000000
00000000
00000000
00010000
00000000
00000000
10000000
00000000
01000000
00000000
00000000
00000000
01010000
00000000
00000000
00000000
,
00001000
00000000
00000000
00010000
00000000
00000000
00000010
00000000
00001000
00000000
00000000
00000000
00000101
00000000
00000000
00000000
,
00000010
00000000
00000000
00000001
00000000
00000000
00000100
00000000
00000010
00000000
00000000
00000000
00001001
00000000
00000000
00000000
,
00000010
00000000
00000000
00000100
00000000
00000000
00001000
00000000
00000010
00000000
00000000
00000000
00000101
00000000
00000000
00000000
,
00000100
00000000
00000000
00001000
00000000
00000000
00010000
00000000
00001000
00000000
00000000
00000000
00011000
00000000
00000000
00000000
,
00100000
00000000
00000000
10000000
00000000
00000000
01000000
00000000
10000000
00000000
00000000
00000000
01010000
00000000
00000000
00000000
,
00100000
00000000
00000000
00001000
00000000
00000000
01000000
00000000
00010000
00000000
00000000
00000000
00011000
00000000
00000000
00000000
,
00001100
00000000
00000000
00000000
00000010
00000000
00000000
00001000
00000000
00000100
00000000
00000000
00001000
00000000
00000000
00000000
,
00000101
00000000
00000000
00000000
00001000
00000000
00000000
00000010
00000000
00001000
00000000
00000000
00000001
00000000
00000000
00000000
,
00001100
00000000
00000000
00000000
00000010
00000000
00000000
00000001
00000000
00000100
00000000
00000000
00001000
00000000
00000000
00000000
,
00022000
00000000
00000000
00000000
00033000
00000000
00000000
00000000
00010000
00000000
00000000
01000000
00000000
00000000
00100000
00000000
,
00010000
01000000
10000000
01000000
,
00100000
00000000
10000000
01000000
00000000
10000000
00010000
00000000
,
00100000
10000000
01000000
00010000
,
00001000
00000000
00000010
00000001
00000000
00001000
00000010
00000000
,
00000001
00000000
00000000
00000000
00000100
00000000
00000000
00000010
00000000
00000100
00000000
00000000
00000001
00000000
00000000
00000000
,
00001000
00000000
00000000
00000000
00000100
00000000
00000000
00000010
00000000
00000100
00000000
00000000
00001000
00000000
00000000
00000000
,
00000001
00000010
00001000
00010000
00001000
00000100
00001000
00000000
,
00010000
00000000
00000000
01000000
00100000
00000000
00010000
00000000
01000000
00000000
00000000
00000000
10100000
00000000
00000000
00000000
,
00010000
00100000
01000000
00000000
10000000
00100000
01000000
00000000
,
00010000
00000000
01000000
10000000
00000000
01000000
00100000
10000000
,
01000000
00010000
00001000
00000000
00000010
00000001
00001000
00000000
,
00000010
00000000
00010000
00000100
00000000
00001000
00000010
00000100
,
00000001
00000010
00001000
00000000
00010000
01000000
00100000
00000000
,
01000000
10000000
00100000
00000000
00100000
01000000
00010000
00000000
,
00100000
00001000
00010000
00000010
00001000
00000100
00000010
00000000
,
00000100
00001000
00000010
00000100
00000001
00000000
00000011
00000000
,
00001100
00000000
00000000
00000000
00010000
00000000
00000000
01000000
00000000
00100000
00000000
00000000
10000000
00000000
00000000
00000000
,
01000000
00000000
00000000
00000000
00100000
00000000
00000000
01000000
00000000
00000000
10000000
00000000
01000000
00000000
00010000
00000000
,
00001000
00000000
00000000
00000000
,
00000000
00000000
00000000
00000000
;

//---------------dance-single - ----------------
#NOTEDATA:;
#CHARTNAME:;
#STEPSTYPE:dance-single;
#DESCRIPTION:;
#CHARTSTYLE:;
#DIFFICULTY:Challenge;
#METER:15;
#RADARVALUES:0.693413,0.813522,0.330196,0.220131,0.825491,441.000000,411.000000,30.000000,20.000000,0.000000,0.000000,0.000000,0.000000,0.000000,0.693413,0.813522,0.330196,0.220131,0.825491,441.000000,411.000000,30.000000,20.000000,0.000000,0.000000,0.000000,0.000000,0.000000;
#CREDIT:;
#DISPLAYBPM:125.000000:158.000000;
#NOTES:
// measure 0
0000
0000
0000
0000
,  // measure 1
0000
0000
0000
0000
,  // measure 2
0000
0000
0000
0000
,  // measure 3
0000
0000
0000
0000
,  // measure 4
0000
0000
0000
0000
,  // measure 5
1000
0000
0000
0000
1100
0000
0000
0001
0000
0001
0100
0000
0010
0000
0000
0000
,  // measure 6
0100
0000
0000
0000
0101
0000
0000
0010
0000
0010
1000
0000
0001
0000
0000
0000
,  // measure 7
0010
0000
0000
0000
0011
0000
0000
1000
0000
1000
0001
0000
0100
0000
0000
0000
,  // measure 8
1001
0000
0000
0100
0000
0000
0100
0000
0010
1000
0010
1000
0010
1000
0010
1000
,  // measure 9
0001
0000
0000
0000
0010
0001
0010
0100
0000
0000
0000
0000
1000
0010
1000
0001
,  // measure 10
0000
0000
0000
0000
0100
0010
0100
0001
0000
0000
0000
0000
1000
0010
0100
0001
,  // measure 11
1000
0000
0000
0000
0010
0100
0010
1000
0000
0000
0000
0000
0001
0010
0001
0100
,  // measure 12
0000
0000
0000
0000
0001
1000
0001
0100
0000
0000
0000
0000
0010
0100
0001
1000
,  // measure 13
0100
0000
0000
0000
1001
0000
0000
0010
0000
0100
0000
0000
0010
0000
1000
0001
,  // measure 14
1000
0000
0000
0000
0101
0000
0000
0010
0000
1000
0000
0000
0001
0010
0100
1000
,  // measure 15
0002
0000
0000
0000
0103
0000
0010
0000
1000
0100
1000
0000
0010
0100
0001
0000
,  // measure 16
2000
0000
0000
0000
3010
0100
0002
0000
0010
0000
0000
0000
0103
1000
0001
0000
,  // measure 17
0200
0000
0000
0000
0301
0010
0100
0010
0001
0000
1000
0010
0100
0000
0001
1000
,  // measure 18
0001
0000
0000
0011
0000
0000
1100
0000
0101
0000
0000
0000
1000
0001
0100
0001
,  // measure 19
2000
0000
0000
0000
3010
0100
0010
0000
1000
0000
0001
0000
0010
0100
1000
0000
,  // measure 20
0002
0000
0000
0000
0103
0010
0000
0000
1000
0010
1000
0000
0001
0100
0010
1000
,  // measure 21
0002
0000
0000
0000
0013
0100
1000
0100
0010
0000
0001
1000
0010
0000
0100
0001
,  // measure 22
0100
0000
0000
1010
0000
0000
0101
0000
1100
0000
0001
1000
0001
0100
0010
1000
,  // measure 23
0100
0000
0010
0001
0000
0001
0010
0000
1000
0000
0000
0000
0110
0000
0000
0000
,  // measure 24
0001
0000
0100
0010
0000
0010
1000
0000
0100
0000
0000
0000
0011
0000
1000
0001
,  // measure 25
2000
0000
0000
0000
3010
0100
0001
0100
0010
0000
1000
0001
0100
0000
0010
1000
,  // measure 26
0100
0000
0010
0001
0000
1000
0001
0000
0200
0000
0000
0000
0320
0000
0000
0000
,  // measure 27
1030
0000
0010
0100
0000
0100
0001
0000
0010
0000
0000
0000
1100
0000
0000
0000
,  // measure 28
0001
0000
1000
0010
0000
1000
0100
0000
0010
0000
0000
0000
1001
0000
0000
0000
,  // measure 29
0101
0000
0000
0000
1000
0010
0100
0010
1000
0000
0001
0010
0001
0000
0100
0010
,  // measure 30
1000
0010
0100
0001
0000
0001
1000
0000
0001
0010
0100
1000
0001
0010
0100
1000
,  // measure 31
0010
0000
0000
0000
0110
0000
0000
1000
0000
0100
0000
0000
0010
0000
0001
1000
,  // measure 32
0001
0000
0000
0000
1010
0000
0000
0100
0000
0010
1000
0000
0001
0000
0010
0100
,  // measure 33
1000
0000
0000
0000
0011
0000
0000
0001
0000
1000
0010
0000
0100
0000
0001
0010
,  // measure 34
0002
0000
0000
0000
0003
0000
0000
0000
2000
0000
0000
3020
0000
0000
1030
0000
,  // measure 35
0200
0000
0000
0000
1300
0001
1000
0001
0000
0000
0000
0000
0010
0100
0010
0100
,  // measure 36
2000
0000
0000
3020
0000
0000
0230
0000
,  // measure 37
0302
0000
0000
0000
0003
0000
0000
0000
0001
0100
0010
1000
0000
0000
0000
0000
,  // measure 38
0100
0000
0000
0000
0000
0000
0000
0000
0000
0000
0000
0000
1000
0000
0000
0000
0001
0000
0000
0000
1000
0000
0000
0000
0010
0000
0000
0000
0000
0000
0000
0000
0000
0100
0000
0000
0000
0000
0000
0000
0000
0000
0001
0000
0000
0000
0000
0000
,  // measure 39
0100
0000
0000
0000
0101
0000
0000
1000
0000
1000
0001
0000
0010
0000
0000
0000
,  // measure 40
0100
0000
0000
0000
1100
0000
0000
0010
0000
0010
0000
0000
1000
0000
0000
0001
,  // measure 41
1000
0110
0001
0110
1000
0110
0001
0110
,  // measure 42
1001
0000
0000
0010
1000
0000
0100
0000
0010
0001
0100
0001
1000
0100
0010
0001
,  // measure 43
0100
0000
0000
0000
0010
1000
0010
0100
0000
0000
0001
0000
0010
0100
1000
0001
,  // measure 44
0100
0000
0000
0000
0010
1000
0010
0100
0001
0000
0000
0000
0010
0100
1000
0001
,  // measure 45
0100
0000
0000
0000
0001
0010
0001
1000
0001
0000
0100
0000
0010
0000
1000
0000
,  // measure 46
0100
0000
0010
0001
0010
0000
0100
0000
1000
0000
0001
0100
0001
0000
1000
0000
,  // measure 47
1001
0000
0000
0010
1000
0000
0100
0000
0010
0001
0000
0010
0001
1000
0100
0000
,  // measure 48
1000
0010
0000
1000
0010
0000
0100
0000
0001
0000
0010
0001
0010
0000
0100
0000
,  // measure 49
1000
0000
0001
0100
0000
0001
0100
0000
0010
1000
0000
0010
1000
0001
0010
0000
,  // measure 50
0100
1000
0001
0000
0100
0000
0001
0010
0001
0100
0010
1000
0001
0010
0100
1000
,  // measure 51
0001
0000
0000
0000
0011
0000
0000
1000
0000
0001
1000
0000
0010
0000
0100
0001
,  // measure 52
0100
0000
0000
0000
0101
0000
0000
1000
0000
0010
0100
0000
0001
0000
0010
0200
,  // measure 53
2000
0000
0000
0000
,  // measure 54
0300
0000
0000
3000
;
