#TITLE:Pure Evil;
#SUBTITLE:;
#ARTIST:kors k;
#TITLETRANSLIT:;
#SUBTITLETRANSLIT:;
#ARTISTTRANSLIT:;
#GENRE:;
#CREDIT:;
#BANNER:Pure Evil-bn.png;
#BACKGROUND:Pure Evil-bg.png;
#LYRICSPATH:;
#CDTITLE:;
#MUSIC:Pure Evil.ogg;
#OFFSET:0.000000;
#SAMPLESTART:79.579002;
#SAMPLELENGTH:20.000000;
#SELECTABLE:YES;
#DISPLAYBPM:190.000000;
#BPMS:0.000000=190.000000
;
#STOPS:
;
#BGCHANGES:;
#KEYSOUNDS:;
#ATTACKS:;

//---------------dance-single - ----------------
#NOTES:
     dance-single:
     :
     Hard:
     13:
     0.662252,0.699338,0.406181,0.326711,0.070640,525.000000,479.000000,46.000000,37.000000,0.000000,0.000000,0.662252,0.699338,0.406181,0.326711,0.070640,525.000000,479.000000,46.000000,37.000000,0.000000,0.000000:
0000
0000
0000
0000
,
0000
0000
0000
0000
,
0000
0000
0000
0000
,
0000
0000
0000
0000
,
0000
0000
0000
0000
,
0000
0000
0000
0000
,
0000
0000
0000
0000
,
1000
0000
1000
0000
1000
0001
1000
0000
,
0001
0010
0001
0100
1000
0010
0001
0000
,
1000
0001
0010
0001
0100
0010
1000
0000
,
0100
0010
0001
0100
1000
0010
0100
0000
,
0101
0101
2002
3000
,
0013
0100
1000
0010
1000
0100
0001
0000
,
0010
0001
0100
0010
1000
0100
0010
0000
,
0001
0100
0001
0010
0100
1000
0001
0000
,
2002
0000
0000
3003
,
0110
0000
1001
1000
0100
0000
0001
0000
,
0010
0000
0000
0001
1000
0000
0000
0000
1020
0000
0000
0000
0130
0000
0000
0000
,
0110
0000
0000
0001
1000
0000
0000
1000
0100
0000
0000
0100
0010
0000
0000
0000
,
0001
0000
0000
0010
0001
0000
0100
0000
2000
0000
0001
0000
3001
0000
0000
0000
,
1100
0000
0101
0001
1000
0000
0100
0000
,
0010
0001
1000
0000
0002
0000
0103
0010
,
1000
0000
1000
0100
0001
0010
0001
0000
,
1000
0001
0010
0001
2000
0010
3020
0000
,
0130
0001
1001
0000
0110
0000
0001
0010
,
1000
0000
0010
0000
0001
0000
0000
1000
0002
0000
0100
0000
0203
0000
0000
0000
,
0310
0000
0000
0010
1000
0000
0001
0000
0010
0000
0000
0010
0001
0000
1000
0000
,
0100
0010
0001
0100
0002
1000
1003
0000
,
1010
0000
0101
0001
0010
0000
0100
1000
,
1001
0000
0101
1000
0002
0000
0023
0000
,
0130
0000
0000
0000
1000
0000
0001
0000
1000
0000
0010
0100
0010
0000
1000
0000
,
0001
0000
0000
0001
0000
0000
0001
0000
0200
0000
0000
0000
0310
0000
0000
0000
,
0101
0000
0110
0000
1000
0100
0001
0000
,
0010
0001
0100
0000
0001
0010
0100
1000
,
1001
0000
0011
0100
1000
0000
0001
0100
,
0010
1000
0100
0000
2000
0001
3001
0100
,
0110
0000
1001
0100
0001
0010
0100
1000
,
0001
0000
0011
0000
1000
0010
0100
0001
,
1001
0000
0000
0000
0110
0000
0000
1000
0010
0000
0100
0000
0001
0000
0000
0000
,
2000
0002
0000
0000
0000
0000
3003
0000
,
2200
0000
0000
0000
0300
0001
3001
0000
,
0202
0000
0000
0300
,
1000
0000
1000
1000
,
0010
0000
0100
0103
,
0001
0000
1000
0001
,
1000
0100
0010
0001
,
0100
0001
0010
0000
,
0010
0000
0000
0000
0010
0000
1000
0001
,
0110
0000
1000
0010
0000
0100
0001
0000
,
0010
0000
0100
0000
0000
0000
1000
0000
0001
0000
0000
0000
0100
0000
0001
1000
,
0001
0000
1000
0100
0000
0010
0001
0000
,
1000
0000
0001
0000
0000
0000
0100
0000
0010
0000
1000
0000
0100
0000
1000
0001
,
1000
0000
0001
1000
0000
0100
0010
0000
,
0001
0000
0100
0000
0000
0000
0010
0000
1000
0000
0000
0000
0100
0000
1000
0001
,
1000
0000
0010
0100
0000
0001
1000
0000
,
0001
0000
0010
0000
1000
0000
0010
0000
0001
0000
0010
0000
0100
0000
1000
0001
,
2000
0000
0010
0000
3001
0100
0010
1000
,
0200
0000
0001
0000
1300
0001
0100
0010
,
2000
0000
0001
0000
3100
1000
0001
0010
,
0002
0000
0100
0000
1003
0001
0100
0010
,
1010
0000
0001
0100
0101
0000
1000
0001
,
0010
0100
0010
0001
0100
0010
1000
0001
,
0100
1000
0100
0001
0100
0010
1000
0001
,
0220
0000
0000
0330
,
1000
0010
0100
0001
0100
0010
0100
0001
,
0100
1000
0100
0001
0100
1000
0100
0001
,
0020
0000
0031
0100
0010
1000
0010
0001
,
0010
0100
0010
1000
0010
0001
0010
0100
,
0020
0000
1030
0001
0010
0100
0001
0100
,
1000
0010
0100
0010
0001
0010
1000
0001
,
0100
0010
0100
0001
0100
0010
1000
0001
,
0000
0011
0000
0001
0100
0010
1000
0001
,
1000
0010
0100
0001
0010
1000
0010
0001
,
0100
0010
0100
0001
0100
1000
0100
0001
,
0020
0000
0130
0010
0001
0100
0010
1000
,
0010
0001
0010
0100
0010
0001
0010
1000
,
0002
0000
1003
0100
0010
0100
1000
0001
,
0100
0010
0100
1000
0100
0001
0100
0010
,
1000
0001
0010
0001
0100
0010
1000
0001
,
0100
0000
0010
1000
0010
0000
0100
0000
0002
0000
0000
0000
1003
0000
0001
0000
,
1001
0000
0100
0101
0000
1000
1100
0000
,
0001
0011
0000
1000
0001
0100
0001
1000
,
0110
0000
1000
1100
0000
0001
0011
0000
,
0100
0010
0100
0001
0100
0010
1000
0001
,
1001
0000
1000
1010
0000
0001
0101
0000
,
1000
1100
0000
0001
0101
0000
0110
0000
,
2002
3000
0020
0030
,
2000
0000
0000
0000
,
3003
0000
0000
0000
;

//---------------dance-single - ----------------
#NOTES:
     dance-single:
     :
     Medium:
     11:
     0.497004,0.621634,0.335541,0.335541,0.004415,394.000000,356.000000,38.000000,38.000000,0.000000,0.000000,0.497004,0.621634,0.335541,0.335541,0.004415,394.000000,356.000000,38.000000,38.000000,0.000000,0.000000:
0000
0000
0000
0000
,
0000
0000
0000
0000
,
0000
0000
0000
0000
,
0000
0000
0000
0000
,
0000
0000
0000
0000
,
0000
0000
0000
0000
,
0000
0000
0000
0000
,
1000
0000
1000
0000
1000
0001
1000
0000
,
0001
0010
0001
1000
,
0010
0100
0001
1000
,
0100
0010
0100
1000
,
1010
1010
2002
3000
,
0013
0001
0100
0000
0001
0000
1000
0100
,
0010
0001
1000
0010
,
0100
0001
0000
0100
0001
0000
1000
0000
,
2002
0000
0000
3003
,
0101
0101
0010
1000
,
0100
1000
0001
0000
2010
0000
3001
0000
,
0100
0000
0001
1000
0001
0000
0110
0000
,
0010
0000
0010
1000
0002
0000
0003
0000
,
1100
1100
0010
0001
,
1000
0000
0001
0000
0200
0000
0310
0100
,
0010
1000
0100
0001
,
1000
0010
0000
0100
0000
0001
2000
0000
,
3000
0010
0100
0000
0001
0000
0001
1000
,
0001
0000
1000
0000
0201
0000
0310
1000
,
0100
0000
0010
0001
0100
0000
0110
0000
,
0010
0100
0001
0000
1000
0100
0001
0000
,
0011
0000
0011
0000
1000
0000
0001
1000
,
0100
1001
0020
0130
,
1001
0000
0010
1000
0100
1000
0010
0000
,
0001
0000
0000
0001
0000
0000
0001
0000
0000
0000
0000
0000
0000
0000
0000
0000
,
1100
0101
0010
1000
,
0100
0010
0001
0000
1000
0010
1000
0001
,
0100
0000
0101
0000
0010
0000
1000
0001
,
0010
0001
1000
0000
0200
0000
1300
0001
,
1000
1010
0001
0001
,
0100
0001
0100
0000
0010
1000
0001
0100
,
0010
0000
0110
0000
0001
0100
1000
0000
,
0020
0200
0000
0000
0000
0000
0330
0000
,
0202
0000
0300
1000
,
0200
0000
0000
0303
,
1000
0000
1000
0000
,
0100
0000
0100
0000
,
0010
0000
0010
0000
,
0001
0000
0001
0000
,
1000
0000
0001
0000
,
0100
0000
0010
2000
,
3001
0000
1000
0010
0000
1000
0010
0000
,
0100
0001
0000
0100
0002
0000
2003
0000
,
3100
0000
0010
0001
0000
0010
0001
0000
,
1000
0010
0000
1000
0001
0100
0001
1000
,
0100
0000
0100
0010
0000
0010
0001
0000
,
0001
1000
0000
1000
0020
0000
0230
0000
,
0301
0000
1000
0001
0000
1000
0100
0000
,
0010
0001
0000
0001
0100
0010
1000
0001
,
0200
0000
0000
0300
0000
0010
1000
0001
,
0020
0000
0000
0030
0000
0001
1000
0100
,
2000
0000
0000
3000
0000
0100
0010
0001
,
0200
0000
0000
0300
0000
0010
1000
0001
,
0020
0000
0030
0001
2000
0000
3000
0100
,
0020
0000
0030
0001
0200
0000
0300
0010
,
1000
0001
0000
1000
0000
0100
0000
0010
,
0220
0000
0000
0330
,
0001
0100
0010
1000
0000
0100
0000
0100
,
0000
1000
0000
0001
0000
0100
0000
0010
,
1000
0100
1000
0001
0000
0010
0000
0010
,
0000
0100
0000
1000
0000
0001
0000
0001
,
0100
0010
0100
0001
0000
1000
0000
1000
,
0000
0001
0000
0010
0000
0001
0000
0100
,
0001
0010
0100
1000
0000
0010
0000
0010
,
0000
1000
0000
0001
1000
0100
1000
0100
,
0010
0000
0001
1000
0000
0101
0000
1100
,
0000
0001
0000
0001
0000
1000
0000
0100
,
0010
0001
0010
0100
0000
1100
0000
0011
,
0000
0101
0000
1000
0010
0100
0010
0100
,
0000
0001
0010
1000
0000
1001
0000
0110
,
0000
1000
0000
0001
0000
1000
0000
0100
,
0010
0001
0000
0011
0000
1001
0000
1010
,
0020
0000
0130
0001
0020
0000
0130
1000
,
1001
0000
0000
1010
0000
0000
0101
0000
,
1000
0001
0000
1000
0002
0000
0003
0000
,
0110
0000
1000
0010
0000
0100
0001
0000
,
0010
0100
0000
1000
0001
1000
0001
0100
,
0010
0000
0010
1000
0000
0001
0100
0000
,
0001
0010
0000
0100
1000
0000
0001
0000
,
2002
3000
0020
0030
,
2000
0000
0000
0000
,
3003
0000
0000
0000
;

//---------------dance-single - ----------------
#NOTES:
     dance-single:
     :
     Easy:
     7:
     0.365815,0.466225,0.247241,0.282561,0.000000,290.000000,262.000000,28.000000,32.000000,0.000000,0.000000,0.365815,0.466225,0.247241,0.282561,0.000000,290.000000,262.000000,28.000000,32.000000,0.000000,0.000000:
0000
0000
0000
0000
,
0000
0000
0000
0000
,
0000
0000
0000
0000
,
0000
0000
0000
0000
,
0000
0000
0000
0000
,
0000
0000
0000
0000
,
0000
0000
0000
0000
,
1000
1000
1000
1000
,
0001
0010
0001
0100
,
0010
1000
0001
0000
,
0010
0001
0100
0010
,
0110
0110
2002
3000
,
0013
0001
1000
0001
,
0100
0010
1000
0000
,
0001
0001
1000
1000
,
2002
0000
0000
3003
,
0110
0110
1000
0100
,
1000
0001
0010
0100
,
1000
0010
1000
0001
,
0100
0100
0100
0000
,
1001
1001
0010
1000
,
0001
0010
0001
0100
,
1000
0001
1000
0010
,
0100
0100
0100
0001
,
0000
0110
0000
0000
1000
0000
0001
0000
,
1000
0100
0010
0001
,
0100
0100
0001
1000
,
0001
0010
1000
0001
,
0101
0101
0010
1000
,
0100
1000
0001
0010
,
0001
0100
1000
0010
,
0001
0000
0000
0001
0000
0000
0000
0000
,
1100
1100
0010
0001
,
0100
0010
1000
0001
,
0101
0101
0010
0100
,
0010
1000
0001
0000
,
1001
1001
0100
0001
,
1000
0001
0010
0100
,
0110
0110
1000
0010
,
2000
0002
0000
0000
0000
0000
3003
0000
,
0202
0000
0000
0303
,
2200
0000
0000
3300
,
0002
0000
0000
0003
,
2000
0000
0000
3000
,
0020
0000
0000
0030
,
0200
0000
0000
0300
,
0002
0000
0000
0003
,
2000
0000
0000
3100
,
1000
0000
0000
0001
0000
0000
0010
0000
,
0000
0100
0000
0000
1000
0000
0001
0000
,
0100
0000
0000
0001
0000
0000
0010
0000
,
0000
1000
0000
0000
0001
0000
0010
0000
,
0001
0000
0000
1000
0000
0000
0100
0000
,
0000
0010
0000
0000
0100
0000
1000
0000
,
0010
0000
0000
1000
0000
0000
0001
0000
,
0000
0100
0000
0000
0010
0000
0100
0000
,
0002
0000
0000
0003
0000
1000
0000
1000
,
0200
0000
0000
0300
0000
1000
0000
1000
,
0020
0000
0000
0030
0000
0100
0000
0100
,
0002
0000
0000
0003
0000
0010
0000
0010
,
0002
0003
2000
3000
,
0002
0003
0200
0300
,
0010
0010
1000
0001
,
0220
0000
0000
0330
,
1000
0010
1000
0001
,
0010
0100
1000
0010
,
0100
0001
0010
0001
,
1000
0010
1000
0001
,
0100
0100
0010
0100
,
0001
0010
1000
0100
,
1000
0001
1000
0010
,
0100
0001
0010
1000
,
0001
0010
0001
0001
,
1000
0001
0010
0100
,
0100
1000
0010
0100
,
0010
1000
0100
0001
,
1000
1000
0001
0001
,
1000
0001
0010
0100
,
0010
0100
0100
0010
,
0002
1003
2000
3001
,
0101
0000
0000
1100
0000
0000
0101
0000
,
0000
1100
0000
0000
0101
0000
0000
0000
,
1000
0010
1000
0001
,
0010
0000
0100
0000
1000
0001
1000
0000
,
0001
0010
0001
0100
,
0010
1000
0100
0100
,
2002
3000
0020
0030
,
2000
0000
0000
0000
,
3003
0000
0000
0000
;

//---------------dance-single - ----------------
#NOTES:
     dance-single:
     :
     Beginner:
     4:
     0.179123,0.271965,0.105960,0.008830,0.000000,142.000000,130.000000,12.000000,1.000000,0.000000,0.000000,0.179123,0.271965,0.105960,0.008830,0.000000,142.000000,130.000000,12.000000,1.000000,0.000000,0.000000:
// measure 0
0000
0000
0000
0000
,  // measure 1
0000
0000
0000
0000
,  // measure 2
0000
0000
0000
0000
,  // measure 3
0000
0000
0000
0000
,  // measure 4
0000
0000
0000
0000
,  // measure 5
0000
0000
0000
0000
,  // measure 6
0000
0000
0000
0000
,  // measure 7
1000
1000
1000
0000
,  // measure 8
0001
0000
0000
0000
,  // measure 9
0010
0000
0000
0000
,  // measure 10
0001
0000
0000
0000
,  // measure 11
0100
0100
0100
0000
,  // measure 12
0010
0000
0000
0000
,  // measure 13
1000
0000
0000
0000
,  // measure 14
0001
0000
0000
0000
,  // measure 15
1001
0000
0000
0000
,  // measure 16
0010
0010
0000
0000
,  // measure 17
1000
0000
0100
0000
,  // measure 18
1000
0000
0001
0000
,  // measure 19
0010
0000
0100
0000
,  // measure 20
1000
1000
0000
0000
,  // measure 21
0010
0000
1000
0000
,  // measure 22
0001
0000
0100
0000
,  // measure 23
0001
0001
0001
0000
,  // measure 24
0000
0110
0000
0000
,  // measure 25
1000
0000
0100
0000
,  // measure 26
1000
0000
0010
0000
,  // measure 27
0100
0000
0001
0000
,  // measure 28
0010
0010
0000
0000
,  // measure 29
0001
0000
1000
0000
,  // measure 30
0100
0000
1000
0000
,  // measure 31
0001
0000
0000
0000
,  // measure 32
0100
0100
0000
0000
,  // measure 33
0000
0000
0000
0010
,  // measure 34
0010
0010
0000
0000
,  // measure 35
1000
0000
0001
0000
,  // measure 36
0100
0100
0000
0000
,  // measure 37
0000
0000
0000
0010
,  // measure 38
0010
0010
0000
0000
,  // measure 39
1000
0000
0000
0000
,  // measure 40
1001
0000
0000
0000
,  // measure 41
0110
0000
0000
0000
,  // measure 42
0000
0000
0000
0000
,  // measure 43
0000
0000
0000
0000
,  // measure 44
0100
0000
0000
0000
,  // measure 45
0000
0000
0000
0000
,  // measure 46
0100
0000
0000
0000
,  // measure 47
0000
0000
0000
0000
,  // measure 48
0001
0000
0000
0000
,  // measure 49
1000
0000
0000
0000
,  // measure 50
0001
0000
0000
0000
,  // measure 51
0010
0000
0000
0000
,  // measure 52
0100
0000
0000
0000
,  // measure 53
1000
0000
0000
0000
,  // measure 54
0010
0000
0000
0000
,  // measure 55
0100
0000
0000
0000
,  // measure 56
1001
0000
0000
0000
,  // measure 57
1001
0000
0000
0000
,  // measure 58
0110
0000
0000
0000
,  // measure 59
0110
0000
0000
0000
,  // measure 60
1000
0000
1000
0000
,  // measure 61
0001
0000
0001
0000
,  // measure 62
0010
0000
0100
0000
,  // measure 63
0110
0000
0000
0000
,  // measure 64
0010
0010
0010
0000
,  // measure 65
1000
0000
0001
0000
,  // measure 66
0010
0000
0100
0000
,  // measure 67
1000
0000
0010
0000
,  // measure 68
0100
0100
0100
0000
,  // measure 69
0001
0000
0010
0000
,  // measure 70
1000
0000
0100
0000
,  // measure 71
1000
0000
0001
0001
,  // measure 72
0001
0000
0000
0000
,  // measure 73
1000
0000
0100
0000
,  // measure 74
0010
0000
0001
0000
,  // measure 75
1000
0000
0010
0010
,  // measure 76
0010
0000
0100
0000
,  // measure 77
0001
0000
1000
0000
,  // measure 78
0001
0001
0001
0000
,  // measure 79
0010
0000
0100
0000
,  // measure 80
1001
0000
0000
0000
,  // measure 81
0110
0000
0000
0000
,  // measure 82
1000
0000
0010
0000
,  // measure 83
1000
0000
0100
0100
,  // measure 84
0100
0000
0010
0000
,  // measure 85
0001
0000
1000
0000
,  // measure 86
1001
0000
0010
0000
,  // measure 87
2000
0000
0000
0000
,  // measure 88
3000
0000
0000
0000
;
