#TITLE:Pump Up The Volume;
#ARTIST:M/A/R/R/S;
#BANNER:Pump Up The Volume.png;
#BACKGROUND:Pump Up The Volume-bg.png;
#JACKET:Pump Up The Volume-jacket.png;
#MUSIC:Pump Up The Volume.ogg;
#SAMPLESTART:6.36;
#SAMPLELENGTH:20;
#DISPLAYBPM:113;
#BPMS:0=113.04;
#BGCHANGES:3.75=Pump Up The Volume.avi=1=1=0=0=StretchNoLoop==CrossFade==,
179=Pump Up The Volume-bg.png=1=0=0=1=====,
;

//---------------dance-single - ----------------
#NOTES:
     dance-single:
     :
     Beginner:
     3:
     :
0000
0000
0000
0000
,
0000
0000
0000
0000
,
0000
0000
0000
0000
,
1001
0000
0000
0000
,
0000
0000
0000
0000
,
0110
0000
0000
0000
,
0000
0000
0000
0000
,
1001
0000
0000
0000
,
0100
0000
0000
0000
,
1000
1000
1000
0000
,
0001
0001
0001
0000
,
1000
0000
0001
0000
,
0100
0000
0010
0000
,
1000
0000
0001
0000
,
0100
0000
0010
0000
,
1000
0000
0100
0000
,
1000
0000
0001
0000
,
0100
0000
0001
0000
,
0010
0000
0100
0000
,
1000
0000
0000
0010
,
0010
0000
0000
0100
,
0100
0000
0001
0000
,
1000
0000
0000
1000
,
1000
0000
0000
0001
,
0001
0000
0000
0100
,
0100
0000
0010
0000
,
1000
1000
1000
1000
,
1000
0000
0000
0000
,
0001
0000
0000
0000
,
0100
0000
0000
0000
,
1000
0000
0000
0000
,
0010
0000
0000
0001
,
0001
0000
0000
1000
,
1000
0000
0100
0000
,
0020
0000
0000
0030
,
0010
0000
0000
0000
,
0001
0000
0100
0000
,
0001
0000
0000
0000
,
1000
0000
0100
0000
,
1000
0000
0000
0000
,
0010
0000
0100
0000
,
0010
0000
0000
0000
,
1000
0000
0001
0000
,
0100
0000
0010
0000
,
0100
0000
0001
0001
;

//---------------dance-single - ----------------
#NOTES:
     dance-single:
     :
     Easy:
     5:
     :
0000
0000
0000
0000
,
0000
0000
0000
0000
,
0000
0000
0000
0000
,
1001
0000
0001
1000
,
0001
0000
1000
0010
,
1000
0000
0001
0100
,
0001
0000
1000
0001
,
2002
0000
0000
3003
,
0110
0000
1001
0000
,
1000
0100
0001
0100
,
2000
3000
0002
0003
,
0010
0010
0100
0100
,
0110
0000
1001
0000
,
0001
0001
1000
1000
,
1001
0000
0110
0000
,
0100
0100
0010
0010
,
0110
0000
1001
0000
,
1000
1000
0001
0001
,
1001
0000
0110
0000
,
1001
0000
1000
0100
,
0001
0000
1000
0100
,
0002
0003
0200
0300
,
0001
0100
1000
0100
,
1000
0000
0001
0100
,
0001
0000
0010
0100
,
0020
0030
0200
0300
,
0010
0001
0100
0001
,
0200
0000
0000
0301
,
0020
0000
0100
0130
,
2000
0000
0000
3001
,
0200
0000
0010
0310
,
1001
0000
0001
1000
,
1001
0000
0001
1000
,
1001
0000
0100
0000
,
0010
0000
1000
0001
,
1001
0000
0000
0010
,
0200
0300
0020
0030
,
0110
0000
0000
0001
,
2000
3000
0002
0003
,
1001
0000
0000
0100
,
2000
3000
0200
0300
,
1100
0000
0000
0001
,
0001
1000
1000
0001
,
1001
0000
0110
0000
,
1001
0000
1000
0001
;

//---------------dance-single - ----------------
#NOTES:
     dance-single:
     :
     Medium:
     8:
     :
0000
0000
0000
0000
,
0000
0000
0000
0000
,
0000
0000
0000
0000
,
0010
0001
0010
0100
,
0010
1000
0010
0001
,
1000
0010
1000
0100
,
1000
0001
1000
0100
,
1000
0001
0010
0001
,
0100
1000
0100
0001
,
0011
1001
0101
1001
,
1000
0001
1000
0001
,
0010
0100
1000
0000
0001
0000
1000
0000
,
0101
0000
1100
0000
0100
0010
0001
0000
,
1000
0100
0001
0000
0100
0000
1000
0000
,
1001
0000
0110
0000
0001
0100
1000
0000
,
0010
1000
0100
0000
1000
0000
0010
0000
,
0011
0000
1100
0000
0100
1000
0010
0000
,
0010
0001
0100
0000
0001
0000
0010
0000
,
1010
0000
0101
0000
0100
0001
0010
0000
,
0001
0000
2000
0000
0000
0000
0000
3001
,
0100
0000
0020
0000
0000
0000
0000
1030
,
0002
0000
0003
0000
2000
0000
0000
3001
,
0100
0001
1000
0010
,
1000
0000
0100
0000
1001
0000
0000
1000
,
0100
0000
0100
0000
1001
0000
0000
0001
,
2000
0000
3000
0000
0002
0000
0003
0010
,
0100
1000
0100
0010
,
0011
0000
1100
0000
0000
1000
0100
0000
,
1100
0000
0101
0000
0000
0001
0100
0000
,
0110
0000
1001
0000
0000
0001
1000
0000
,
1001
0000
0110
0000
0000
1000
0100
0010
,
0001
0000
2000
0000
0000
0000
3001
0100
,
0001
0000
0200
0000
0000
0000
0301
1000
,
0001
0000
0010
0100
0010
0000
0100
1000
,
0100
1000
0001
0100
,
1001
0000
1000
0010
,
0001
0100
1000
0010
,
1001
0000
1000
0001
,
1000
0000
0100
0000
0020
0000
0000
0030
,
0001
1000
0010
0100
,
0001
1000
0010
0100
,
1001
0100
1000
0100
,
0011
1001
0101
1001
,
0002
0000
0000
1003
0200
0000
0000
0301
,
2000
0000
0000
3001
0100
0000
0100
0000
;

//---------------dance-single - ----------------
#NOTES:
     dance-single:
     :
     Hard:
     11:
     :
0000
0000
0000
0000
,
0000
0000
0000
0000
,
0000
0000
0000
0000
,
0001
0000
0000
0000
1000
0000
0000
0001
0000
1000
0000
0100
1000
0000
0010
0000
,
1000
0000
0000
0000
0001
0000
0000
1000
0000
0001
0000
0100
0001
0000
0010
0000
,
0001
0000
0000
0000
1000
0000
0000
0001
0000
1000
0000
0100
1000
0000
0010
0000
,
1000
0000
0000
0000
0001
0000
0000
1000
0000
0001
0000
0100
0001
0000
0010
0000
,
0100
0000
0000
0000
1000
0000
0000
0100
0000
1000
0000
0001
0010
0000
0100
0000
,
1000
0000
0000
0000
0010
0000
0000
1000
0000
0010
0000
0100
0001
0000
0010
0000
,
0100
0000
0000
0000
1000
0000
0000
0100
0000
1000
0000
0001
0010
0000
0100
0000
,
1000
0000
0000
0000
0010
0000
0000
1000
0000
0010
0000
0100
0001
0000
0010
0000
,
0100
0100
1000
1000
0001
0001
1000
1000
,
0001
0100
0000
0100
0001
0000
0000
1000
0100
0000
1000
0000
0001
0000
0000
0000
,
0010
0010
0100
0100
1000
1000
0010
0010
,
0100
0001
0000
0001
0100
0000
0000
0010
1000
0000
0010
0000
0100
0000
0000
0000
,
0001
0001
0010
0010
0100
0100
0010
0010
,
0001
1000
0000
1000
0001
0000
0000
0100
0010
0000
0100
0000
0001
0000
0000
0000
,
0100
0100
0001
0001
1000
1000
0001
0001
,
1000
0100
0000
0100
1000
0000
0000
0001
0100
0000
0001
0000
1000
0000
0000
0000
,
0001
0001
0202
0000
0000
0000
0303
0000
,
1000
1000
2200
0000
0000
0000
3300
0000
,
0010
0010
0020
0000
0130
0100
0200
0000
,
0310
0000
0001
0000
1000
0000
0001
0000
0010
0100
0000
1000
0000
0001
1000
0000
,
0002
0000
0000
0003
,
0100
0100
0200
0000
0000
0000
0000
0310
,
0020
0030
2000
3000
,
0220
0000
0000
0330
,
1001
0000
0000
0000
0110
0000
0000
0100
0000
1000
0100
0000
1000
0000
0000
0000
,
1001
0000
0000
0000
0110
0000
0000
0100
0000
0001
0100
0000
0001
0000
0000
0000
,
1001
0000
0000
0000
0110
0000
0000
0100
0000
1000
0100
0000
1000
0000
0000
0000
,
1001
0000
0000
0000
0110
0000
0000
0100
0000
0001
0100
0000
0001
0000
1000
0000
,
0100
0000
0010
0000
0001
0010
0000
0000
0000
0000
0000
0000
0000
0000
0001
0000
,
0010
0000
0100
0000
1000
0100
0000
0000
0000
0000
0000
0000
0000
0000
1000
0000
,
0100
0000
0010
0000
0001
0010
0000
0000
0001
0000
0010
0000
0100
1000
0000
0000
,
0100
1000
0100
0010
0001
0001
1000
1000
,
1100
0000
0000
0000
0101
0000
0000
0010
0000
0100
0010
0000
0100
0000
0000
0000
,
0101
0000
0000
0000
1100
0000
0000
0100
0000
0010
0100
0000
0010
0000
0000
0000
,
1100
0000
0000
0000
0101
0000
0000
0010
0000
0100
0010
0000
0100
0000
0000
0000
,
0020
0000
0000
0000
0230
0000
0000
0000
0301
1000
0000
0000
0001
1000
0000
0000
,
1100
0000
0000
0000
0101
0000
0000
0001
0000
1000
0001
0000
1000
0000
0000
0000
,
0101
0000
0000
0000
1100
0000
0000
1000
0000
0001
1000
0000
0001
0000
0000
0000
,
0101
0000
0000
0000
1100
0000
0000
0001
0000
1000
0001
0000
1000
0000
0000
0001
,
0100
0001
0000
0000
1000
0000
0000
0010
0000
0010
0100
0000
0001
0000
0100
0000
,
0010
1000
0000
1000
0001
0000
0100
0000
0010
1000
0000
1000
0001
0000
0100
0000
,
0010
1000
0000
1000
0001
0000
0100
0000
0110
0000
0000
0000
1001
0000
0000
0000
;

//---------------dance-single - ----------------
#NOTES:
     dance-single:
     :
     Challenge:
     15:
     :
0000
0000
0000
0000
,
0000
0000
0000
0000
,
0000
0000
0000
0000
,
0012
0000
0100
0000
0100
0000
0000
1000
0000
1003
0000
0010
0100
0001
0100
0001
,
1000
0000
0001
0000
0200
0000
0000
0010
0000
0310
0000
0100
0001
1000
0001
1000
,
0100
0000
0010
0000
0002
0000
0000
1000
0000
1003
0000
0001
0100
0010
0100
0010
,
1000
0000
0100
0000
0020
0000
0000
0001
0000
0031
0000
1000
0001
0000
0100
0000
,
1010
0000
0100
0000
0001
0000
0100
0000
1000
0010
0100
0001
1000
0000
0100
0010
,
0001
0000
0100
0000
2000
0000
0000
0010
0000
3010
0000
1000
0001
1000
0100
0000
,
0110
0000
0001
0000
2000
0000
0000
0010
0000
3010
0000
0100
0010
1000
0001
1000
,
0001
0000
0010
0000
0200
0000
0000
1000
0000
1300
0000
0001
1000
0000
0010
0000
,
0100
0001
0100
0001
1000
0100
1000
0100
0010
0000
0001
0000
0100
0000
1001
0000
,
0010
1000
0000
1000
0100
0010
0000
0010
0001
0000
0101
0000
1100
0000
0000
0001
,
1000
0010
1000
0010
0100
0001
0100
0001
0010
0000
0100
0000
1000
0000
1001
0000
,
0100
0010
0000
0010
1000
0001
0000
0001
0010
0000
0101
0000
1100
0000
0000
0010
,
1000
0001
1000
0001
0010
0100
0010
0100
1000
0000
0010
0000
0001
0000
0110
0000
,
1000
0010
0000
0010
1000
0100
0000
0100
0010
0000
0011
0000
1100
0000
0000
0100
,
0010
0001
0010
0001
1000
0100
1000
0100
1000
0000
0010
0000
0001
0000
0110
0000
,
0100
0001
0000
0001
0010
0100
0000
0100
1000
0000
1100
0000
0011
0000
0100
0000
,
1000
0000
0000
0000
0000
0000
0010
0000
0000
0000
0000
0000
1000
0000
0000
0000
0000
0000
0001
0000
0000
0000
0000
0000
0100
0000
0001
0000
0100
0000
0010
0000
0000
1000
0000
0000
0001
0000
0000
1000
0000
0000
0100
0000
0000
0000
0000
0000
,
0010
0000
0000
0000
0001
0000
0100
0000
1000
0000
0000
0000
0001
0000
0000
0000
1000
0000
0010
0000
0100
0000
0001
1000
0001
0000
0010
0000
0100
0000
0000
0000
,
1000
0010
0100
0001
0100
0010
1000
0000
0001
0010
0100
1000
0100
0010
0001
0000
,
1000
0010
0100
0010
1000
0000
0001
0000
0010
0100
0010
0001
0100
0010
1000
0000
,
0001
1000
0010
0200
0000
0000
0001
0000
0301
1000
0000
0010
0000
1000
0001
0000
,
0010
0000
0001
0100
0010
1000
0001
0000
1000
0100
0000
0010
0000
0001
0100
0010
,
1001
0000
0100
0010
0100
0000
0001
1000
1001
0000
0010
0000
1000
0000
0100
0010
,
0011
0000
1000
0010
0100
0010
0100
1000
0100
0001
0100
0010
0100
1000
0100
0001
,
0010
0000
0001
1000
0000
0000
0010
1000
0000
0000
0100
0010
0000
0000
0001
1000
,
0001
0000
0100
0010
0000
0000
1000
0001
0000
0000
0010
0001
0000
0000
1000
0100
,
0010
0000
0001
1000
0000
0000
0001
0100
0010
0000
1000
0100
0000
0000
0010
0001
,
0100
0000
0010
1000
0001
1000
0100
0000
0010
0000
0001
0100
0000
0000
0010
1000
,
0001
0100
1000
0100
0001
0100
0010
0000
0000
0000
1000
0001
0000
0000
0010
0001
,
1000
0010
0001
0010
1000
0001
0100
0000
0000
0000
0010
1000
0000
0000
0100
0010
,
0001
0100
0010
0100
1000
0100
0001
0100
0010
1000
0100
0010
0100
0001
0100
1000
,
0001
0010
0100
0010
0001
0100
0010
0100
0001
0000
0001
0000
1000
0000
0100
0000
,
0110
0000
0010
0001
1000
0000
0010
1000
0000
0100
0000
1000
0000
0001
0000
0200
,
0000
0000
0310
1000
0010
1000
0001
0000
0010
0000
0001
0000
0100
0000
1000
0002
,
0000
0000
0000
0013
0001
0100
1000
0000
0010
1000
0001
0000
0010
0000
0001
0100
,
0010
1000
0100
0010
0001
0100
1000
0000
0010
1001
0000
0000
0100
1001
0000
0100
,
0001
1000
0001
0000
0010
0001
0000
0000
1000
0100
0010
0001
0000
0100
0000
0010
,
1000
0100
2000
0000
3001
0010
0001
0100
0010
1000
0200
0000
0310
0001
1000
0000
,
0101
0000
0010
1000
0001
1000
0100
0000
0010
0001
0100
0000
0001
0010
1000
0000
,
0100
0010
0100
1000
0001
0000
0100
0000
0010
1000
0010
0100
0001
0010
1000
0000
,
0100
0010
0000
0001
1000
0000
0100
0000
0001
0010
0000
1000
0100
0000
0001
0000
,
1000
0010
0000
0001
0100
0000
0010
0000
1001
0000
0000
0000
1001
0000
0000
0000
;

//---------------dance-double - ----------------
#NOTES:
     dance-double:
     :
     Easy:
     5:
     :
00000000
00000000
00000000
00000000
,
00000000
00000000
00000000
00000000
,
00000000
00000000
00000000
00000000
,
00022000
00000000
00000000
00033000
,
00001000
00000000
00000100
00000000
,
00000001
00000000
00000100
00000000
,
00001000
00000000
00010000
00000000
,
20020000
00000000
00000000
30030000
,
10000000
00000000
01000000
00000000
,
00010000
01000000
00010000
00001000
,
00020000
00030000
00002000
00003000
,
00000100
00000001
00000100
00000001
,
00000010
00000000
00000100
00000000
,
00010000
00001000
00010000
00001000
,
00010000
00000000
01000000
00000000
,
10000000
00100000
10000000
00100000
,
10000000
00000000
01000000
00000000
,
00010000
00001000
00010000
00001000
,
00010000
00000000
00000100
00000000
,
00000110
00000000
00000000
00000001
,
00001000
00000000
00000000
00001000
,
00020000
00030000
02000000
03000000
,
10000000
00010000
10000000
00010000
,
20000000
00000000
00000000
31000000
,
02000000
00000000
00000000
03010000
,
00020000
00030000
00002000
00003000
,
00000100
00000001
00000100
00000001
,
00000200
00000000
00000000
00000301
,
00000002
00000000
00000000
00000103
,
00000200
00000000
00000000
00001300
,
00002000
00000000
00010000
00013000
,
00011000
00000000
00010000
01000000
,
10010000
00000000
10000000
01000000
,
10010000
00000000
00010000
00000000
,
00001000
00000000
00010000
00001000
,
00011000
00000000
00000000
00000100
,
00000002
00000003
00002000
00003000
,
00001001
00000000
00000000
00010000
,
02000000
03000000
20000000
30000000
,
10010000
00000000
00000000
01000000
,
00020000
00030000
00002000
00003000
,
00011000
00000000
00000000
00000001
,
00000100
00000001
00000100
00000001
,
00001001
00000000
00001100
00000000
,
00011000
00000000
00001000
00010000
;

//---------------dance-double - ----------------
#NOTES:
     dance-double:
     :
     Medium:
     8:
     :
00000000
00000000
00000000
00000000
,
00000000
00000000
00000000
00000000
,
00000000
00000000
00000000
00000000
,
00001000
00001000
00000001
00000100
,
00001000
00010000
01000000
00010000
,
00001000
00001000
00010000
01000000
,
10000000
00010000
10000000
01000000
,
00100000
00100000
00001000
00010000
,
00001000
00000100
00000001
00000100
,
00001010
00000101
00001100
00000101
,
00000100
00001000
00010000
01000000
,
10000000
01000000
10000000
00000000
00100000
00000000
10000000
00000000
,
10010000
00000000
01100000
00000000
01000000
00010000
00001000
00000000
,
00000100
00000001
00000100
00000000
00001000
00000000
00000100
00000000
,
00001001
00000000
00000110
00000000
00000001
00000100
00001000
00000000
,
00010000
00001000
00010000
00000000
00001000
00000000
00010000
00000000
,
01010000
00000000
11000000
00000000
01000000
10000000
00100000
00000000
,
10000000
00100000
10000000
00000000
01000000
00000000
00010000
00000000
,
00011000
00000000
00010100
00000000
00010000
00001000
00000100
00000000
,
00000001
00000000
00002000
00000000
00000000
00000000
00000000
00003001
,
00000010
00000000
00000200
00000000
00000000
00000000
00000000
00001300
,
00000002
00000000
00000003
00000000
00000200
00000000
00000000
00001300
,
00010000
01000000
10000000
00100000
,
00010000
00000000
00001000
00000000
00011000
00000000
00000000
00010000
,
00001000
00000000
00000100
00000000
00001001
00000000
00000000
00000001
,
00000020
00000000
00000000
00000000
00002030
00000000
00000000
00013000
,
00001000
00010000
01000000
10000000
,
10000000
00000000
00010000
00000000
00000000
00100000
01000000
00000000
,
00010000
00000000
00001000
00000000
00000000
00000010
00000100
00000000
,
00000001
00000000
00001000
00000000
00000000
00000010
00000100
00000000
,
00001000
00000000
00010000
00000000
00000000
00100000
01000000
00000000
,
10000000
00000000
00020000
00000000
00000000
00000000
00130000
01000000
,
00010000
00000000
00002000
00000000
00000000
00000000
00003100
00000001
,
00000010
00000000
00000010
00000001
00000100
00000000
00000100
00001000
,
00010000
00001000
00010000
00001000
,
00011000
00000000
00010000
01000000
,
00010000
10000000
00100000
10000000
,
11000000
00000000
10000000
00010000
,
10000000
00000000
01000000
00000000
00020000
00000000
00000000
00030000
,
00011000
00000000
00001000
00000100
,
00001000
00000100
00000001
00000010
,
00001001
00000000
00000001
00000010
,
00000100
00001000
00000001
00000100
,
00002000
00000000
00000000
00013000
02000000
00000000
00000000
03010000
,
00002000
00000000
00000000
00003100
00000001
00000000
00001001
00000000
;

//---------------dance-double - ----------------
#NOTES:
     dance-double:
     :
     Hard:
     11:
     :
00000000
00000000
00000000
00000000
,
00000000
00000000
00000000
00000000
,
00000000
00000000
00000000
00000000
,
00010000
00000000
00000000
00000000
10000000
00000000
00000000
00100000
00000000
00100000
10000000
00000000
01000000
00000000
00000000
00000000
,
00010000
00000000
00000000
00000000
00001000
00000000
00000000
00010000
00000000
00010000
00001000
00000000
00000010
00000000
00000000
00000000
,
00000001
00000000
00000000
00000000
00001000
00000000
00000000
00000100
00000000
00000100
00000010
00000000
00000001
00000000
00000000
00000000
,
00000100
00000000
00000000
00000000
00001000
00000000
00000000
00010000
00000000
00010000
00001000
00000000
00010000
00000000
00000000
00000000
,
00100000
00000000
00000000
00000000
10000000
00000000
00000000
00010000
00000000
00010000
01000000
00000000
00100000
00000000
00000000
00000000
,
10000000
00000000
00000000
00000000
01000000
00000000
00000000
00010000
00000000
00010000
00001000
00000000
00000100
00000000
00000000
00000000
,
00000001
00000001
00000001
00000010
00001000
00010000
00100000
10000000
,
01000000
01000000
01000000
10000000
01000000
00010000
00001000
00000000
,
00010000
00010000
00001000
00000100
00001000
00010000
00010000
00000000
,
00002000
00000000
00003200
00000000
00000301
00000010
00000001
00000000
,
00000100
00000100
00001000
00010000
00001000
00000100
00000100
00000000
,
00002000
00000000
00023000
00000000
01030000
10000000
01000000
00000000
,
10000000
10000000
01000000
00010000
01000000
10000000
10000000
00000000
,
00200000
00000000
02300000
00000000
03001000
00010000
00001000
00000000
,
00010000
00010000
00001000
00000100
00001000
00010000
00010000
00000000
,
00002000
00000000
00003200
00000000
00000301
00000010
00000001
00000000
,
00002000
00000000
00003002
00000000
00000000
00000000
00000103
00001000
,
00020000
00000000
00032000
00000000
00000000
00000000
00003000
00010000
,
00002000
02003000
03002000
02003000
,
03200000
00000000
20300000
00000000
30020000
00000000
10030000
01000000
,
00020000
00000000
00000000
00000000
02030000
00000000
00000000
00000000
13000000
00000000
01000000
10000000
00000000
00000000
10000000
00000000
,
02000000
00000000
00000000
00000000
03020000
00000000
00000000
00000000
00031000
00000000
00010000
00001000
00000000
00000000
00000100
00000000
,
00000002
00000000
00000000
00000013
00000200
00000000
00000000
00010300
,
00002000
00010000
01000000
00013000
,
00010000
01000000
20000000
00000000
00000000
30100000
01100000
00000000
,
10000000
01000000
00020000
00000000
00000000
00031000
00011000
00000000
,
00001000
00000100
00000002
00000000
00000000
00000013
00000110
00000000
,
00000001
00000100
00002000
00000000
00000000
00013000
00011000
00000000
,
00001000
00000000
00010000
00000000
01000000
10000000
00000000
00000000
00000000
00000000
00000000
00000000
00000000
00000000
01000000
00000000
,
00010000
00000000
00001000
00000000
00000100
00000001
00000000
00000000
00000000
00000000
00000000
00000000
00000000
00000000
00000100
00000000
,
00001000
00000000
00010000
00000000
01000000
10000000
00000000
00000000
10000000
00000000
01000000
00000000
00010000
00001000
00000000
00000000
,
00010000
00000000
00001000
00000000
00000100
00000001
00000100
00000000
00001000
00000000
00010000
00000000
01000000
00000000
10000000
00000000
,
10010000
00000000
00100000
00000000
10000000
01000000
10000000
00000000
,
01000000
00000000
10000000
00000000
01000000
00010000
00001000
00000000
,
00011000
00000000
00000100
00000000
00000010
00001000
00000010
00000000
,
00001000
00000000
00000000
00000000
00000001
00000000
00000000
00001000
00000100
00001000
00000000
00000001
00000100
00000001
00000000
00000000
,
00001001
00000000
00000010
00000000
00000001
00000100
00000001
00000000
,
00000100
00000000
00000001
00000000
00000100
00001000
00010000
00000000
,
00011000
00000000
01000000
00000000
00100000
00010000
00100000
00000000
,
00010000
00100000
00000000
00100000
01000000
00000000
00000000
10000000
00000000
10000000
01000000
00000000
00010000
00000000
00001000
00000000
,
00010000
00001000
00000000
00001000
01000000
00000000
00010000
00000000
01000000
00001000
00000000
00001000
00010000
00000000
00001000
00000000
,
00000100
00000001
00000000
00000001
00000010
00000000
00000100
00000000
00001100
00000000
00000000
00000000
00010100
00000000
00000000
00000000
;
