#TITLE:Pluto Relinquish;
#SUBTITLE:(25th Anniversary Special);
#ARTIST:2MB;
#BANNER:Pluto Relinquish (25th Anniversary Special)-bn.png;
#BACKGROUND:Pluto Relinquish (25th Anniversary Special)-bg.png;
#JACKET:Pluto Relinquish (25th Anniversary Special)-jacket.png;
#MUSIC:Pluto Relinquish (25th Anniversary Special).ogg;
#SAMPLESTART:33.6;
#SAMPLELENGTH:20;
#DISPLAYBPM:100;
#BPMS:0=100;
#BGCHANGES:;

//---------------dance-single - ----------------
#NOTES:
     dance-single:
     :
     Challenge:
     13:
     :
0000
0000
0000
0000
,
0000
0000
0000
0000
,
1001
0000
0000
0100
0001
0000
0000
0011
0000
0011
0000
0001
1000
0000
0100
0000
,
1000
0010
0100
0010
1000
0010
0100
0000
0001
0010
0100
0010
0001
0000
1000
0001
,
0100
0000
0000
0001
1000
0000
0000
1010
0000
1010
0000
0001
0010
0000
0100
0000
,
1000
0010
0100
0010
1000
0000
0001
1000
0100
0010
0001
0100
0110
0000
0000
0000
,
1001
0001
0000
1000
0100
0000
0000
1100
0000
0101
0000
0010
1000
0000
0001
0100
,
0001
0010
0100
0010
0001
1000
0010
1000
0100
0010
0001
0100
0010
0000
1000
0001
,
0100
0000
0001
1000
0010
0000
0000
0101
0000
1100
0000
0001
1000
0010
1000
0001
,
0100
0010
0100
0010
0000
0000
0100
0001
0100
0001
0000
0000
1000
0001
1000
0001
1000
0001
1000
0001
1000
0001
1000
0001
,
0200
0000
0000
0000
0310
0000
0000
0000
2010
0000
0000
0000
3001
1000
0100
0000
,
0021
0000
0000
0000
0130
0000
0000
0000
2100
0000
0000
0000
3001
1000
0010
0000
,
1002
0100
0100
0000
1003
0000
0000
0000
2001
0100
0100
0000
3001
0000
0000
0000
,
0010
0001
0100
0000
0010
1000
0100
0000
1000
0001
0100
0010
0000
0010
1000
0000
,
0101
0000
0001
0010
0100
0010
0001
1000
0000
1000
0010
0100
0101
0000
1100
0000
,
0001
0100
1000
0100
0001
0100
0010
0000
1010
0000
0101
0000
0011
0000
1100
0000
,
0101
0000
0010
1000
0010
0100
0001
1000
0000
0001
0010
0100
1100
0000
0011
0000
,
1000
0010
0100
0010
1000
0010
0100
0000
0101
0000
1100
0000
0011
0000
1010
0000
,
0110
0000
0001
0010
0001
0100
0010
1000
0100
0001
0100
1000
1010
0000
0101
0000
,
0010
0001
0010
0100
1000
0010
0100
0000
0101
0000
0011
0000
1010
0000
1100
0000
,
1001
0000
0010
1000
0010
0100
0010
1000
0100
0010
0001
0100
0010
1000
0001
1000
,
0100
0001
0100
0010
0100
0001
0100
1000
0010
0010
0100
0100
0001
0001
1000
1000
,
0010
1000
0100
0010
0001
0000
0100
0000
0001
0010
0100
1000
0010
0100
0001
0000
,
1000
0010
0100
0010
1000
0001
0100
0010
1000
0100
0010
0001
0010
0100
1000
0000
,
0001
0100
0010
1000
0100
0010
0001
0000
1000
0001
0100
0000
0010
1000
0001
0000
,
0010
0001
0100
0000
0010
1000
0100
0000
1000
0001
0100
0010
0110
0000
0000
0000
,
1002
0010
0010
0000
1003
0100
0001
0000
0021
0100
0100
0000
0031
1000
0010
0000
,
2100
0100
0100
0000
3010
1000
0001
0000
0201
1000
1000
0000
0301
0100
0010
0000
,
1010
0001
1000
0010
1000
0100
0001
0000
0011
0001
1000
0000
0001
0100
1000
0000
,
0110
1000
0010
0100
0001
0010
1000
0000
1010
0001
0100
0010
0100
0010
1000
0001
,
1001
0010
0001
0100
0001
0010
1000
0000
0101
0001
0010
0001
1000
0100
0010
0000
,
0011
0001
1000
0000
0100
0100
0100
0000
1010
0001
0100
0010
1000
0100
0010
0000
,
0011
0001
1000
1000
0010
0010
0100
0100
0101
0001
0010
0010
0100
0100
1000
1000
,
0010
1000
0010
0100
0001
0010
0001
1000
0010
0100
0010
1000
0100
0010
0001
0000
,
1001
0010
1000
0010
0001
0010
1000
0010
0100
1000
0100
0001
0100
0010
0100
1000
,
0100
0001
0010
1000
0010
0100
0010
1000
0010
0001
0100
0010
0001
0010
1000
0001
,
0010
0100
0010
0001
0100
0010
0100
1000
0100
0001
0100
0010
0100
1000
0100
0001
,
0010
1000
0010
0100
0010
1000
0010
0001
0101
0000
1010
0000
1100
0000
0011
0000
;
