#TITLE:Pigs;
#SUBTITLE:(Three Different Ones);
#ARTIST:Pink Floyd;
#TITLETRANSLIT:;
#SUBTITLETRANSLIT:;
#ARTISTTRANSLIT:;
#GENRE:;
#CREDIT:;
#BANNER:Pigs (Three Different Ones)-bn.png;
#BACKGROUND:Pigs (Three Different Ones)-bg.png;
#LYRICSPATH:;
#CDTITLE:;
#MUSIC:Pigs (Three Different Ones).ogg;
#OFFSET:0.000000;
#SAMPLESTART:57.064133;
#SAMPLELENGTH:20.000000;
#SELECTABLE:YES;
#DISPLAYBPM:120.000000:131.000000;
#BPMS:0.000000=120.000000
,32.000000=125.999992
,36.000000=128.000000
,40.000000=124.000000
,56.000000=129.000000
,64.000000=126.999992
,72.000000=126.250008
,80.000000=124.999992
,100.000000=126.699997
,114.000000=125.300003
,122.000000=126.874992
,138.000000=127.539993
,142.000000=129.800003
,148.000000=129.179993
,150.000000=128.095001
,158.000000=127.309998
,166.000000=128.199997
,170.000000=130.000000
,174.000000=128.041000
,186.000000=128.542007
,194.000000=128.313004
,212.000000=128.750000
,220.000000=128.444443
,224.000000=127.945007
,228.000000=129.639999
,232.000000=131.000000
;
#STOPS:
;
#BGCHANGES:;
#KEYSOUNDS:;
#ATTACKS:;

//---------------dance-single - ----------------
#NOTES:
     dance-single:
     :
     Hard:
     12:
     0.469179,0.516037,0.350989,0.125353,0.016714,393.000000,351.000000,42.000000,15.000000,0.000000,0.000000,0.469179,0.516037,0.350989,0.125353,0.016714,393.000000,351.000000,42.000000,15.000000,0.000000,0.000000:
0000
0000
0000
0000
,
0000
0000
0000
0000
,
0000
0000
0000
0000
,
0000
0000
0000
0000
,
1000
0001
0010
0001
0100
0010
0100
1000
,
0001
0100
0010
0100
1000
0010
1000
0001
,
0110
0000
0000
0101
0000
0000
1100
0000
0000
0000
1010
0000
0000
0000
0011
0000
,
0000
0000
1001
0000
0000
0000
0000
0000
1000
0100
1000
0000
0001
0100
0001
0000
,
1010
0000
0110
0100
0010
1000
0001
0000
,
1100
0100
0010
0000
0101
1000
0001
0000
,
0010
0000
0001
1002
1000
0000
0100
0000
,
1003
0001
0100
0020
0000
0130
0010
1000
,
0001
0000
0100
0010
1000
0100
0001
0000
,
0010
0100
1000
0000
0001
0012
0000
1003
,
1001
0100
0010
0000
1000
0000
0001
0000
,
0110
0100
1000
0000
0001
0201
0000
0310
,
1010
0100
1000
0000
0010
0000
0001
0000
,
1100
0001
0100
1000
0010
0011
0100
0000
,
0101
0000
1001
0001
0010
0100
1000
0000
,
1100
0010
0100
0000
1010
1000
0001
0000
,
0100
0000
0001
0210
1000
0000
0010
0000
,
1300
0100
0010
0002
0000
0103
0001
1000
,
0100
0000
1000
0010
0001
1000
0001
0000
,
0010
1000
0100
0000
0010
0021
0000
0031
,
0010
0100
0010
0000
0001
1000
0100
0000
,
1000
0100
0010
0001
0100
0010
1000
0001
,
0011
0000
0100
0010
1000
0100
0010
0001
,
0100
0010
1000
0001
0101
0000
0100
0010
,
1000
0100
0001
0000
0010
0010
0010
0000
,
1000
1000
0001
0001
1001
0000
0100
0010
,
0100
1000
0100
0001
0100
0010
0100
0000
,
0100
0100
0100
0000
0110
0000
0100
1000
,
0100
0010
0100
0001
0100
1000
0100
0000
,
0100
0100
0100
0000
1010
0000
0010
0000
,
0010
1000
0010
0100
0010
0001
0010
0000
,
0010
0010
0010
0000
1100
0000
0010
0000
,
0010
0001
0010
0100
0010
1000
0010
0000
,
0010
0010
0010
0000
1100
0000
1000
0001
,
1000
0010
1000
0100
1000
0010
1000
0000
,
1000
1000
1000
0000
1010
1000
1000
0010
,
1000
0100
1000
0002
1000
0000
1000
0000
,
1003
1000
1000
0000
1001
0000
0001
0000
,
0001
0100
0001
0010
0001
1000
0001
0000
,
0001
0001
0001
0000
0101
0000
0001
0010
,
0001
1000
0001
0200
0001
0000
0001
0000
,
0301
0001
0001
0000
0011
0000
0100
0000
,
0100
0010
1000
0100
0010
0001
0100
1000
,
0001
0001
0001
0000
0002
0000
0103
0010
,
2000
0000
3100
0010
0200
0000
1300
0001
,
0120
0100
1000
0001
,
0130
0000
0101
0000
0001
0001
1000
1000
,
1001
0000
0100
0010
0100
1000
0100
0010
,
0100
0001
0100
1000
0100
0100
0100
0000
,
0011
0000
0001
0010
0001
1000
0001
0100
,
0001
0010
0001
0100
0001
0001
0001
0000
,
1010
0000
1000
0010
1000
0100
1000
0001
,
1000
0100
1000
0001
1000
1000
1000
0000
,
1100
0000
0010
0001
0010
0100
0010
1000
,
0010
0000
0100
0000
0010
0000
0000
0000
1000
0100
1000
0000
0001
0000
0001
0000
,
0220
0000
0000
0000
,
0000
0000
0000
0000
,
0000
0000
0000
0330
;

//---------------dance-single - X Scale 9----------------
#NOTES:
     dance-single:
     :
     Medium:
     9:
     0.367702,0.387028,0.250706,0.417844,0.000000,308.000000,278.000000,30.000000,50.000000,0.000000,0.000000,0.367702,0.387028,0.250706,0.417844,0.000000,308.000000,278.000000,30.000000,50.000000,0.000000,0.000000:
0000
0000
0000
0000
,
0000
0000
0000
0000
,
0000
0000
0000
0000
,
0000
0000
0000
0000
,
1000
0000
0100
0000
1000
0001
0100
0010
,
1000
0000
0100
0000
1000
0001
0100
0010
,
1000
0000
0100
0000
1000
0001
0100
0010
,
0100
0000
0100
0000
1000
1000
0001
0001
,
0100
0000
0101
0000
0010
1000
0001
0000
,
2200
0000
0300
0000
0001
0001
3001
0000
,
0010
0000
1000
0002
0000
0000
0100
0000
,
0000
0000
0013
0020
0000
0000
0031
1000
,
0100
0000
0100
0000
1000
0100
0001
0000
,
0010
0000
1000
0000
0001
2002
0000
3003
,
1010
0000
0100
0000
0010
1000
0001
0000
,
1000
0000
0010
0000
0100
0220
0000
0330
,
0011
0000
1000
0000
0001
0100
0010
0000
,
1000
0100
1000
0000
0001
0100
0001
0000
,
0010
0000
1100
0000
0100
1000
0001
0000
,
0022
0000
0030
0000
1000
1000
1003
0000
,
0010
0000
1000
0200
0000
0000
0001
0000
,
0000
0000
1300
2000
0000
0000
3010
0100
,
0010
0000
0101
0000
0001
1000
0100
0000
,
0001
0000
1000
0000
0010
2020
0000
3030
,
0110
0000
0001
0000
1000
0010
0100
0000
,
1001
0000
0100
0010
1000
0100
0010
0001
,
0200
0000
0310
2000
0100
0000
3010
0002
,
1000
0000
0103
0020
1000
0000
0100
0000
,
1030
0010
0001
0000
0100
0000
0100
0000
,
1000
0001
1000
0001
0010
0000
1000
2000
,
0000
3001
0100
0020
0000
0100
0130
0000
,
0010
2000
0001
3000
1001
0000
0001
0002
,
0000
0013
0001
0200
0010
0000
0310
0000
,
1000
0002
0100
0003
0101
0000
1100
0000
,
1000
0100
0010
0002
0000
0100
0103
0000
,
0010
2000
0100
3000
0110
0000
1000
0000
,
0002
0010
0013
0000
0200
0010
0310
0000
,
1000
0200
1000
0300
1010
0000
0011
0000
,
0001
0100
0010
2000
0000
0000
3100
0000
,
0001
0020
1000
0030
0001
0100
1000
0100
,
0001
0000
1000
0020
0100
0000
0100
0000
,
1030
0002
0100
0003
0110
0000
0010
0000
,
0100
0001
0100
0020
0000
1000
2030
0000
,
3100
2000
0001
3000
1010
0000
0100
0000
,
0001
0010
0001
2000
0010
0000
0000
0000
,
3010
0200
0001
0300
0101
0000
0001
0000
,
1000
0010
1000
0200
0000
1300
0001
2000
,
0000
0010
3010
0000
2000
0000
3001
0000
,
0012
0103
2100
3001
,
1002
0100
0010
1000
,
0010
0000
0103
0000
0001
0001
0001
0000
,
0012
1000
0100
0010
,
1000
0000
0013
0000
0100
0100
0100
0000
,
1020
0001
0100
1000
,
0001
0000
1030
0000
0010
0010
0010
0000
,
2100
0010
0100
0001
,
0010
0000
3100
0000
1000
1000
1000
0000
,
0201
1000
0010
0001
,
1000
0000
0310
0000
1001
0001
0001
0000
,
0220
0000
0000
0000
,
0000
0000
0000
0000
,
0000
0000
0000
0330
;

//---------------dance-single - X Scale 6----------------
#NOTES:
     dance-single:
     :
     Easy:
     6:
     0.265032,0.283820,0.142067,0.334275,0.000000,222.000000,205.000000,17.000000,40.000000,0.000000,0.000000,0.265032,0.283820,0.142067,0.334275,0.000000,222.000000,205.000000,17.000000,40.000000,0.000000,0.000000:
0000
0000
0000
0000
,
0000
0000
0000
0000
,
0000
0000
0000
0000
,
0000
0000
0000
0000
,
2000
0000
0000
3200
0000
0320
0000
0032
,
0000
0000
0000
0003
,
0020
0000
0000
2030
0000
3002
0000
0203
,
0000
0000
1000
0301
,
0100
0000
0002
0000
0000
0023
0000
0000
,
0230
0000
0000
0000
1000
2000
0000
0000
,
3300
0000
2000
0002
0000
0000
0000
0000
,
3003
0000
0200
0020
0300
0000
1030
0001
,
1000
0100
0010
0001
,
0100
0000
0010
0000
0000
2002
0000
3003
,
0001
0010
0100
1000
,
0010
0000
0100
0000
0000
0220
0000
0330
,
0001
1000
0100
0010
,
0001
0000
1000
0000
0010
0100
0010
0000
,
1000
0000
0200
0000
0000
2300
0000
0000
,
3002
0000
0000
0000
0010
0020
0000
0000
,
0033
0000
2000
0020
0000
0000
0000
0000
,
3030
0000
0200
0002
0300
0000
0013
0100
,
0010
0001
0100
1000
,
0001
0000
1000
0000
0000
2200
0000
3300
,
0010
1000
0001
0100
,
0001
0010
0100
1000
,
0010
0000
1000
2000
0000
0000
3001
0002
,
0000
0000
0103
0200
0001
0000
0010
0000
,
0001
0310
0020
1000
,
0100
0100
0130
0000
1001
0000
0100
0000
,
0100
0100
0100
0100
,
0100
0100
0110
0100
,
0100
0100
0100
0100
,
0100
0100
0101
0010
,
0010
0010
0010
0010
,
0010
0010
1100
0010
,
0010
0010
0010
0010
,
0010
0010
0101
1000
,
1000
1000
1000
1000
,
1000
1000
1001
1000
,
1000
1000
1000
1000
,
1000
1000
0110
0001
,
0001
0001
0001
0001
,
0001
0001
1100
0001
,
0001
0001
0001
0001
,
0001
0001
0101
0100
,
0010
0010
1000
1000
,
0001
0001
2000
0000
,
3200
0000
0320
0000
,
0032
1000
1000
1000
,
0010
0000
0010
0000
0100
0100
0103
0000
,
0110
0100
0100
0100
,
0100
0100
0100
0100
,
1001
0001
0001
0001
,
0001
0001
0001
0001
,
0101
1000
1000
1000
,
1000
1000
1000
1000
,
1100
0010
0010
0010
,
0010
0010
1000
0001
,
0220
0000
0000
0000
,
0000
0000
0000
0000
,
0000
0000
0000
0330
;

//---------------dance-single - ----------------
#NOTES:
     dance-single:
     :
     Beginner:
     2:
     0.084763,0.154811,0.050141,0.050141,0.000000,71.000000,65.000000,6.000000,6.000000,0.000000,0.000000,0.084763,0.154811,0.050141,0.050141,0.000000,71.000000,65.000000,6.000000,6.000000,0.000000,0.000000:
// measure 0
0000
0000
0000
0000
,  // measure 1
0000
0000
0000
0000
,  // measure 2
0000
0000
0000
0000
,  // measure 3
0000
0000
0000
0000
,  // measure 4
2000
0000
0000
3000
,  // measure 5
0000
0000
0000
0000
,  // measure 6
0002
0000
0000
0003
,  // measure 7
0000
0000
0000
0000
,  // measure 8
0000
1001
0000
0000
,  // measure 9
0100
0000
0100
0000
,  // measure 10
0000
0110
0000
0000
,  // measure 11
0000
0000
1000
0000
,  // measure 12
0001
0000
0000
0000
,  // measure 13
0000
0000
0100
0000
,  // measure 14
0100
0000
0000
0000
,  // measure 15
0000
0000
0010
0000
,  // measure 16
0010
0000
0000
0000
,  // measure 17
0000
0000
0000
0000
,  // measure 18
0000
0110
0000
0000
,  // measure 19
0100
0000
0010
0000
,  // measure 20
0000
1001
0000
0000
,  // measure 21
0000
0000
0001
0000
,  // measure 22
1000
0000
0000
0000
,  // measure 23
0000
0000
0010
0000
,  // measure 24
0010
0000
0000
0000
,  // measure 25
0000
0000
0100
0000
,  // measure 26
0100
0000
0010
0000
,  // measure 27
1000
0000
0001
0000
,  // measure 28
0000
0000
1000
0000
,  // measure 29
1000
0000
0010
0000
,  // measure 30
1000
0000
0001
0000
,  // measure 31
0000
0000
0100
0000
,  // measure 32
0010
0000
1000
0000
,  // measure 33
0000
0000
0001
0000
,  // measure 34
0010
0000
0100
0000
,  // measure 35
0000
0000
0010
0000
,  // measure 36
0100
0000
0010
0000
,  // measure 37
0000
0000
1000
0000
,  // measure 38
0001
0000
1000
0000
,  // measure 39
0000
0000
0001
0000
,  // measure 40
0010
0000
0100
0000
,  // measure 41
0000
0000
1000
0000
,  // measure 42
0010
0000
0001
0000
,  // measure 43
0000
0000
0010
0000
,  // measure 44
1000
0000
0100
0000
,  // measure 45
0000
0000
0001
0000
,  // measure 46
1000
0000
0010
0000
,  // measure 47
0100
0000
1000
0000
,  // measure 48
0010
0000
0100
0000
,  // measure 49
2002
0000
0000
3003
,  // measure 50
0000
0000
0000
0000
,  // measure 51
0010
0000
0000
0000
,  // measure 52
0000
0000
0000
0000
,  // measure 53
0100
0000
0000
0000
,  // measure 54
0000
0000
0000
0000
,  // measure 55
0001
0000
0000
0000
,  // measure 56
0000
0000
0000
0000
,  // measure 57
1000
0000
0000
0000
,  // measure 58
0000
0000
0010
0000
,  // measure 59
0220
0000
0000
0000
,  // measure 60
0000
0000
0000
0000
,  // measure 61
0000
0000
0000
0330
;
