#VERSION:0.83;
#TITLE:Picture to Burn;
#SUBTITLE:;
#ARTIST:Taylor Swift;
#TITLETRANSLIT:;
#SUBTITLETRANSLIT:;
#ARTISTTRANSLIT:;
#GENRE:;
#ORIGIN:;
#CREDIT:;
#BANNER:Picture to Burn-bn.png;
#BACKGROUND:Picture to Burn-bg.png;
#PREVIEWVID:;
#JACKET:Picture to Burn-jacket.png;
#CDIMAGE:;
#DISCIMAGE:;
#LYRICSPATH:;
#CDTITLE:;
#MUSIC:Picture to Burn.ogg;
#OFFSET:1.000000;
#SAMPLESTART:30.558001;
#SAMPLELENGTH:20.000000;
#SELECTABLE:YES;
#DISPLAYBPM:106.000000;
#BPMS:0.000=105.520;
#STOPS:;
#DELAYS:;
#WARPS:;
#TIMESIGNATURES:0.000=4=4;
#TICKCOUNTS:0.000=4;
#COMBOS:0.000=1;
#SPEEDS:0.000=1.000=0.000=0;
#SCROLLS:0.000=1.000;
#FAKES:;
#LABELS:0.000=Song Start;
#BGCHANGES:;
#KEYSOUNDS:;
#ATTACKS:
;

//---------------dance-single - ----------------
#NOTEDATA:;
#CHARTNAME:;
#STEPSTYPE:dance-single;
#DESCRIPTION:;
#CHARTSTYLE:;
#DIFFICULTY:Hard;
#METER:12;
#RADARVALUES:0.470892,0.563302,0.332719,0.054164,0.166360,426.000000,383.000000,43.000000,7.000000,0.000000,0.000000,0.000000,0.000000,0.000000,0.470892,0.563302,0.332719,0.054164,0.166360,426.000000,383.000000,43.000000,7.000000,0.000000,0.000000,0.000000,0.000000,0.000000;
#CREDIT:;
#DISPLAYBPM:106.000000;
#NOTES:
0000
0000
0000
0000
,
0000
0000
0000
0000
,
0000
0000
0000
0000
,
0000
0000
0000
0000
,
0000
0000
0000
0000
,
0010
0000
0000
0000
1000
0000
0100
0000
0010
0000
0001
0000
1000
0000
0000
0010
,
1000
0100
1000
0010
0100
0001
0010
0100
,
1000
0000
0000
0001
0100
0000
0001
0000
1000
0000
0100
0000
0010
0000
0001
0000
,
0100
0010
1000
0000
0001
0000
0100
0000
0010
1000
0001
0000
0110
0000
0000
0000
,
1001
0000
0000
0100
0001
0000
1000
0000
0100
0000
0100
0000
0010
0000
0001
0000
,
0000
1000
0010
1000
0100
0010
0001
0000
,
0100
0010
1010
0000
0001
0100
1010
0000
,
0001
0010
1000
0000
0110
0001
1000
0010
,
1000
0000
0100
0000
0010
0000
0001
1000
0002
0000
0000
0000
0003
0000
0100
0000
,
0101
0000
0101
0000
0100
0001
1000
0000
0010
0000
0100
0000
1001
0000
0000
0000
,
0100
0010
1001
0100
0010
0010
1000
0001
,
0010
0000
0000
0000
0100
1000
0001
0000
0011
0000
0100
0000
1010
0000
0100
0000
,
0011
0100
1010
0100
0001
0001
1000
1000
,
0010
0000
1000
0000
0100
0000
0000
0000
0110
0000
0000
0010
0001
0000
0001
0000
,
1000
0001
0100
0010
0000
1000
0010
1000
,
0001
0000
0100
0000
1000
0000
0000
0001
1000
0000
1000
0000
0100
0000
0010
0000
,
0001
0100
0101
0000
1010
0100
0001
1000
,
0001
0001
0010
0100
1000
0001
1000
0010
,
0100
0001
0100
0010
0000
0000
1000
0001
1000
0000
0100
0000
0001
0000
0100
0000
,
1000
0010
1000
0000
0001
0000
0010
0000
0100
0000
1000
0000
0001
0100
0000
0100
,
0010
0000
1000
0000
0001
0000
0100
0000
0001
0010
0001
0000
1000
0010
1000
0000
,
0100
0000
0010
0000
0100
0000
1000
0000
0010
0100
0000
0001
0000
1000
0100
0000
,
1000
0000
0010
0000
0100
0000
0001
0000
0010
0000
0000
0010
0001
0000
1000
0000
,
0010
0001
0010
1000
1100
0000
0001
0100
,
0010
1000
0000
0001
0000
1000
0100
0000
0010
0000
0000
0000
0001
0000
1000
0000
,
0001
0100
0010
2000
0002
0000
3000
0000
,
0200
0000
0003
0010
0010
0000
1000
0000
,
0301
0100
1001
0000
0010
0100
1001
0100
,
0001
0000
0010
0000
0100
0000
2000
0000
0000
3001
0000
0000
0000
0100
0010
0000
,
1010
0000
0101
0000
0011
0000
1100
0001
,
1001
0000
0110
0000
1001
0000
0110
0000
0001
1000
0001
1000
0001
1000
0001
0000
,
1001
0000
0000
0100
0010
0000
1000
0000
0001
0000
0001
0000
0010
0000
0100
0000
,
1000
0000
0010
0000
0100
0000
0001
0000
0010
0000
0010
0000
0010
0000
0000
0001
,
1000
0010
0100
0001
1000
0100
0010
0001
,
0101
0000
0101
0000
1100
0000
1100
0000
0001
1000
0001
1000
0001
0000
0000
0000
,
0100
0010
1010
0000
0001
0010
0011
0100
,
1000
0000
0001
0000
0010
0000
0100
0000
1000
0000
0010
0000
0100
0001
1000
0000
,
1100
0010
0101
0010
1100
0010
0101
0010
,
1000
0000
0001
0000
0010
0000
0001
0000
0100
0010
1000
0000
0001
0000
0100
0000
,
0110
0000
0000
0010
1000
0000
0100
0000
1000
0000
0001
0000
0010
0000
0100
0000
,
0001
0000
0100
0000
1000
0000
0100
0000
0010
0000
0001
0000
0001
0000
0000
1000
,
0001
0100
0010
1000
0100
0010
0001
0000
,
1000
0000
1000
0000
0001
0000
0001
0000
0100
0000
0010
0000
0100
0001
0010
0100
,
1000
0000
0000
0000
1100
0000
0000
1000
0010
0000
0100
0000
0001
0000
1000
0000
,
0100
0001
0100
1000
0100
0010
0001
1000
,
0010
0100
0110
0000
0001
1000
0001
0100
,
0010
1000
0100
1000
0001
0100
0001
0010
,
0100
1000
1001
0000
0010
0100
0001
1000
,
0100
0000
0010
0000
0100
0000
1000
0000
0001
0100
0010
0100
0001
0000
1000
0000
,
2002
0000
0000
0000
,
0000
0000
0000
0000
,
3003
0000
0000
0000
;

//---------------dance-single - ----------------
#NOTEDATA:;
#CHARTNAME:;
#STEPSTYPE:dance-single;
#DESCRIPTION:;
#CHARTSTYLE:;
#DIFFICULTY:Medium;
#METER:9;
#RADARVALUES:0.341563,0.368313,0.232130,0.116065,0.000000,309.000000,279.000000,30.000000,15.000000,0.000000,0.000000,0.000000,0.000000,0.000000,0.341563,0.368313,0.232130,0.116065,0.000000,309.000000,279.000000,30.000000,15.000000,0.000000,0.000000,0.000000,0.000000,0.000000;
#CREDIT:;
#DISPLAYBPM:106.000000;
#NOTES:
0000
0000
0000
0000
,
0000
0000
0000
0000
,
0000
0000
0000
0000
,
0000
0000
0000
0000
,
0000
0000
0000
0000
,
0010
0000
1000
0000
0100
0010
0001
0000
,
1000
0001
1000
0000
0010
0100
0001
0000
,
1000
0000
0010
0000
1000
0001
0010
0000
,
0100
1000
0001
1000
0010
0100
0001
0000
,
0010
0000
0001
1000
0001
0100
0000
0010
,
0000
1000
0001
0000
0001
0100
0001
0000
,
0010
0001
0100
0000
0010
1000
0100
0000
,
1000
0100
0001
0000
0110
0000
1000
0000
,
0010
0000
1000
0100
0002
0000
0003
0100
,
0101
0000
1100
0000
0001
0100
1001
0000
,
0001
0100
0010
1000
0100
0010
0100
1000
,
0001
0000
0000
0100
0101
0000
0101
0000
,
1010
0000
1010
0000
0001
1000
0010
1000
,
0100
0010
0001
0000
1001
0000
0010
1000
,
0010
0100
0000
0001
0000
0010
0001
0000
,
0100
0010
1000
0000
0001
0100
0001
0100
,
0001
0000
1000
0000
0010
1000
0100
1000
,
0010
0100
0001
1000
0020
0000
2030
0000
,
3001
1000
0001
0000
0010
0001
0010
0100
,
1000
0001
1000
0000
0010
1000
0100
0000
,
1000
0010
0001
0000
0100
0001
0100
0001
,
1000
0000
0010
0000
1000
0100
0001
0000
,
0010
0100
0010
0001
1000
0000
1100
0000
,
0001
0100
0010
1000
0001
0000
0000
0100
,
0100
0010
1000
0001
0010
0000
0011
0000
,
0001
0100
0010
2000
0002
0000
3000
0000
,
0200
0000
0003
0010
0010
0000
1000
0000
,
0301
0110
1000
0110
,
0001
0100
0001
0000
0011
0000
1010
0000
,
0010
1001
0100
1001
,
0001
0010
0001
0100
0010
1000
0001
0000
,
1001
0000
0010
1000
0100
0010
0000
0001
,
0000
0010
0001
0000
1000
0001
0100
0000
,
0010
1000
0100
1000
0001
0000
0000
1000
,
0001
0001
1000
1000
0001
0000
0110
0000
,
0010
1000
1010
0000
0001
0100
0101
0000
,
0010
1000
0100
0010
0001
0000
0000
1000
,
1100
1100
0101
0101
,
1000
0001
1000
0100
0010
0001
0100
0000
,
0110
0000
0010
0100
0010
1000
0000
0001
,
0000
1000
0100
0000
1000
0010
0001
0000
,
0100
0010
0100
0010
0100
0000
0001
0000
,
1000
0010
1000
0001
0010
0100
1000
0001
,
0100
0000
0102
0000
0103
0001
0000
1000
,
0200
0000
0320
0000
0130
1000
0001
1000
,
0010
0000
1020
0000
1030
0001
0000
0200
,
0000
0310
0100
0000
0001
1000
0001
0010
,
0100
0000
2100
0000
3001
1000
0000
0020
,
0000
0000
1030
0001
0000
1000
0100
0010
,
2002
0000
0000
0000
,
0000
0000
0000
0000
,
3003
0000
0000
0000
;

//---------------dance-single - ----------------
#NOTEDATA:;
#CHARTNAME:;
#STEPSTYPE:dance-single;
#DESCRIPTION:;
#CHARTSTYLE:;
#DIFFICULTY:Easy;
#METER:6;
#RADARVALUES:0.207811,0.281651,0.108327,0.054164,0.000000,188.000000,174.000000,14.000000,7.000000,0.000000,0.000000,0.000000,0.000000,0.000000,0.207811,0.281651,0.108327,0.054164,0.000000,188.000000,174.000000,14.000000,7.000000,0.000000,0.000000,0.000000,0.000000,0.000000;
#CREDIT:;
#DISPLAYBPM:106.000000;
#NOTES:
0000
0000
0000
0000
,
0000
0000
0000
0000
,
0000
0000
0000
0000
,
0000
0000
0000
0000
,
0000
0000
0000
0000
,
0010
0001
0100
1000
,
0010
1000
0001
0100
,
0001
0010
0100
1000
,
0010
1000
0100
0001
,
0000
1000
0001
0010
,
0001
0100
0010
1000
,
0100
1100
0001
0101
,
0010
1000
0220
0000
,
0330
1000
0002
0003
,
1001
1001
0010
0010
,
1000
1000
0100
0010
,
0001
0000
1000
1000
,
0001
0001
0010
0001
,
0100
1000
0000
0110
,
1000
0001
1000
0100
,
0010
0001
0100
0100
,
0010
1000
0001
0010
,
0001
0100
1000
1000
,
0010
1000
0001
0010
,
0001
0100
0010
1000
,
0100
0010
0001
1000
,
0001
0100
0010
1000
,
0100
0010
0100
1000
,
0001
0001
0001
0000
,
0010
0001
0100
0010
,
1000
0100
2000
0000
,
0002
3000
0100
1003
,
0001
0000
1000
0000
,
0010
0000
1001
1001
,
0100
0000
0100
0000
,
0001
0010
0001
1000
,
0110
1000
0010
1000
,
0100
0010
0001
1000
,
0001
0001
1000
0000
,
0101
1100
0101
1100
,
0001
0001
1000
1000
,
0010
1000
0100
0000
,
1000
0010
1000
0010
,
0100
0100
0001
1000
,
0000
0001
0010
0100
,
1000
0010
1000
0001
,
0100
0010
0100
0001
,
1000
1000
1000
0001
,
0000
0001
1000
0000
,
0010
0010
0100
0100
,
0001
1000
1000
0000
,
0100
1000
0010
0100
,
0001
1000
0001
0000
,
0010
0000
0001
0000
,
2002
0000
0000
0000
,
0000
0000
0000
0000
,
3003
0000
0000
0000
;

//---------------dance-single - ----------------
#NOTEDATA:;
#CHARTNAME:;
#STEPSTYPE:dance-single;
#DESCRIPTION:;
#CHARTSTYLE:;
#DIFFICULTY:Beginner;
#METER:3;
#RADARVALUES:0.117170,0.151658,0.030951,0.023213,0.000000,106.000000,102.000000,4.000000,3.000000,0.000000,0.000000,0.000000,0.000000,0.000000,0.117170,0.151658,0.030951,0.023213,0.000000,106.000000,102.000000,4.000000,3.000000,0.000000,0.000000,0.000000,0.000000,0.000000;
#CREDIT:;
#DISPLAYBPM:106.000000;
#NOTES:
0000
0000
0000
0000
,
0000
0000
0000
0000
,
0000
0000
0000
0000
,
0000
0000
0000
0000
,
0000
0000
0000
0000
,
0010
0000
1000
0000
,
0001
0000
0010
0000
,
0100
0000
1000
0000
,
0001
0000
0100
0000
,
0010
0000
1000
0000
,
0100
0000
0010
0000
,
0001
0000
1000
0000
,
0010
0000
0110
0000
,
0000
0000
0001
0000
,
1001
0000
0100
0000
,
0100
0000
0010
0010
,
0010
0000
1000
0000
,
0001
0000
1000
1000
,
1000
0000
0001
0000
,
0100
0000
0010
0000
,
0100
0000
0001
0000
,
1000
0000
0001
0001
,
0001
0000
0010
0000
,
0010
0000
0001
0000
,
1000
0000
0001
0000
,
0100
0000
0010
0000
,
1000
0000
0001
0000
,
0010
0000
0010
0000
,
0001
0000
1000
0000
,
0010
0000
0100
0000
,
0002
0000
0000
0000
,
0003
0000
0000
0000
,
1000
0000
0000
0000
,
0100
0000
0110
0000
,
0001
0000
0000
0000
,
0100
0100
0100
0000
,
0010
0000
1000
0000
,
0001
0000
0010
0000
,
0001
0000
1000
0000
,
0010
0010
0010
0010
,
0010
0000
0100
0000
,
0001
0001
0001
0000
,
1000
0000
0100
0000
,
1000
1000
1000
0000
,
0010
0000
0100
0000
,
0001
0000
0010
0000
,
0001
0000
1000
0000
,
0100
0100
0100
0000
,
1000
0000
0001
0000
,
0010
0000
0100
0000
,
0010
0000
0001
0000
,
0100
0000
0010
0000
,
1000
0000
0100
0000
,
1000
0000
0001
0000
,
2002
0000
0000
0000
,
0000
0000
0000
0000
,
3003
0000
0000
0000
;

//---------------dance-single - ----------------
#NOTEDATA:;
#CHARTNAME:;
#STEPSTYPE:dance-single;
#DESCRIPTION:;
#CHARTSTYLE:;
#DIFFICULTY:Challenge;
#METER:15;
#RADARVALUES:0.625645,0.714960,0.456522,0.054164,0.603538,566.000000,507.000000,59.000000,7.000000,0.000000,0.000000,0.000000,0.000000,0.000000,0.625645,0.714960,0.456522,0.054164,0.603538,566.000000,507.000000,59.000000,7.000000,0.000000,0.000000,0.000000,0.000000,0.000000;
#CREDIT:;
#DISPLAYBPM:106.000000;
#NOTES:
// measure 0
0000
0000
0000
0000
,  // measure 1
0000
0000
0000
0000
,  // measure 2
0000
0000
0000
0000
,  // measure 3
0000
0000
0000
0000
,  // measure 4
0000
0000
0000
0000
,  // measure 5
0010
0000
0000
0000
1000
0000
0100
0010
0001
0000
0100
0010
1000
0000
0000
0001
,  // measure 6
0010
0100
0000
1000
0000
0010
0000
1000
0000
0001
0000
0100
0000
0010
0000
1000
,  // measure 7
0001
0000
0000
0010
0001
0000
1000
0010
1000
0000
0100
0010
0000
0001
0000
1000
,  // measure 8
0000
0001
0100
0000
0010
1000
0000
0100
1000
0001
0000
0100
0000
0010
1000
0000
,  // measure 9
0001
0000
0000
1000
0100
0000
0010
0000
0001
0000
0100
0000
0001
0000
1000
0010
,  // measure 10
0100
0001
0010
0100
0110
1001
0110
0000
,  // measure 11
1000
0000
0001
0000
1010
0000
0010
0100
0001
0000
1000
0000
0101
0000
0010
1000
,  // measure 12
0100
0000
0010
0000
0001
0000
0100
0000
0110
0000
0001
0000
1000
0000
0001
0010
,  // measure 13
0100
0000
1000
0000
0010
0000
1000
0100
0002
0000
0000
0000
0003
0000
0100
0000
,  // measure 14
0101
0000
1100
0000
1000
0001
0100
0000
0010
0000
1000
0000
1001
0000
0100
0001
,  // measure 15
0010
0000
0100
0000
1001
0000
0100
0000
0001
0000
1000
0000
0001
0010
0100
1000
,  // measure 16
0001
0100
0010
0000
1000
0001
0100
0000
0101
0000
0010
0000
1100
0001
0010
0000
,  // measure 17
0101
0000
0010
0000
1100
1000
0010
0000
0100
0001
1000
0000
0001
0010
0001
0100
,  // measure 18
0010
1000
0100
0010
0001
1000
0010
0000
0110
0000
0000
0100
0001
0000
0010
0000
,  // measure 19
0001
0100
1000
0000
0010
0000
0100
0000
0001
0000
0010
0000
0001
0000
1000
0000
,  // measure 20
1100
0000
0110
0000
0011
0000
0000
1000
0001
0000
0100
0000
0001
0000
0010
0000
,  // measure 21
0100
1000
0010
1000
0001
0000
0100
0010
1000
0000
1000
0000
0001
0000
0001
0000
,  // measure 22
1001
0000
0100
0010
1000
0001
0010
0100
1000
0000
0001
0000
1000
0000
0010
0100
,  // measure 23
0001
0010
0001
2000
0000
0000
3010
0100
0001
0010
1000
0010
0001
0100
1000
0100
,  // measure 24
0001
0010
0100
0010
0001
0100
0010
1000
0001
0000
0100
0001
1000
1000
0010
0100
,  // measure 25
0001
0000
0000
0000
0000
0000
0011
0000
0000
0000
0000
0000
0101
0000
0000
0000
0000
0000
1000
0000
0100
0000
0010
0000
0001
0000
0000
0100
0000
0000
0010
0000
0000
1000
0000
0000
0100
0000
0000
0010
0000
0000
0100
0000
0000
1000
0000
0000
,  // measure 26
0010
1000
0001
0010
0001
0100
0010
1000
0100
0010
0100
1000
0000
0001
0100
0010
,  // measure 27
1000
0000
0100
0000
1000
0010
0001
0000
0101
0000
0000
0100
0010
1000
0001
0000
,  // measure 28
0010
0000
0001
0000
0100
0010
1000
0000
0001
1000
0100
0000
1000
0001
0100
0000
,  // measure 29
0010
1000
0000
0110
0000
1000
0001
0000
1001
0000
0100
0010
1000
0000
0001
0000
,  // measure 30
0010
0001
0100
2000
0002
0000
3000
0000
,  // measure 31
0200
0000
0000
0000
0003
0010
0010
0000
0010
0000
0000
0000
1000
0000
0000
0000
,  // measure 32
0301
0100
1001
0000
0010
1000
0110
0001
,  // measure 33
1000
0000
0100
0000
1000
0000
0001
0000
0110
0100
0001
0000
0110
0010
1000
0000
,  // measure 34
1001
0000
1010
0000
0101
0000
1100
0001
,  // measure 35
0011
0000
0110
0000
1100
1000
0010
1000
0100
0010
0001
0100
0010
1000
0001
0100
,  // measure 36
0010
1000
0010
0100
0001
0000
1000
0000
0001
0010
1000
0000
0100
0000
0010
0000
,  // measure 37
0001
0000
0100
0000
0010
1000
0100
0000
1001
0000
0110
0000
1001
0000
0000
0010
,  // measure 38
1000
0000
0100
0000
1000
0010
1000
0000
0001
0000
0010
0000
0100
0000
1000
0000
,  // measure 39
1100
0000
0101
0000
1100
0000
0101
0000
1000
0010
0100
0001
1000
0100
0010
0001
,  // measure 40
0100
0000
0010
0000
1001
0100
0010
1000
0001
0000
0010
0000
1100
0000
0001
0000
,  // measure 41
1000
0010
1000
0000
0100
0010
0001
0000
1000
0001
0100
0001
0010
0100
1000
0000
,  // measure 42
1010
0010
0100
0000
0101
0001
1000
0000
1100
0100
0010
0000
0011
1000
0001
0000
,  // measure 43
0100
0010
1000
0000
0001
1000
0010
1000
0100
0010
0100
1000
0010
0100
0001
1000
,  // measure 44
0010
0100
0010
1000
0001
0000
0100
0000
0010
1000
0100
0000
1000
0000
0001
0000
,  // measure 45
0010
0000
0100
0000
1000
0010
1000
0001
0010
0100
1000
0000
0110
0000
0000
0001
,  // measure 46
0100
0100
0010
0010
1000
0100
0001
0000
,  // measure 47
0011
0000
1000
0000
1100
0000
0001
0000
1001
0000
0100
0010
1000
0001
0100
0001
,  // measure 48
0010
0000
0000
0000
0011
0001
1000
0010
0100
0001
1000
0000
0001
0000
0010
0000
,  // measure 49
1100
0000
0010
0000
0101
0000
0010
0000
1100
1000
0001
0000
0100
0010
1000
0001
,  // measure 50
0010
0000
0100
0000
1100
1000
0001
1000
0010
0100
0001
0000
1000
0000
0001
0010
,  // measure 51
0100
0000
1000
0000
0010
0000
1000
0000
0001
0010
0001
0010
0100
0000
1000
0001
,  // measure 52
0100
0000
0010
0000
1010
0010
0100
0001
1000
0100
0010
0000
0001
0000
1000
0000
,  // measure 53
0001
0000
0100
0000
0010
0000
1000
0000
0100
0010
0100
1000
0010
0100
0001
0000
,  // measure 54
2002
0000
0000
0000
,  // measure 55
0000
0000
0000
0000
,  // measure 56
3003
0000
0000
0000
;
