#TITLE:POSSESSION;
#SUBTITLE:;
#ARTIST:TAG underground;
#TITLETRANSLIT:;
#SUBTITLETRANSLIT:;
#ARTISTTRANSLIT:;
#GENRE:;
#CREDIT:;
#BANNER:POSSESSION-bn.png;
#BACKGROUND:POSSESSION-bg.png;
#LYRICSPATH:;
#CDTITLE:;
#MUSIC:POSSESSION.ogg;
#OFFSET:0.000000;
#SAMPLESTART:32.433998;
#SAMPLELENGTH:20.000000;
#SELECTABLE:YES;
#DISPLAYBPM:93.000000:278.000000;
#BPMS:0.000000=184.500000
,2.000000=185.000000
,132.000000=92.500000
,148.000000=185.000000
,244.000000=138.750000
,268.000000=277.500000
,313.000000=185.000000
;
#STOPS:
;
#BGCHANGES:0.000=POSSESSION.avi=1.000=1=0=0=StretchNoLoop==CrossFade==,
315.000=POSSESSION-bg.png=1.000=1=0=0=StretchNoLoop==CrossFade==,
99999=-nosongbg-=1.000=0=0=0 // don't automatically add -songbackground-
;
#KEYSOUNDS:;
#ATTACKS:;

//---------------dance-single - ----------------
#NOTES:
     dance-single:
     :
     Hard:
     13:
     0.687872,0.892630,0.308312,0.072544,0.262972,531.000000,497.000000,34.000000,8.000000,0.000000,0.000000,0.687872,0.892630,0.308312,0.072544,0.262972,531.000000,497.000000,34.000000,8.000000,0.000000,0.000000:
0000
0000
0000
0000
,
0000
0000
0000
0000
,
0000
0000
0000
0000
,
0000
0000
0000
0000
,
0000
0000
0000
0000
,
1000
0100
0001
0000
0010
0100
0000
1000
,
0001
0000
0100
0101
0000
1010
0000
0102
,
0000
1003
0001
0000
0010
0001
0000
0010
,
0100
0000
1000
0001
0000
0010
0001
0100
,
0010
1000
0010
0100
0001
1000
0000
0100
,
0010
0000
0001
0011
0000
1100
0000
0021
,
0000
0130
1000
0000
0010
0100
0001
0000
,
1001
0000
0010
1000
0000
0100
1000
0001
,
0000
0100
0010
1000
0010
0100
0000
0001
,
0010
0000
0100
1100
0000
0110
0000
0012
,
0000
1003
0001
0000
0100
0010
1000
0001
,
0010
0000
0001
1000
0000
0001
0100
0010
,
2020
0000
3030
0202
0000
0000
0000
0000
,
0303
1000
0001
0000
1000
0100
0010
0001
,
1001
0000
0000
0110
0000
0000
1000
0001
,
0000
0010
0100
0000
1100
0000
0101
0000
,
1000
0010
0100
0001
0010
0100
1000
0001
,
0000
0100
0001
0000
0010
0001
1000
0010
,
1010
0000
0000
0101
0000
0000
0011
0000
,
0000
1100
0000
0000
0010
1000
0001
0100
,
0001
0010
0001
0100
0010
1000
0001
0100
,
0000
0000
0010
0000
1000
0000
0000
0001
1000
0000
0100
0000
0010
0000
0001
0000
,
0000
0000
0100
0000
0010
0000
0000
0100
0001
0000
1000
0000
0001
0000
0010
0000
,
0000
0000
0100
0000
0010
0000
0000
0001
1000
0000
0001
0000
0100
0000
0010
0000
,
1000
0001
1000
0100
0010
0001
0100
0001
,
0000
0000
1000
0000
0001
0000
0000
1000
0100
0000
0010
0000
0100
0000
1000
0000
,
0000
0000
0010
0000
1000
0000
0000
0001
1000
0000
0010
0000
0100
0000
0001
0000
,
0000
0000
0010
0000
0100
0000
1000
0001
1000
0000
0010
0000
0100
0000
0001
0000
,
0010
0001
0100
0010
1000
0100
1000
0010
1000
0001
1000
0001
,
0010
0100
0010
0001
0100
0010
1000
0001
1000
0100
0010
0001
,
0100
0001
0100
0001
1000
0010
1000
0100
0010
0001
0100
0001
,
0010
0100
1000
0010
1000
0001
0100
0010
1000
0002
0000
0000
,
0013
0001
0100
0001
0010
1000
0100
0010
,
0001
0000
1000
0001
0000
1000
0010
0100
,
0010
1000
0001
0100
0001
0010
0100
1000
,
0001
0100
0010
1000
0000
1000
0100
0001
,
0010
0001
0010
0100
0010
0001
0010
0100
,
1000
0010
1000
0001
1000
0010
1000
0100
,
0010
0001
0010
0100
1000
0001
0100
0010
,
1001
0000
0000
0000
0000
0000
0100
0010
0100
0000
0000
0001
0000
0000
1000
0000
,
0001
0100
0001
0000
1000
0000
0000
0000
0010
0000
0100
0000
0000
0000
0101
0000
,
0000
0000
1000
0000
0001
0000
0000
0010
0001
0000
0100
0000
0010
0000
1000
0000
,
0000
0000
0100
0000
1000
0000
0001
0100
0001
0000
0010
0000
0001
0000
1000
0000
,
0000
0000
0010
0000
1000
0000
0000
0100
0010
0000
0001
0000
1000
0000
0001
0000
,
0000
0000
0100
0000
0010
0000
0100
0001
0100
0000
0010
0000
1000
0000
0001
0000
,
0000
0000
0010
0000
0001
0000
0000
1000
0001
0000
1000
0000
0010
0000
0100
0000
,
0000
0000
0001
0000
0010
0000
0000
0001
1000
0000
0010
0000
0100
0000
0001
0000
,
0000
0000
1000
0000
0010
0000
1000
0001
1000
0000
0100
0000
0010
0000
0001
0000
,
0100
0010
0100
0000
0001
0000
1000
0000
0010
0000
0100
0000
0010
0000
1000
0000
,
0000
0000
0001
0000
0010
0000
0000
0100
1000
0000
0010
0000
1000
0000
0001
0000
,
1000
0100
1000
0000
0010
0000
0000
0100
0001
0000
0010
0000
0001
0000
1000
0000
,
0000
0000
0100
0000
0010
0000
0001
1000
0001
0000
0100
0000
0010
0000
1000
0000
,
0001
0010
0001
0000
1000
0000
0010
0000
0100
0000
0010
0000
1000
0000
0001
0000
,
0000
0000
0010
0000
0100
0000
1000
0001
1000
0000
0010
0000
0001
0000
0100
0000
,
0001
1000
0001
0000
0100
0000
0010
0000
1000
0000
0100
0000
0010
0001
0010
0000
,
0000
0000
0100
0000
1000
0000
0010
0100
0010
0000
1000
0000
0001
0000
0100
0000
,
0010
1000
0001
1000
0100
0010
0100
1000
,
0001
0100
0001
0010
0100
1000
0010
1000
,
0001
0100
0001
0010
0100
1000
0010
0001
,
0100
0010
0100
0010
1000
0100
1000
0001
,
1000
0010
0100
0001
0100
0010
0100
0001
,
0010
0100
1000
0001
0010
0100
1000
0001
,
0011
0001
0100
0010
,
1000
0001
1000
0010
,
1000
0100
0010
0001
,
0110
1000
0001
0010
,
0001
0100
0010
1000
,
0001
1000
0100
0001
,
1010
0001
1000
1100
,
0010
1000
0101
0010
,
0100
0110
0001
1000
,
1001
0100
0001
0011
,
0100
1000
1100
0110
,
0011
0000
0000
0000
1001
0000
0100
0000
0001
1000
0001
1000
0001
0000
0000
0000
;

//---------------dance-single - ----------------
#NOTES:
     dance-single:
     :
     Medium:
     10:
     0.511694,0.606989,0.163224,0.072544,0.068010,395.000000,377.000000,18.000000,8.000000,0.000000,0.000000,0.511694,0.606989,0.163224,0.072544,0.068010,395.000000,377.000000,18.000000,8.000000,0.000000,0.000000:
0000
0000
0000
0000
,
0000
0000
0000
0000
,
0000
0000
0000
0000
,
0000
0000
0000
0000
,
0000
0000
0000
0000
,
1000
0100
1000
0000
0000
0010
0000
0000
,
0100
0000
0000
0101
0000
1010
0000
0201
,
0000
0000
0310
0000
0000
1000
0000
0000
,
0001
0000
0000
0010
0000
0001
0100
0001
,
1000
0001
0100
0000
0000
0010
0000
0000
,
1000
0000
0000
1100
0000
0011
0000
2100
,
0000
0000
3010
0000
0000
0100
0000
0000
,
0001
0000
0000
1000
0000
0010
1000
0010
,
0100
0010
1000
0000
0000
0001
0000
0000
,
0010
0000
0000
0011
0000
0110
0000
2100
,
0000
0000
3001
0000
0000
0100
0000
0000
,
0001
0000
0000
0010
0000
0100
1000
0010
,
2000
0000
0000
0002
0000
0000
0000
0000
,
0000
0000
0000
0000
0000
0000
3003
0100
,
0010
0000
0000
1001
0000
0000
0000
0000
,
0000
0000
1100
0101
,
0010
1000
0100
0000
1000
0001
0000
0010
,
0000
0001
0100
0000
0001
0010
0100
1000
,
0010
0000
0000
0100
0000
0000
0001
0000
,
0000
1000
0000
0000
0110
0000
1001
0000
,
0100
0010
1000
0000
0001
0010
0000
0001
,
0000
0100
0010
0000
1000
0001
1000
0100
,
0000
0010
0001
0000
1000
0001
0000
0100
,
0000
0010
1000
0000
0100
0010
0100
1000
,
0000
0001
0100
0010
1000
0001
0000
1000
,
0000
0010
0100
0000
0010
1000
0010
0100
,
0000
0001
0100
0010
1000
0001
1000
0100
,
0000
0010
0001
0100
0010
1000
0001
1000
,
0100
0000
0000
0010
0000
0000
0001
1000
0001
0100
0010
1000
,
0001
0000
0000
0010
0000
0000
0100
1000
0010
0100
0001
1000
,
0010
0000
0000
0100
0000
0000
0010
1000
0001
0100
0001
0010
,
0100
0000
0000
1000
0000
0000
0001
0100
0010
2000
0000
0000
,
3001
0100
0010
0100
0010
1000
0000
1000
,
0100
0000
0100
0010
0000
0001
1000
0001
,
0000
1000
0100
0010
0100
1000
0000
0001
,
1000
0000
0010
0100
0000
0010
1000
0001
,
0000
0010
0001
0100
0001
1000
0000
0010
,
0100
0010
1000
0001
0000
0010
0001
0100
,
0000
0010
0100
0001
1000
0100
0010
0001
,
0100
0000
0000
0000
0000
0000
0010
0000
1000
0000
0000
1000
0000
0000
1000
0000
,
0001
0010
0001
0100
0010
1000
0000
0001
,
0000
1000
0010
0000
1000
0100
0010
0001
,
0000
0100
0010
0100
0001
1000
0000
0010
,
0000
1000
0001
1000
0100
0010
0001
1000
,
0000
0001
0010
0000
0001
1000
0100
1000
,
0000
0010
0100
0000
0001
1000
0001
0010
,
0000
0100
0010
0100
1000
0010
1000
0001
,
0000
1000
0010
0100
0010
1000
0001
0100
,
0001
0010
1000
0000
0100
0010
0000
0011
,
0000
1000
0001
0000
1000
0010
0100
0001
,
0000
1000
0010
0100
0001
1000
0000
1100
,
0000
0010
1000
0000
0001
1000
0010
0100
,
0000
0001
0010
0001
1000
0010
0000
1010
,
0000
0100
0001
0000
0100
0010
1000
0001
,
0000
1000
0100
0010
0001
0100
0000
0110
,
0000
1000
0001
1000
0010
0100
0001
1000
,
0010
0000
1000
0001
0000
1000
0100
0000
,
0010
0001
0100
0010
1000
0000
0001
0100
,
0000
0001
0010
0000
0100
1000
0001
1000
,
0010
0000
0100
0001
0000
0100
0010
0000
,
1000
0001
0100
0010
0100
0000
0001
1000
,
0000
0001
0010
0100
1000
0010
0100
0001
,
1000
1000
0000
0001
,
0001
0000
0010
0010
,
0000
0001
0100
0010
,
1000
1000
0000
0001
,
0001
0000
0010
0001
,
0100
0010
1000
0001
,
1000
0100
0000
0010
,
0001
0000
0100
0010
,
0000
1000
0001
0100
,
0001
0010
0001
1000
,
0010
1000
0100
0010
,
0002
2003
0010
3001
;

//---------------dance-single - ----------------
#NOTES:
     dance-single:
     :
     Easy:
     7:
     0.314789,0.357052,0.036272,0.036272,0.000000,243.000000,239.000000,4.000000,4.000000,0.000000,0.000000,0.314789,0.357052,0.036272,0.036272,0.000000,243.000000,239.000000,4.000000,4.000000,0.000000,0.000000:
0000
0000
0000
0000
,
0000
0000
0000
0000
,
0000
0000
0000
0000
,
0000
0000
0000
0000
,
0000
0000
0000
0000
,
1000
0010
1000
0001
,
0100
0000
0010
0100
,
0001
1000
0000
0010
,
1000
0000
0100
0010
,
0001
0100
0010
1000
,
0001
0000
0010
0001
,
0100
0010
0000
1000
,
0001
0000
1000
0100
,
1000
0001
0010
0001
,
0100
0000
0010
1000
,
0100
0010
0000
0001
,
1000
0000
0001
0100
,
2020
0000
0000
0000
,
0000
0000
0000
3030
,
0202
0000
0000
0000
,
0000
0303
1000
0001
,
0000
0010
0000
0010
,
0000
0100
0000
0100
,
0000
1000
0000
0010
,
0000
1000
0001
1000
,
0100
0010
0001
0100
,
0001
0010
0001
1000
,
0010
1000
0001
0010
,
0100
1000
0010
0001
,
1000
0001
1000
0010
,
1000
0100
0010
0001
,
0100
0001
0010
0100
,
1000
0010
1000
0001
,
0010
0001
0100
0010
,
1000
0001
0010
0100
,
0010
0001
0100
0010
,
1000
0100
1000
0001
,
0000
0100
0000
0010
,
0000
0100
0000
0010
,
0000
1000
0000
0001
,
0000
1000
0000
0001
,
0010
0010
0010
0010
,
0100
0100
0100
0100
,
1000
1000
0001
0001
,
1001
0000
0100
0100
,
0010
1000
0010
0100
,
0001
0010
0001
0100
,
0001
0010
0100
1000
,
0010
1000
0001
1000
,
0100
0010
0100
1000
,
0010
0100
0001
1000
,
0001
0010
0001
0100
,
0010
1000
0001
1000
,
0110
1000
0001
1000
,
0100
0010
0001
0100
,
0001
0010
0001
0100
,
0010
1000
0001
1000
,
0100
0001
0010
0001
,
1000
0001
0100
0010
,
1000
0100
1000
0010
,
0100
0001
0010
0100
,
1000
0001
0100
0001
,
0010
0100
1000
0010
,
1000
0001
0010
0001
,
1000
0100
0010
0100
,
1000
0001
0100
0001
,
0010
1000
0100
1000
,
0001
0000
0000
0100
,
0000
0000
0010
1000
,
0001
1000
0000
0000
,
0100
0000
0000
0010
,
0000
0001
0100
0001
,
1000
0010
0100
0001
,
1000
0000
0000
0001
,
0000
0000
0010
0000
,
0000
0001
0100
0010
,
1000
0000
0000
0100
,
0000
0000
0010
0100
,
1000
1000
0000
0001
;

//---------------dance-single - ----------------
#NOTES:
     dance-single:
     :
     Beginner:
     3:
     0.168406,0.249937,0.018136,0.000000,0.000000,130.000000,128.000000,2.000000,0.000000,0.000000,0.000000,0.168406,0.249937,0.018136,0.000000,0.000000,130.000000,128.000000,2.000000,0.000000,0.000000,0.000000:
// measure 0
0000
0000
0000
0000
,  // measure 1
0000
0000
0000
0000
,  // measure 2
0000
0000
0000
0000
,  // measure 3
0000
0000
0000
0000
,  // measure 4
0000
0000
0000
0000
,  // measure 5
0000
1000
0000
1000
,  // measure 6
0000
1000
0000
1000
,  // measure 7
0000
0001
0000
0001
,  // measure 8
0000
0001
0000
0001
,  // measure 9
0000
0100
0000
0100
,  // measure 10
0000
0100
0000
0100
,  // measure 11
0000
0010
0000
0010
,  // measure 12
0000
0010
0000
0010
,  // measure 13
0000
1000
0000
1000
,  // measure 14
0000
0001
0000
0001
,  // measure 15
0000
0010
0000
0010
,  // measure 16
0000
0100
0000
0100
,  // measure 17
0000
0000
0000
0000
,  // measure 18
0000
0000
0000
0000
,  // measure 19
1001
0000
0000
0000
,  // measure 20
0000
0000
0001
0001
,  // measure 21
0000
0100
0000
0010
,  // measure 22
0000
0100
0000
0010
,  // measure 23
0000
1000
0000
0001
,  // measure 24
0000
1000
0000
0100
,  // measure 25
0000
0000
1000
1000
,  // measure 26
0000
0000
0001
0001
,  // measure 27
0000
0000
0010
0010
,  // measure 28
0000
0000
0100
0100
,  // measure 29
0000
0000
1000
1000
,  // measure 30
0000
0000
0010
0010
,  // measure 31
0000
0000
0100
0100
,  // measure 32
0000
0000
0001
0001
,  // measure 33
0001
0000
1000
0000
,  // measure 34
0010
0000
0100
0000
,  // measure 35
0010
0000
1000
0000
,  // measure 36
0100
0000
0001
0000
,  // measure 37
0010
0000
0000
0000
,  // measure 38
0000
0000
0000
0000
,  // measure 39
0100
0000
0000
0000
,  // measure 40
0000
0000
0000
0000
,  // measure 41
1000
0000
0010
0000
,  // measure 42
1000
0000
0001
0000
,  // measure 43
0100
0000
0100
0000
,  // measure 44
0110
0000
0000
0000
,  // measure 45
0000
0010
0000
0010
,  // measure 46
0000
1000
0000
0001
,  // measure 47
0000
1000
0000
0100
,  // measure 48
0000
1000
0000
0010
,  // measure 49
0000
0100
0000
0100
,  // measure 50
0000
0100
0000
0001
,  // measure 51
0000
0010
0000
0001
,  // measure 52
0000
1000
0000
0001
,  // measure 53
0000
0100
0100
0100
,  // measure 54
0000
0010
0010
0010
,  // measure 55
0000
1000
1000
1000
,  // measure 56
0000
0001
0001
0001
,  // measure 57
0000
1000
1000
1000
,  // measure 58
0000
0100
0100
0100
,  // measure 59
0000
0010
0010
0010
,  // measure 60
0000
0001
0001
0000
,  // measure 61
0100
0000
0000
0010
,  // measure 62
0000
0000
1000
0000
,  // measure 63
0000
0001
0000
0000
,  // measure 64
0010
0000
0000
0100
,  // measure 65
0000
0000
1000
0000
,  // measure 66
0000
0001
0000
0000
,  // measure 67
1000
0000
0000
0000
,  // measure 68
0000
0000
0010
0000
,  // measure 69
0000
0000
0000
0000
,  // measure 70
0100
0000
0000
0000
,  // measure 71
0000
0000
0001
0000
,  // measure 72
0000
0000
0000
0000
,  // measure 73
0010
0000
0000
0010
,  // measure 74
0000
0000
0010
0000
,  // measure 75
0000
0010
0000
0000
,  // measure 76
0001
0000
0000
1000
,  // measure 77
0000
0000
0001
0000
,  // measure 78
0000
0100
0000
0001
;
