#TITLE:POSSESSION;
#SUBTITLE:(25th Anniversary Special);
#ARTIST:TAG underground;
#BANNER:POSSESSION (25th Anniversary Special)-bn.png;
#BACKGROUND:POSSESSION (25th Anniversary Special)-bg.png;
#JACKET:POSSESSION (25th Anniversary Special)-jacket.png;
#MUSIC:POSSESSION (25th Anniversary Special).ogg;
#OFFSET:1.05;
#SAMPLESTART:41.761;
#SAMPLELENGTH:20;
#LASTBEATHINT:0.129;
#DISPLAYBPM:46:278;
#BPMS:0=185,68=92.5,84=185,116=138.75,140=92.5,148=185,160=46.25,161=185,225=138.75,249=277.5,294=185;
#BGCHANGES:;

//---------------dance-single - ----------------
#NOTES:
     dance-single:
     :
     Challenge:
     16:
     :
0000
0000
0000
0000
,
0000
0000
0000
0000
,
0000
0000
0000
0000
,
0000
0000
0000
0000
,
0000
0000
0000
0000
,
1000
0010
0100
0010
0001
0010
1000
0010
,
0100
0010
0100
0010
0001
0010
1000
0010
,
0001
0010
0100
0010
0001
0010
1000
0010
,
0001
0010
0100
0010
0001
0010
1000
0100
,
0010
1000
0010
0100
0010
0001
0010
1000
,
0010
0100
0010
0001
0010
1000
0010
0001
,
0010
0100
0010
0001
0010
1000
0010
1000
,
0010
1000
0010
0001
0010
0100
0001
0100
,
1000
0010
0100
0010
0001
0010
1000
0010
,
0100
1000
0100
0010
0100
0001
0100
1000
,
0100
0001
0010
1000
0010
0100
0001
0100
,
0010
1000
0010
0001
0100
0010
1000
0001
,
1010
0000
0000
0202
0000
0000
0000
0000
0000
0300
0000
0000
1003
0100
0010
0001
,
0011
0000
0000
2200
0000
0000
0000
0300
0000
0010
3010
0000
1000
0001
0100
0010
,
1000
0100
0100
0001
0010
0010
0001
1000
0000
0010
0010
0100
0001
0010
0001
1000
,
1100
0000
0001
0101
0000
1000
1100
0000
0001
0101
0000
0010
1000
0100
0010
0001
,
0100
0010
0100
0000
0001
0000
0010
0000
1000
0000
0010
0000
0001
0000
0100
0000
,
0000
0000
0010
1000
0010
0000
0000
0000
1000
0000
0100
0000
0010
0000
0001
0000
,
1000
0010
1000
0000
0001
0000
0100
0000
0010
0000
1000
0000
0100
0000
0001
0000
,
0000
0000
0010
0000
0001
0000
1000
0010
1000
0000
0100
0000
0010
0000
0001
0000
,
0100
0001
0100
0000
0010
0000
1000
0100
1000
0000
0010
0000
0100
0000
0001
0000
,
0000
0000
0010
0000
0001
0000
0100
0010
0100
0000
0001
0000
1000
0000
0010
0000
,
0000
0000
1000
0000
0100
0000
1000
0001
1000
0000
0010
0000
0100
0000
0001
0000
,
0000
0000
0010
0000
0001
0000
1000
0100
1000
0000
0001
0000
0010
0000
0100
0000
,
1000
0100
1100
0001
0100
0101
0001
0010
,
0011
1000
0010
1010
1000
0001
0101
0010
,
1000
1100
0100
0010
0110
0001
0010
1100
,
0010
0100
0101
0001
1000
1100
0010
1000
,
0101
0001
0010
0011
0100
0010
0110
0100
,
0010
0000
0000
0110
0000
0000
1100
0000
0000
0110
0000
0000
0011
0000
0000
1001
0000
0000
0000
0000
0100
1000
0100
1000
,
0001
0010
1000
0001
0100
1000
0001
0010
1000
0001
0100
1000
0001
0010
0100
1000
,
1000
0010
0001
1000
0100
0001
1000
0010
0001
1000
0100
0001
1000
0100
0010
0001
,
0100
0100
0010
0010
1000
1000
0001
0001
,
0010
0010
0001
0001
0100
0100
1000
1000
,
0001
0010
0001
0010
0001
0010
0001
0010
0100
1000
0100
1000
0100
1000
0100
1000
,
0001
0000
0000
0000
0000
0000
1000
0010
1000
0000
0000
0001
0000
0000
0100
0000
0010
0000
0000
0000
1000
0000
0000
0000
0100
0000
0000
0000
0000
0000
0000
0000
0100
0000
0000
0000
0000
0000
0000
0000
0010
0000
0000
0000
0001
0000
0000
0000
0100
0000
0000
0000
0000
0000
0000
0000
0010
0000
0000
0000
0000
0000
0000
0000
,
1000
0000
0001
0000
0000
0010
0100
0000
0100
0000
1000
0010
0100
0000
0001
0000
,
1000
0000
0100
0000
1000
0010
0100
0000
0100
0000
0001
0010
0100
0000
0010
0000
,
0001
0000
1000
0000
0000
0100
1000
0000
1000
0000
0010
1000
0100
0000
0010
0000
,
0001
0000
1000
0000
0010
0100
0001
0000
0001
0000
0010
0100
1000
0000
1000
0000
,
0001
0100
0010
0000
0000
1000
0001
0000
0001
0000
0010
0100
1000
0000
0010
0000
,
0100
0000
0001
0000
0010
0001
0100
0000
0100
0000
0001
0010
1000
0000
1000
0000
,
0100
0010
0001
0000
1000
0100
1000
0000
1000
0000
0010
0100
0001
0000
0010
0000
,
1000
0000
0100
0000
0010
0001
1000
0000
1100
0000
0010
1000
0001
0000
0101
0000
,
0010
1000
0100
0000
1000
0001
0100
0000
0110
0000
0010
1000
0001
0000
1001
0000
,
0010
0000
0100
0000
1000
0100
0010
0000
0011
0000
0001
1000
0100
0000
1001
0000
,
0010
0001
1000
0000
0001
0100
0010
0000
1010
0000
0100
1000
0001
0000
0101
0000
,
0010
0000
0100
0000
0001
0010
1000
0000
0101
0000
0010
0100
0010
0000
1010
0000
,
0100
1000
0001
0000
0010
0001
0100
0000
1010
0000
1000
0001
0010
0000
0011
0000
,
0100
0000
1000
0000
0100
0010
0001
0000
0011
0000
1000
0100
1000
0000
1010
0000
,
0010
1000
0100
0000
0010
0001
0100
0000
0110
0000
0010
1000
0001
0000
0101
0000
,
1000
0001
1000
0100
0110
0001
0100
0110
,
0010
1000
1100
0001
1000
1100
0010
0100
,
1001
0001
0010
0011
1000
0001
1001
0100
,
0010
0110
0010
1000
1100
0010
1000
0101
,
0001
0010
0011
1000
0100
1100
0010
1000
,
1010
0001
0100
1010
0001
1000
0110
0001
,
0010
1100
0101
0000
0101
0000
0101
0000
,
1100
1100
1100
0011
,
0011
0011
1010
1010
,
1010
1001
1001
1001
,
0110
0110
0110
1010
,
0101
0011
1100
1001
,
0110
0011
0101
1001
,
1100
1010
1001
0110
,
1010
1100
0110
0011
,
0101
0011
1010
1100
,
0101
0110
1001
1100
,
0110
0000
0000
0000
0011
0000
0000
0000
1001
0000
0000
0000
0100
1000
0100
2000
,
0002
0000
0000
0000
,
0000
0000
0000
0000
,
0000
0000
0000
3003
;
