#TITLE:POODLE;
#ARTIST:Y&Co.;
#BANNER:POODLE-bn.png;
#BACKGROUND:POODLE-bg.png;
#JACKET:POODLE-jacket.png;
#MUSIC:POODLE.ogg;
#SAMPLESTART:40.111;
#SAMPLELENGTH:20;
#DISPLAYBPM:160;
#BPMS:0=160;
#BGCHANGES:;

//---------------dance-single - ----------------
#NOTES:
     dance-single:
     :
     Beginner:
     3:
     :
0000
0000
0000
0000
,
1000
0000
1000
0000
,
0001
0000
0001
0000
,
0100
0000
0100
0000
,
0010
0000
0010
0000
,
1000
0000
1000
0000
,
0100
0000
0100
0000
,
0010
0000
0010
0000
,
0001
0000
0001
0000
,
0100
0000
0000
0000
,
0010
0000
1000
0000
,
1001
0000
0000
0000
,
0001
0000
0000
0000
,
0100
0000
0010
0000
,
1000
0000
0000
0000
,
0100
0000
1000
0000
,
1001
0000
0000
0000
,
0010
0000
0100
0000
,
0001
0000
1000
0000
,
0010
0000
0000
0000
,
0110
0000
0000
0000
,
0100
0000
0000
0000
,
0110
0000
0000
0000
,
0001
0000
0000
0000
,
1000
0000
0000
0000
,
0010
0000
0010
0000
,
1000
0000
0001
0000
,
1001
0000
0000
0000
,
0010
0010
0010
0000
,
1000
0000
0001
0000
,
0100
0000
0010
0000
,
0110
0000
0000
0000
,
1000
1000
1000
0000
,
0001
0000
0010
0000
,
0001
0000
0100
0000
,
0020
0000
0030
0000
,
0200
0000
0300
0000
,
0001
0000
0010
0000
,
0100
0100
0000
0000
,
2000
0000
0000
0000
,
3000
0000
0000
0000
,
0002
0000
0000
0000
,
0003
0000
0000
0000
,
0200
0000
0000
0000
,
0300
0000
0000
0000
,
0020
0000
0000
0000
,
0030
0000
0000
0000
,
2000
0000
3000
0000
,
0002
0000
0003
0000
,
0100
0000
0100
0000
,
0010
0000
0010
0000
,
1000
0000
0000
0000
,
0001
0000
0000
0000
,
0010
0000
0010
0000
,
0001
0000
0000
0000
,
0100
0000
0010
0000
,
0100
0000
0010
0000
,
0110
0000
0000
0000
,
0001
0001
0001
0000
,
0010
0000
0100
0000
,
1000
0000
0001
0000
,
1001
0000
0000
0000
,
0100
0100
0100
0000
,
0010
0000
0100
0000
,
0001
0000
1000
0000
,
0002
0000
0003
0000
,
2000
0000
3000
0000
,
0010
0000
1000
0000
,
0100
0100
0000
0000
,
0110
0000
0000
0000
,
0001
0000
0010
0000
,
0001
0000
0100
0000
,
0010
0000
1000
0000
,
0100
0000
1000
0000
,
0001
0000
1000
0000
,
0001
0000
0010
0000
,
0100
0000
1000
0000
,
0010
0000
0000
1001
;

//---------------dance-single - ----------------
#NOTES:
     dance-single:
     :
     Easy:
     7:
     :
0000
0000
0000
0000
,
1000
0001
0010
0001
,
0100
0010
1000
0100
,
0010
0001
0100
1000
,
0010
1000
0100
0001
,
0010
0100
0010
0001
,
0100
0010
1000
0100
,
0001
1000
0010
1000
,
0100
0010
0001
1000
,
0200
0000
0000
0300
,
1000
0001
0100
0010
,
1000
0100
0001
0100
,
0010
1000
0001
0010
,
0100
0100
0010
0010
,
0001
0100
1000
0000
,
0010
1000
0100
0010
,
1001
0100
0010
1000
,
0001
0001
0010
0001
,
0100
0010
0000
1000
,
0001
0000
0000
0100
0000
0000
0010
0000
,
2002
0000
0000
3003
,
1000
0000
0000
0001
0000
0000
0100
0000
,
0220
0000
0000
0330
,
0010
0000
0000
1000
0000
0000
0100
0000
,
0110
0001
0100
1000
,
0020
0030
0200
0300
,
0001
0010
1000
0100
,
0220
0000
0000
0330
,
0001
0010
0001
0100
,
1000
1001
0010
0100
,
0001
0010
0100
1000
,
2002
0000
0000
3003
,
0010
1000
0010
0100
,
0001
0110
1000
0001
,
0010
0100
1000
0000
,
0010
0000
0000
0202
0000
0000
0303
0000
,
0010
0000
0000
2200
0000
0000
3300
0000
,
0001
0010
1000
0100
,
1001
0110
0000
0000
,
0000
1000
0000
0010
,
0000
0100
0000
0001
,
0000
0010
0000
0001
,
0000
0100
0000
0010
,
0000
1000
0000
0100
,
0000
1000
0000
0001
,
0000
0010
0000
1000
,
0000
0100
0000
0010
,
0000
0001
0000
0100
,
0000
0010
0000
1000
,
2020
3030
0202
0303
,
0022
0033
2200
3300
,
0010
0000
0000
1000
0000
0000
0001
0000
,
1001
0010
1000
0100
,
0020
0030
0200
0300
,
1000
0010
0001
0000
,
2000
3020
0230
0302
,
0013
0010
0010
0001
,
2002
0000
0000
3003
,
0010
1000
0100
0010
,
0001
0110
1000
0001
,
0100
0010
0100
0001
,
0220
0000
0000
0330
,
1000
0010
1000
0100
,
0010
1001
0100
0001
,
0010
0100
1000
0000
,
0010
0000
0000
0202
0000
0000
0303
0000
,
0010
0000
0000
2200
0000
0000
3300
0000
,
0001
0010
1000
0100
,
1001
0110
0000
0000
,
1000
0010
1000
0100
,
0010
0001
0100
0010
,
0100
0001
0010
1000
,
0100
1000
0010
0001
,
1000
0001
1000
0100
,
0010
1000
0100
0010
,
0001
0100
0001
0010
,
1000
0001
0010
0100
,
0010
0010
0010
1001
;

//---------------dance-single - ----------------
#NOTES:
     dance-single:
     :
     Medium:
     10:
     :
0000
0000
0000
0000
,
1000
0100
0001
0000
0010
0000
0001
0000
,
0100
0010
1000
0000
0100
0000
0001
0000
,
1000
0001
0010
0000
0100
0000
1000
0000
,
0010
1000
0100
0000
1000
0010
0001
0000
,
0100
0001
0010
0000
1000
0000
0100
0000
,
1000
0001
1000
0000
0010
0000
0100
0000
,
0001
0010
1000
0000
0100
0000
0010
0000
,
0100
0010
0001
0000
0100
0001
1000
0000
,
0100
0100
0100
0100
,
1000
0010
1000
0000
0001
0100
0010
0000
,
1000
0100
0001
0000
0010
0100
1000
0000
,
0001
1000
0000
1010
0000
0000
0000
0000
,
0100
0001
0020
0000
0032
0000
2003
0000
,
3001
0100
0010
1000
0000
0000
0000
0110
,
0000
1000
0002
0000
0010
0000
0103
0000
,
1001
0000
0100
0010
0000
1000
0001
0000
,
0020
0230
2300
3002
,
1003
0000
0010
0100
0000
0001
1000
0001
,
2000
0000
0000
3020
0000
0000
0130
0000
,
0210
0001
0001
0301
,
0020
0000
0000
0032
0000
0000
1003
0000
,
0120
1000
1000
1030
,
0200
0000
0000
2300
0000
0000
3002
0000
,
0103
1001
0010
1001
,
2200
3300
0022
0033
,
1000
0010
0100
0001
0000
0000
0101
0000
,
2100
0001
0100
3010
,
1000
0100
0001
0000
0010
0100
1000
0000
,
0001
1010
0200
0302
,
0023
0032
0103
1010
,
0102
0010
1000
0103
,
0010
0001
0100
0000
0001
0010
1000
0000
,
0100
0011
2000
3002
,
0023
0230
2300
3000
,
0001
0000
0100
0020
0000
0000
0030
0000
,
1000
0000
0001
0200
0000
0000
0300
0000
,
0101
0101
1100
1100
,
1001
0000
0110
0000
1000
0100
0010
0001
,
0000
0000
0100
0100
0000
0000
0010
0000
,
0000
0000
1000
0000
0000
0001
0001
0000
,
0000
0000
0010
0010
0000
0000
0001
0000
,
0000
0000
0100
0000
0000
0010
0010
0000
,
0000
0000
1000
1000
0000
0000
0010
0000
,
0000
0000
1000
0000
0000
0001
0001
0000
,
0000
0000
0010
0010
0000
0000
0100
0000
,
0000
0000
1000
0000
0000
0001
0001
0000
,
0000
0000
0100
0100
0000
0000
0010
0000
,
0000
0000
1000
0000
0000
0100
0100
0000
,
2010
3001
0102
1003
,
0102
0000
0013
0000
1000
0100
0001
0000
,
0020
0000
0000
0032
0000
0000
2003
0000
,
3010
0101
0010
1100
,
2020
3030
0202
0303
,
0001
0010
0100
1000
0000
0000
0000
1010
,
0000
0001
0100
0000
0020
0000
2030
0000
,
3100
0010
0001
1000
0000
0000
1100
0000
,
0102
0010
0100
1003
,
0001
0010
1000
0000
0100
0010
0001
0000
,
0100
1001
0020
2030
,
3200
0320
0031
0011
,
1200
0001
0010
1300
,
0100
1000
0010
0000
0100
0001
1000
0000
,
0010
0101
2000
3200
,
0320
0032
2003
3000
,
0001
0000
1000
0200
0000
0000
0300
0000
,
0010
0000
0001
2000
0000
0000
3000
0000
,
1100
1100
0101
0101
,
1001
0000
0110
0000
1000
0100
0010
0001
,
0100
0010
1000
0000
0001
0000
0010
0000
,
0001
0100
1000
0000
0010
0000
0100
0000
,
0010
1000
0001
0000
0010
0000
0100
0000
,
0010
0100
0010
0000
0001
0100
1000
0000
,
0001
0010
1000
0000
0100
0000
0001
0000
,
1000
0001
0100
0000
0001
0000
0010
0000
,
0100
1000
0010
0000
0100
0000
0001
0000
,
0010
0100
1000
0000
0001
0100
0010
0000
,
1000
0001
0100
0000
0010
0000
1000
1001
;

//---------------dance-single - ----------------
#NOTES:
     dance-single:
     :
     Hard:
     12:
     :
0000
0000
0000
0000
,
1000
0000
0100
0000
0001
0000
0000
0010
0000
0000
0001
0000
0100
0000
0010
0000
,
1000
0000
0001
0000
0010
0000
0000
0100
0000
0000
0010
0000
0001
0000
1000
0000
,
0010
0000
1000
0000
0100
0000
0000
0001
0000
0000
1000
0000
0010
0000
0001
0000
,
0100
0000
0001
0000
0010
0000
0000
0100
0000
0000
1000
0000
0010
0000
0100
0000
,
0001
0000
0010
0000
0001
0000
0000
0100
0000
0000
0010
0000
1000
0000
0001
0000
,
0010
0000
0100
0000
1000
0000
0000
0010
0000
0000
1000
0000
0100
0000
0001
0000
,
1000
0000
0001
0000
0010
0000
0000
0100
0000
0000
0010
0000
0100
0000
1000
0000
,
0010
0000
1000
0000
0001
0000
0000
1000
0000
0000
0100
0000
0010
0000
0001
0000
,
0100
0100
0100
0100
,
0001
0000
0100
0000
1000
0000
0000
0010
0000
0000
1000
0000
0001
0000
1001
0000
,
0000
0010
0100
0010
1000
0100
1000
0001
,
0100
0010
0000
1010
0000
0001
0100
1000
,
0010
0100
0002
0000
2003
0000
3200
0000
,
1300
0010
0100
0001
0000
0000
0000
0110
,
0000
0001
2000
0000
3010
1000
0100
0000
,
1001
0000
0010
0100
0000
0001
0010
1000
,
0200
2300
3020
0032
,
0013
1000
0001
1000
0000
0100
0010
0001
,
0202
0000
0303
2200
0000
3300
1001
0000
,
0210
0001
0001
0301
,
0022
0000
0033
2200
0000
3300
1001
0000
,
0120
1000
1000
1030
,
2200
0000
3300
2020
0000
3030
1001
0000
,
0110
0001
0000
0000
0100
0010
0000
1000
,
0002
0013
2000
3100
,
1000
0010
0100
0001
0000
0000
1100
0000
,
0101
0010
1000
0100
1000
0010
0100
0001
,
0010
0000
1001
0000
0001
0100
0010
1000
,
0100
0011
2000
3002
,
0013
0000
0000
0001
0000
0000
1000
0000
0100
0000
0000
0000
1010
0000
0000
0000
,
0101
0010
1000
0001
1000
0100
0010
0001
,
0100
0000
0110
0000
0001
0010
1000
0100
,
0010
0011
0002
0203
,
0310
0000
0000
0100
0000
0000
1000
0000
0001
0000
0000
0000
0000
0000
0100
0000
,
0010
0000
0000
1000
0000
0000
0001
0000
2020
0000
0000
0000
3030
0000
0001
0000
,
1000
0000
0000
0100
0000
0000
0010
0000
0022
0000
0000
0000
0033
0000
0100
0000
,
0001
0000
0000
0010
0000
0000
1000
0000
0001
0000
0000
0100
0000
0000
1000
0000
,
0110
0000
1001
0000
1000
0100
0010
0001
,
0100
0010
1000
0000
0100
0010
0001
0000
,
1000
0001
0010
0000
0001
0100
1000
0000
,
0001
0010
1000
0000
0100
0010
0001
0000
,
0100
0001
0010
0000
0001
0100
1000
0000
,
0001
0010
1000
0000
0100
0010
0001
0000
,
0100
0001
0010
0000
0001
0100
1000
0000
,
0010
1000
0100
0000
1000
0010
0001
0000
,
1000
0100
1000
0000
0010
0100
0001
0000
,
0010
0001
0100
0010
1000
0100
0001
0000
,
1000
0001
0010
0001
0100
0010
1000
0000
,
1010
0000
0001
0000
0100
0000
0101
0000
0010
0000
1000
0000
,
0001
0010
0001
0100
0010
1000
0001
0100
,
0202
0000
0303
2200
0000
3300
1001
0000
,
0110
0001
0000
0000
1000
0100
0000
0010
,
0002
0103
2000
3010
,
1000
0100
0010
0001
0000
0000
0000
0100
,
0001
0010
1000
0000
1010
0000
0011
0000
,
1000
0100
0010
0001
0000
0000
0101
0000
,
1100
0001
1000
0010
1000
0100
0010
0001
,
0100
0000
0110
0000
0001
0010
0100
1000
,
0001
1010
0200
2300
,
3010
0000
0000
1000
0000
0000
0001
0000
0100
0000
0000
0000
0101
0000
0000
0000
,
1100
0001
0010
0100
1000
0010
1000
0001
,
0100
0000
1001
0000
0010
0001
0100
1000
,
0001
1100
0020
0230
,
0310
0000
0000
1000
0000
0000
0100
0000
0001
0000
0000
0000
0000
0000
0010
0000
,
0001
0000
0000
1000
0000
0000
0100
0000
0022
0000
0000
0000
0033
0000
0100
0000
,
0010
0000
0000
1000
0000
0000
0001
0000
2020
0000
0000
0000
3030
0000
0100
0000
,
0001
0000
0000
0010
0000
0000
1000
0000
0001
0000
0000
0100
0000
0000
1000
0000
,
0110
0000
1001
0000
1000
0100
0010
0001
,
0100
0000
0001
0000
0010
0000
0000
1000
0000
0000
0001
0000
1000
0000
0100
0000
,
0010
0000
0100
0000
1000
0000
0000
0010
0000
0000
1000
0000
0100
0000
0001
0000
,
1000
0000
0100
0000
1000
0000
0000
0001
0000
0000
0010
0000
0100
0000
1000
0000
,
0001
0000
1000
0000
0010
0000
0000
1000
0000
0000
0100
0000
1000
0000
0001
0000
,
0010
0000
0001
0000
0100
0000
0000
1000
0000
0000
0010
0000
0100
0000
0010
0000
,
0100
0000
0001
0000
0010
0000
0000
1000
0000
0000
0001
0000
1000
0000
0100
0000
,
0010
0000
0001
0000
1000
0000
0000
1000
0000
0000
0010
0000
0100
0000
0001
0000
,
0010
0000
1000
0000
0100
0000
0000
1000
0000
0000
0010
0000
0100
0000
0001
0000
,
1000
0000
0001
0000
0100
0000
0000
0010
0000
0000
1000
0000
0100
0000
1001
0000
;
