#TITLE:PINK DINOSAUR;
#ARTIST:PAPAYA;
#BANNER:PINK DINOSAUR.png;
#BACKGROUND:PINK DINOSAUR-bg.png;
#JACKET:PINK DINOSAUR-jacket.png;
#MUSIC:PINK DINOSAUR.ogg;
#SAMPLESTART:58.21;
#SAMPLELENGTH:20;
#DISPLAYBPM:136;
#BPMS:0=136.059;
#BGCHANGES:;

//---------------dance-single - ----------------
#NOTES:
     dance-single:
     :
     Beginner:
     2:
     :
0000
0000
0000
0000
,
0000
0000
0000
0000
,
0000
0000
0000
0000
,
0000
0000
0000
0000
,
0000
0000
0000
0000
,
0001
0000
1000
0000
,
0001
0000
0100
0000
,
0010
0000
0010
0000
,
0010
0000
0000
0000
,
1000
0000
1000
0000
,
0001
0000
0001
0000
,
1000
0000
0001
0000
,
0100
0000
0100
0000
,
0010
0000
0010
0000
,
1000
0000
0001
0000
,
1000
0000
0100
0000
,
0010
0000
0000
0000
,
0001
0000
1000
0000
,
0001
0000
0100
0000
,
0010
0000
1000
0000
,
0100
0000
0010
0000
,
0001
0000
0100
0000
,
0001
0000
1000
0000
,
0010
0000
1000
0000
,
0100
0000
1000
0000
,
0001
0000
0010
0000
,
1000
0000
0000
0000
,
0100
0000
1000
0000
,
0010
0000
0000
0000
,
1000
0000
0001
0000
,
0010
0000
0000
0000
,
0100
0000
0010
0000
,
0001
0000
0000
0000
,
1000
0000
0001
0000
,
1000
0000
0010
0000
,
0100
0000
0001
0000
,
1000
0000
0000
0000
,
0010
0000
1000
0000
,
0100
0000
0010
0000
,
0001
0000
0001
0000
,
0001
0000
0000
0000
,
0010
0000
0001
0000
,
0010
0000
0001
0000
,
0100
0000
0010
0000
,
1000
0000
1000
0000
,
1000
0000
0100
0000
,
0010
0000
0100
0000
,
1000
0000
0001
0000
,
0010
0000
0001
0000
,
0100
0000
0000
0000
,
0010
0000
0000
0000
;

//---------------dance-single - ----------------
#NOTES:
     dance-single:
     :
     Easy:
     5:
     :
0000
0000
0000
0000
,
0000
0000
0000
0000
,
0000
0000
0000
0000
,
0000
0000
0000
0000
,
0000
0000
0000
0000
,
0002
0003
2000
3000
,
0001
0100
1000
0000
,
0010
1000
0010
0100
,
0001
0001
0001
0000
,
0010
0001
0100
0100
,
0010
1000
0010
0000
,
1000
0100
0010
0010
,
0001
1000
0001
0000
,
1000
0010
1000
1000
,
0100
0010
0001
0000
,
0010
0001
1000
1000
,
0001
1000
0100
0000
,
0020
0030
0200
0300
,
1000
0001
0100
0000
,
0001
0010
0001
0000
,
0010
0100
0100
0000
,
2000
3000
0002
0003
,
0010
0001
0100
0000
,
0020
0030
0200
0300
,
0001
0010
1000
0000
,
0001
0100
0001
1000
,
0010
0100
0001
0000
,
0010
0010
0010
0001
,
0200
0000
0000
0300
,
0010
1000
0010
0100
,
0001
1000
0100
0000
,
1000
0010
1000
0001
,
0020
0000
0000
0030
,
0002
0003
2000
3000
,
0001
0010
1000
0000
,
0100
0100
1000
0010
,
0100
0001
1000
0000
,
0002
0003
2000
3000
,
0100
0010
0001
0000
,
0010
0001
0100
0001
,
0010
0100
1000
0000
,
0001
0010
0001
1000
,
0010
0010
1000
0000
,
0100
0010
0001
0100
,
0001
0001
1000
0000
,
0001
0010
0100
0010
,
0001
0100
1000
0000
,
1000
0010
0100
0001
,
0010
0010
0010
0000
,
0200
0000
2300
0000
,
3010
0000
0000
0000
;

//---------------dance-single - ----------------
#NOTES:
     dance-single:
     :
     Medium:
     8:
     :
0000
0000
0000
0000
,
0000
0000
0000
0000
,
0000
0000
0000
0000
,
0000
0000
0000
0000
,
0000
0000
0000
0000
,
0001
0001
1000
1000
,
0001
0000
0010
0000
0001
0000
0100
0010
,
1000
0000
1000
0100
0010
0000
0010
0001
,
1000
0001
0100
0110
,
1000
0001
1000
0000
0101
0000
0101
0000
,
0001
1000
0100
0000
1100
0000
1100
0000
,
0010
1000
0001
0000
0110
0000
0110
0000
,
0001
0010
0100
0000
1100
0000
1100
0000
,
1000
0001
1000
0000
0011
0000
0011
0000
,
0001
1000
0001
0000
1010
0000
1010
0000
,
0100
0001
0100
0000
1001
0000
1001
0000
,
0010
1000
0001
1000
0100
0000
0000
0000
,
0010
0010
0100
0100
,
0001
0000
0010
1000
0200
0000
0300
0000
,
1000
0000
0001
0000
1001
0000
0100
0001
,
0010
0000
0001
1000
0200
0000
0300
0000
,
1000
1000
0001
0001
,
0010
0000
0001
1000
0020
0000
0030
0000
,
0100
0010
1010
0101
,
0001
0010
0001
0010
0200
0000
0300
0000
,
1000
0000
1000
0000
0001
0100
0001
0100
,
0010
0000
1000
0002
0000
0000
0003
0000
,
2000
0000
3100
0000
1000
0001
0000
0200
,
0000
0020
0000
0000
0300
0000
0030
0000
,
1001
0000
0110
0000
1000
0100
0010
0001
,
0100
0000
0020
2000
0000
0000
3030
0000
,
0001
0000
0001
0010
0100
0000
1000
0001
,
0100
0000
0000
0010
0000
1000
0001
0000
,
1000
1000
0001
0001
,
0010
0000
0001
1000
0001
0000
0100
0000
,
0010
0000
1000
0100
1000
0000
0010
0100
,
0001
0001
0010
0100
,
1000
1000
0001
0001
,
1000
0000
0001
0010
0001
0000
0100
0000
,
0010
0000
1000
0100
0010
0000
0001
1000
,
0001
0100
0010
1001
,
1000
0100
0010
0000
0011
0000
0011
0000
,
0001
1000
0001
0000
0101
0000
0101
0000
,
0010
1000
0100
0000
1100
0000
1100
0000
,
1000
0001
1000
0000
1001
0000
1001
0000
,
0001
0100
0010
0000
0110
0000
0110
0000
,
1000
0010
0100
0000
0101
0000
0101
0000
,
0001
0010
0001
0000
1001
0000
1001
0000
,
0010
1000
0001
0000
1010
0000
1010
0000
,
0202
0000
0003
0000
0301
1000
0001
0000
,
0010
0000
0000
0000
;

//---------------dance-single - ----------------
#NOTES:
     dance-single:
     :
     Hard:
     11:
     :
0000
0000
0000
0000
,
0000
0000
0000
0000
,
0000
0000
0000
0000
,
0000
0000
0000
0000
,
0000
0000
0000
0000
,
0002
0103
0020
1030
,
0001
0000
0000
0001
1000
0000
0100
0000
0020
0000
0000
0000
0031
0000
1000
0000
,
0010
0000
0010
1000
0200
0000
1300
0001
,
0010
0000
0100
0000
0010
0000
0001
0000
0100
0010
0000
0010
1000
0000
0000
0000
,
0001
0000
0010
0000
0100
0000
1000
0000
0001
0000
0000
0100
0000
0000
0010
0000
,
1000
0000
0100
0000
0010
0000
0001
0000
1000
0000
0000
0001
0000
0000
0100
0000
,
0010
0000
0100
0000
0001
0000
1000
0000
0100
0000
0000
0010
0000
0000
0001
0000
,
0100
0000
0001
0000
0010
0000
1000
0000
0100
0000
0000
1000
0000
0000
0001
0000
,
0010
0000
0001
0000
0100
0000
1000
0000
0010
0000
0000
1000
0000
0000
0100
0000
,
1000
0000
0100
0000
0010
0000
0001
0000
0010
0000
0000
0001
0000
0000
0100
0000
,
0001
0000
0010
0000
0100
0000
1000
0000
0010
0000
0000
1000
0000
0000
0001
0000
,
0100
0000
0001
0000
0010
0000
0100
0000
1000
0000
0000
0001
0000
0000
0000
0000
,
0002
0103
2000
3100
,
0010
0000
0000
0001
1000
0000
0001
0000
0200
0000
0000
0000
0310
0000
0000
0000
,
2000
0000
3100
0000
0011
0000
0100
0001
,
0010
0001
0100
0010
2000
0000
3001
0000
,
0200
0310
2000
3001
,
0010
0000
0000
0010
0001
0000
1000
0000
0200
0000
0000
0000
1300
0000
0000
0000
,
0002
1003
0020
0130
,
0001
0000
0000
0010
0001
0000
1000
0000
0010
0000
0000
0000
0100
0000
0000
0000
,
2010
0000
3002
0000
0013
0001
0010
0100
,
1000
0010
0100
0001
0000
0100
0010
0000
,
2000
0000
3200
0000
1300
0010
0100
0001
,
0100
1000
0100
0001
0010
0100
1000
0000
,
0002
0000
0023
0000
0031
1000
0010
1000
,
0100
0010
0001
1000
0000
0001
0100
0000
,
0120
0000
1030
0100
1000
0010
0100
0001
,
0020
0000
0100
0000
0130
0000
1000
0000
0001
0000
0000
0001
0000
0000
0001
0000
,
0201
0310
1200
0310
,
0011
0000
0000
0001
0100
0000
0010
0000
2000
0000
0000
0000
3100
0000
0010
0000
,
0002
0000
0013
0001
0100
0010
1000
0001
,
0100
0000
0010
0000
1000
0000
0000
0000
0001
0100
0000
0001
0100
0000
0010
0000
,
2010
3100
0012
0103
,
0101
0000
0000
0010
1000
0000
0001
0000
0200
0000
0000
0000
0301
0000
1000
0000
,
0200
0000
0310
0100
1000
0010
1000
0001
,
0100
0000
1000
0000
0010
0000
0000
0000
0100
0001
0000
0100
0001
0000
1000
0000
,
0001
0000
0010
0000
0100
0000
1000
0000
0001
0000
0000
1000
0000
0000
0100
0000
,
0010
0000
0100
0000
1000
0000
0001
0000
1000
0000
0000
0010
0000
0000
0001
0000
,
0100
0000
0010
0000
1000
0000
0001
0000
0010
0000
0000
0100
0000
0000
1000
0000
,
0001
0000
0100
0000
0010
0000
1000
0000
0100
0000
0000
0001
0000
0000
1000
0000
,
0010
0000
1000
0000
0100
0000
0001
0000
1000
0000
0000
0100
0000
0000
0010
0000
,
0001
0000
0100
0000
0010
0000
1000
0000
0010
0000
0000
0100
0000
0000
0001
0000
,
1000
0000
0100
0000
0010
0000
0001
0000
1000
0000
0000
0010
0000
0000
0100
0000
,
0001
0000
0010
0000
1000
0000
0100
0000
1000
0000
0000
0001
0000
0000
0100
0000
,
2002
0000
0003
0000
0001
0001
3001
1000
,
0010
0000
0000
0000
;

//---------------dance-single - ----------------
#NOTES:
     dance-single:
     :
     Challenge:
     13:
     :
0000
0000
0000
0000
,
0000
0000
0000
0000
,
0000
0000
0000
0000
,
0000
0000
0000
0000
,
0000
0000
0000
0000
,
0002
0010
0013
0000
2000
0100
3100
0000
,
0010
0000
0000
0001
0100
0000
0010
0000
1000
0000
0100
0000
1000
0000
0001
0000
,
0100
0001
0010
0100
0001
0100
1000
0010
,
0100
0000
1000
0000
0100
0000
0001
0000
1000
0010
1000
0010
0100
0000
0000
0000
,
0001
0000
0010
0000
1000
0000
0100
0000
0010
0000
0000
1000
0000
0100
0001
0100
,
0001
0000
0010
0000
0100
0000
1000
0000
0010
0000
0000
0100
0000
0000
0001
0000
,
1000
0000
0100
0000
0010
0000
0001
0000
0100
0000
0000
0001
0000
1000
0010
1000
,
0010
0000
0100
0000
0001
0000
1000
0000
0100
0010
0000
0010
0001
0000
1000
0000
,
0001
0000
0100
0000
0010
0000
1000
0000
0100
0000
0000
1000
0000
0010
0001
0010
,
0001
0000
0100
0000
0010
0000
1000
0000
0100
0000
0000
1000
0000
0000
0001
0000
,
1000
0000
0010
0000
0001
0000
0100
0000
0010
0000
0000
0100
0000
0001
1000
0001
,
1000
0000
0010
0000
0001
0000
0100
0000
0010
0000
0000
0100
0000
0000
0000
0000
,
0002
0010
0013
0000
0200
1000
1300
0000
,
0001
0000
0000
0100
0001
0000
0010
0000
0100
0000
1000
0000
0001
0000
1000
0000
,
0020
0000
1000
0000
1030
0000
0000
0000
0101
0000
0000
0100
0001
0000
0010
0000
,
0100
0000
0001
0000
0100
0000
1000
0000
0010
0100
0010
0100
0010
0000
1000
0000
,
0002
1000
1003
0000
0020
0100
0130
0000
,
0001
0000
0000
1000
0100
0000
1000
0000
0010
0000
0100
0000
0001
0000
1000
0000
,
0002
0010
0013
0000
2000
0100
3100
0000
,
0010
0000
0000
0001
0100
0000
0010
0000
1000
0000
0001
0100
0001
0000
1000
0000
,
0001
0100
0010
0100
1000
0100
0001
0100
,
0020
1000
1030
0001
0010
0100
1000
0000
,
1000
0000
0001
0100
0001
0000
0010
0000
0100
0000
0100
0000
1000
0000
0001
0000
,
0100
0010
1000
0001
0010
0100
1000
0000
,
0001
0000
0100
0010
0100
0000
0000
0000
0001
0000
1000
0000
0100
0000
0010
0000
,
0001
0100
1000
0100
0010
1000
0001
0000
,
0010
0100
0001
0100
0010
0001
1000
0010
,
0100
0000
0001
0000
0001
0000
1000
0000
0100
0010
0100
0010
0100
0000
1000
0000
,
0002
1000
1003
0000
0020
0100
0130
0000
,
0001
0000
0000
1000
0100
0000
0010
0000
0100
0000
0001
0000
0100
0000
1000
0000
,
0010
0100
1000
0100
0001
0010
0001
1000
,
0100
0000
0010
0000
0010
0000
0000
0000
0001
1000
0000
1000
0010
0000
0100
0000
,
0002
0010
0013
0000
2000
0010
3010
0000
,
1000
0000
0000
0100
0010
0000
0001
0000
0100
0000
1000
0000
0100
0000
0001
0000
,
0010
0100
1000
0010
1000
0001
0100
0010
,
1000
0000
0100
0000
1000
0000
0001
0000
0100
0010
0000
0100
0010
0000
1000
0000
,
0001
0000
0010
0000
1000
0000
0100
0000
1000
0000
0000
0001
0000
0010
0100
0010
,
0100
0000
0010
0000
0001
0000
1000
0000
0010
0000
0000
1000
0000
0000
0100
0000
,
0001
0000
0010
0000
0100
0000
1000
0000
0100
0000
0000
1000
0000
0010
0001
0010
,
0001
0000
0100
0000
0010
0000
1000
0000
0100
0000
0000
0001
0000
0000
0010
0000
,
0001
0000
1000
0000
0100
0000
0010
0000
0100
0000
0000
1000
0000
0001
0010
0001
,
0010
0000
1000
0000
0001
0000
0100
0000
0001
0000
0000
1000
0000
0000
0010
0000
,
0100
0000
1000
0000
0010
0000
0001
0000
0010
0000
0000
0100
0000
1000
0001
1000
,
0001
0000
0010
0000
1000
0000
0100
0000
1000
0001
0000
0001
0100
0000
0010
0000
,
2020
0000
0000
0000
0030
0000
0000
0000
3001
0100
0001
0100
0001
0100
0001
0100
,
0010
0000
0000
0000
;

//---------------dance-double - ----------------
#NOTES:
     dance-double:
     :
     Easy:
     5:
     :
00000000
00000000
00000000
00000000
,
00000000
00000000
00000000
00000000
,
00000000
00000000
00000000
00000000
,
00000000
00000000
00000000
00000000
,
00000000
00000000
00000000
00000000
,
00020000
00030000
00002000
00003000
,
00010000
00001000
01000000
00000000
,
00100000
10000000
00100000
01000000
,
00001000
00001000
00010000
00000000
,
00000010
00000010
00001000
00000000
,
00000100
00000100
00000010
00000000
,
00000001
00000001
00001000
00000000
,
00000001
00000001
00000100
00000000
,
00000010
00000010
00010000
00000000
,
01000000
01000000
10000000
00000000
,
00100000
00100000
10000000
00000000
,
00010000
10000000
01000000
00000000
,
00200000
00300000
00002000
00003000
,
00010000
00000010
00001000
00000000
,
00000100
00000100
00001000
00000001
,
00000100
00000010
00001000
00000000
,
00000200
00000300
00020000
00030000
,
00001000
00100000
01000000
00000000
,
20000000
30000000
00020000
00030000
,
10000000
00100000
01000000
00000000
,
00001000
00001000
00010000
00001000
,
00000100
00000001
00000010
00000000
,
00000001
00000100
00000001
00001000
,
00000020
00000000
00000000
00000030
,
00001000
00001000
00000100
00010000
,
00001000
01000000
01000000
00000000
,
00100000
00100000
10000000
10000000
,
00020000
00000000
00000000
00030000
,
00200000
00300000
02000000
03000000
,
00100000
00010000
10000000
00010000
,
00010000
01000000
00001000
00010000
,
00000010
00000100
00000001
00000000
,
00000020
00000030
00000200
00000300
,
00000010
00000001
00001000
00000100
,
00000100
00010000
00001000
00100000
,
01000000
01000000
01000000
00000000
,
10000000
00010000
00010000
00000000
,
01000000
00001000
00010000
00000000
,
00000100
00001000
00000001
00000000
,
00000010
00000001
00000100
00000000
,
00000001
00000010
00001000
00000000
,
00000100
00010000
00001000
00000000
,
00010000
00001000
00100000
00000000
,
00010000
00010000
10000000
00000000
,
02000000
00000000
03002000
00000000
,
00103000
00000000
00000000
00000000
;

//---------------dance-double - ----------------
#NOTES:
     dance-double:
     :
     Medium:
     8:
     :
00000000
00000000
00000000
00000000
,
00000000
00000000
00000000
00000000
,
00000000
00000000
00000000
00000000
,
00000000
00000000
00000000
00000000
,
00000000
00000000
00000000
00000000
,
00010000
00010000
00001000
00001000
,
00010000
00000000
00000010
00000000
00000100
00000000
00000001
00001000
,
00000001
00000000
00000010
00000100
00000010
00000000
00000001
00002000
,
00000000
00000200
00000000
00000000
00003300
00000000
00001001
00000000
,
00000010
00000100
00000010
00000000
00010010
00000000
00010010
00000000
,
00010000
00001000
00010000
00000000
01001000
00000000
01001000
00000000
,
01000000
00100000
01000000
00000000
01100000
00000000
01100000
00000000
,
00010000
10000000
00010000
00000000
00110000
00000000
00110000
00000000
,
00100000
01000000
10000000
00000000
11000000
00000000
11000000
00000000
,
10000000
00010000
01000000
00000000
01010000
00000000
01010000
00000000
,
00010000
00100000
00001000
00000000
00101000
00000000
00101000
00000000
,
00001000
00010000
00001000
00010000
00000010
00000000
00000000
00000000
,
00000001
00000001
00001000
00001000
,
00000010
00000000
00001000
00000001
00000200
00000000
00000300
00000000
,
00000010
00000000
00001000
00000000
00001100
00000000
00001000
00000100
,
00000010
00000000
00000001
00001000
00000020
00000000
00000030
00000000
,
00010000
00010000
00001000
00001000
,
00100000
00000000
00010000
10000000
02000000
00000000
03000000
00000000
,
10000000
10000000
00100000
00100000
,
01000000
00000000
00010000
00100000
00002000
00000000
00003000
00000000
,
00010100
00000000
00001100
00000000
00000010
00000001
00000010
00000100
,
00001000
00000000
00000001
00000200
00000000
00000000
00000300
00000000
,
00000020
00000000
00001030
00000000
00000100
00010000
00000000
00002000
,
00000000
00200000
00000000
00000000
00003000
00000000
00300000
00000000
,
01100000
00000000
10010000
00000000
00100000
01000000
00100000
01000000
,
00010000
00000000
10000000
02000000
00000000
00000000
03000000
00000000
,
00100000
00000000
00010000
10000000
00010000
00000000
01000000
00001000
,
00020000
00000000
00000000
00030000
,
00000100
00000100
00000010
00000010
,
00000100
00000000
00001000
00000001
00001000
00000000
00000010
00000000
,
00001000
00000000
00000001
00000010
00000001
00000000
00000100
00000010
,
00000000
00010000
00001000
00000000
01001000
00000000
00110000
00000000
,
01000000
01000000
10000000
10000000
,
00100000
00000000
10000000
00010000
10000000
00000000
01000000
00000000
,
00100000
00000000
00001000
00010000
00001000
00000000
00000100
00000002
,
00000000
00000020
00000000
00000000
00000000
00000000
00000033
00000000
,
00000100
00001000
00000100
00000000
00001100
00000000
00001100
00000000
,
00000010
00001000
00000010
00000000
00001010
00000000
00001010
00000000
,
00000001
00001000
00000001
00000000
00000011
00000000
00000011
00000000
,
00000100
00010000
00000100
00000000
00010100
00000000
00010100
00000000
,
00010000
00001000
00100000
00000000
01100000
00000000
01100000
00000000
,
00100000
00010000
01000000
00000000
01010000
00000000
01010000
00000000
,
00010000
10000000
00100000
00000000
10100000
00000000
10100000
00000000
,
10000000
00010000
10000000
00010000
01000000
00000000
01100000
00000000
,
02002000
00003000
00001000
00001000
,
03100000
00000000
00000000
00000000
;

//---------------dance-double - ----------------
#NOTES:
     dance-double:
     :
     Hard:
     10:
     :
00000000
00000000
00000000
00000000
,
00000000
00000000
00000000
00000000
,
00000000
00000000
00000000
00000000
,
00000000
00000000
00000000
00000000
,
00000000
00000000
00000000
00000000
,
00020000
00030010
00002000
00003001
,
00000010
00000000
00000000
00000001
00000100
00000000
00000010
00000000
00020000
00000000
00000000
00000000
00031000
00000000
01000000
00000000
,
00200000
00000000
10300000
01000000
10000000
00000000
00010000
01000000
,
00100000
00000000
01000000
00000000
00001000
00000000
00000000
00000000
00010000
00000010
00000000
00010000
00000010
00000000
00000000
00000000
,
00000100
00000000
00000010
00000000
00000100
00000000
00000001
00000000
00001000
00000000
00000000
00000010
00000000
00000000
00001000
00000000
,
00000100
00000000
00000010
00000000
00000001
00000000
00001000
00000000
00000010
00000000
00000000
00010000
00000000
00000000
00001000
00000000
,
00010000
00000000
00001000
00000000
01000000
00000000
00100000
00000000
10000000
00000000
00000000
01000000
00000000
00000000
00100000
00000000
,
00001000
00000000
00010000
00000000
00001000
00000000
01000000
00000000
00100000
00000000
00000000
10000000
00000000
00000000
00010000
00000000
,
00100000
00000000
00010000
00000000
00100000
00000000
00001000
00000000
00010000
00000000
00000000
00000010
00000000
00000000
00000100
00000000
,
00000010
00000000
00010000
00000000
00001000
00000000
00000100
00000000
00000001
00000000
00000000
00000010
00000000
00000000
00000001
00000000
,
00000100
00000000
00000010
00000000
00000100
00000000
00000010
00000000
00001000
00000000
00000000
00000100
00000000
00000000
00010000
00000000
,
00001000
00000000
00100000
00000000
00010000
00000000
10000000
00000000
01000000
00000000
00000000
01000000
00000000
00000000
00000000
00000000
,
00200000
00310000
20000000
30100000
,
01000000
00000000
00000000
00010000
00100000
00000000
00001000
00000000
00010000
00000000
00000000
00000000
00000010
00000000
00000000
00000000
,
00000200
00000000
00000301
00000000
00000011
00000000
00000001
00000100
,
00001000
00000100
00000001
00000010
00000100
00000000
00011000
00000000
,
02000000
03010000
00200000
00301000
,
01000000
00000000
00000000
00100000
10000000
00000000
00010000
00000000
01000000
00000000
00000000
00000000
00001000
00000000
00000000
00000000
,
00020000
00030100
00002000
00003010
,
00001000
00000000
00000000
00000100
00010000
00000000
00000010
00000000
00000200
00000000
00000000
00000000
00000301
00000000
00000000
00000000
,
00002001
00000000
00003020
00000000
00001030
00000100
00001000
00000010
,
00000100
00000001
00000010
00000002
00000000
00001000
00001003
00000000
,
00000020
00000000
00010030
00001000
00010000
02000000
00000000
23000000
,
00000000
30010000
01000000
00000000
00100000
10000000
00100000
00000000
,
02010000
00000000
03002000
00000000
00013000
00001000
00010000
01000000
,
00100000
01000000
10000000
00020000
00000000
01000000
01030000
00000000
,
00101000
00000000
00001000
00010000
00000020
00000000
00001030
00000001
,
00000100
00000000
00000010
00000000
00001000
00000000
00000001
00000000
00000010
00000000
00000000
00000001
00000000
00000000
00000100
00000000
,
00000020
00010030
00002000
00103000
,
01000000
00000000
00000000
10000000
00010000
00000000
10000000
00000000
00200000
00000000
00000000
00000000
01300000
00000000
00010000
00000000
,
20000000
00000000
31000000
00100000
00001000
00010000
00000010
00001000
,
00000100
00000000
00000010
00000000
00000001
00000000
00000000
00000000
00001000
00000000
00000000
00000010
00000000
00000000
00001000
00000000
,
00000002
00000013
00002000
01003000
,
10000000
00000000
00000000
00010000
01000000
00000000
00100000
00000000
20000000
00000000
00000000
00000000
31000000
00000000
00100000
00000000
,
00020000
00000000
00031000
00010000
00000010
00000100
00001000
00000100
,
00000001
00000000
00000010
00000000
00000001
00000000
00000000
00000000
00001000
00000010
00000000
00001000
00000010
00000000
00000100
00000000
,
00000001
00000000
00000010
00000000
00000100
00000000
00010000
00000000
00001000
00000000
00000000
01000000
00000000
00000000
00100000
00000000
,
01000000
00000000
10000000
00000000
01000000
00000000
00100000
00000000
10000000
00000000
00000000
00010000
00000000
00000000
00100000
00000000
,
00001000
00000000
00010000
00000000
00000010
00000000
00001000
00000000
00000100
00000000
00000000
00000010
00000000
00000000
00000001
00000000
,
00000100
00000000
00000010
00000000
00000100
00000000
00000001
00000000
00001000
00000000
00000000
00000100
00000000
00000000
00010000
00000000
,
00001000
00000000
00010000
00000000
00000100
00000000
00010000
00000000
01000000
00000000
00000000
00100000
00000000
00000000
00001000
00000000
,
00010000
00000000
00001000
00000000
01000000
00000000
00100000
00000000
10000000
00000000
00000000
01000000
00000000
00000000
00100000
00000000
,
00010000
00000000
10000000
00000000
00010000
00000000
00100000
00000000
01000000
00000000
00000000
10000000
00000000
00000000
00100000
00000000
,
01000000
00000000
00001000
00000000
00010000
00000000
00000010
00000000
00001000
00000000
00000000
00000100
00000000
00000000
00010000
00000000
,
00002020
00000000
00003000
00000000
00010000
00010000
00010030
00001000
,
00100000
00000000
00000000
00000000
;

//---------------dance-double - ----------------
#NOTES:
     dance-double:
     :
     Challenge:
     13:
     :
00000000
00000000
00000000
00000000
,
00000000
00000000
00000000
00000000
,
00000000
00000000
00000000
00000000
,
00000000
00000000
00000000
00000000
,
00000000
00000000
00000000
00000000
,
00020000
00100000
00130000
00000000
00002000
01000000
01003000
00000000
,
00100000
00000000
00000000
10000000
01000000
00000000
10000000
00000000
00100000
00000000
01000000
00000000
00010000
00000000
10000000
00000000
,
01000000
00100000
10000000
00100000
00001000
00010000
00000010
00000100
,
00001000
00000000
00000100
00000000
00000001
00000000
00000010
00000000
00000100
00001000
00000100
00001000
00000001
00000000
00000000
00000000
,
00000010
00000000
00000001
00000000
00000100
00000000
00001000
00000000
00000010
00000000
00000000
00010000
00000000
00001000
01000000
00001000
,
01000000
00000000
00100000
00000000
10000000
00000000
00010000
00000000
00100000
00000000
00000000
01000000
00000000
00000000
10000000
00000000
,
00010000
00000000
01000000
00000000
00001000
00000000
00100000
00000000
00001000
00000000
00000000
00010000
00000000
00000010
00000100
00000010
,
00000100
00000000
00000001
00000000
00000010
00000000
00000100
00000000
00010000
00000000
00000000
00001000
00000000
00000000
01000000
00000000
,
00100000
00000000
01000000
00000000
00001000
00000000
00010000
00000000
00000010
00000000
00000000
00010000
00000000
00000100
00001000
00000100
,
00001000
00000000
00000010
00000000
00010000
00000000
01000000
00000000
10000000
00000000
00000000
00010000
00000000
00000000
00100000
00000000
,
00001000
00000000
01000000
00000000
00100000
00000000
00010000
00000000
00100000
00000000
00000000
10000000
00000000
01000000
00010000
01000000
,
00010000
00000000
00100000
00000000
00001000
00000000
00010000
00000000
00000010
00000000
00000000
00000100
00000000
00000000
00000000
00000000
,
00000002
00000010
00000013
00000000
00002000
00000100
00003100
00000000
,
00000010
00000000
00000000
00001000
00000100
00000000
00010000
00000000
00001000
00000000
01000000
00000000
00001000
00000000
00010000
00000000
,
02000000
10000000
13000000
00000000
20010000
00010000
30010000
01000000
,
00100000
00001000
00100000
10000000
01000000
00100000
00010000
10000000
,
00200000
01000000
01300000
00000000
00002000
00010000
00013000
00000000
,
00010010
00000000
00000000
00000100
00000001
00000000
00000010
00000000
00001000
00000000
00000010
00000000
00000001
00000000
00000100
00000000
,
00000020
00010000
00010030
00000000
00000200
00010000
00010300
00000000
,
00011000
00000000
00000000
01000000
00100000
00000000
01000000
00000000
00001000
00010000
00001000
00010000
00001000
00010000
00001000
00000000
,
00000100
00000001
00000010
00000001
00001000
00000010
00000100
00010000
,
00000100
00000010
00001000
00000001
00000010
00000100
00010000
00000000
,
00001000
01000000
00001000
00010000
01000000
10000000
00100000
01000000
,
00100000
00000000
00001000
00000000
00000100
00000000
00000001
00000000
00000010
00000100
00000010
00000100
00000010
00000000
00000001
00000000
,
00001000
00000010
00010000
00000100
00000010
00001000
00000010
00000100
,
00000010
00000001
00001000
00000010
00010000
00001000
01000000
00000000
,
00200000
10000000
10300000
00010000
02000000
00001000
03001000
00000100
,
00000010
00000000
00001000
00000000
00001000
00000000
00000001
00000000
00000100
00000010
00000100
00000010
00000100
00000010
00000100
00000000
,
00000002
00000010
00000013
00000000
00002000
00000100
00003100
00000000
,
00010000
00000000
00000000
00001000
01000000
00000000
00100000
00000000
01000000
00000000
00010000
00000000
10000000
00000000
01000000
00000000
,
00001000
01000000
00100000
00010000
01000000
00010000
10000000
01000000
,
00100000
00000000
10000000
00000000
00100000
00000000
00010000
00000000
01000000
00001000
01000000
00001000
00000000
00010000
00000010
00000000
,
00000200
00000001
00000301
00000000
00000020
00001000
00001030
00000000
,
00000001
00000000
00000000
00001000
00000001
00000000
00000100
00000000
00000010
00000000
00010000
00000000
00001000
00000000
00100000
00000000
,
10000000
00100000
01000000
10000000
00010000
01000000
00100000
00001000
,
00100000
00000000
00010000
00000000
00100000
00000000
10000000
00000000
00010000
01000000
00010000
01000000
00010000
00000000
00100000
00000000
,
00001000
00000000
00010000
00000000
00000010
00000000
00000100
00000000
00000001
00000000
00000000
00000010
00000000
00001000
00000100
00001000
,
00000100
00000000
00000010
00000000
00000001
00000000
00000100
00000000
00000010
00000000
00000000
00010000
00000000
00000000
01000000
00000000
,
00100000
00000000
00001000
00000000
01000000
00000000
00010000
00000000
10000000
00000000
00000000
00100000
00000000
01000000
00010000
01000000
,
00010000
00000000
10000000
00000000
00100000
00000000
01000000
00000000
00001000
00000000
00000000
00010000
00000000
00000000
00000010
00000000
,
00000100
00000000
00000010
00000000
00010000
00000000
00001000
00000000
00010000
00000000
00000000
00000010
00000000
00001000
00000001
00001000
,
00000001
00000000
00000010
00000000
00000001
00000000
00000100
00000000
00000010
00000000
00000000
00001000
00000000
00000000
00100000
00000000
,
00010000
00000000
01000000
00000000
00100000
00000000
10000000
00000000
01000000
00000000
00000000
00010000
00000000
00000010
00001000
00000010
,
00001000
00000000
00000100
00000000
00010000
00000000
00000010
00000000
00000100
00000000
00000001
00000010
00000000
00000001
00001000
00000000
,
00020020
00000000
00000000
00000000
00000030
00000000
00000000
00000000
00031000
01000000
00001000
01000000
00001000
01000000
00001000
01000000
,
00100000
00000000
00000000
00000000
;

//---------------dance-couple - ----------------
#NOTES:
     dance-couple:
     :
     Medium:
     2:
     :
00000000
00000000
00000000
00000000
,
00000000
00000000
00000000
00000000
,
00000000
00000000
00000000
00000000
,
00000000
00000000
00000000
00000000
,
00000000
00000000
00000000
00000000
,
00000000
00000000
00000000
00000000
,
00000000
00000000
00000000
00000000
,
00000000
00000000
00000000
00000000
,
00000000
00000000
00000000
00000000
,
00011000
00000000
00010000
00000000
10000000
01000000
00010000
00000000
,
10001000
00000000
10000000
00000000
00010000
01000000
10000000
00000000
,
00101000
10010000
01000000
01000000
,
00001000
00100000
00000000
10010000
,
00010001
00000000
00000001
00000000
00001000
00000100
00000001
00000000
,
00011000
00000000
00001000
00000000
00000001
00000100
00001000
00000000
,
00010010
00001001
00000100
00000100
,
00010000
00000010
00000000
00001001
,
00001000
00000000
00000101
00000000
00000001
00000100
00000100
00000000
,
00000001
00000000
00000100
00000000
00001000
00000100
00000100
00000000
,
10000000
00000000
01010000
00000000
00010000
01000000
01000000
00000000
,
00010000
00000000
01000000
00000000
10000000
01000000
01000000
00000000
,
00000100
00000000
00000100
00000000
,
00001000
00000100
00001000
00000000
00000010
00000001
00000100
00000000
,
01000000
00000000
01000000
00000000
,
10000000
01000000
10000000
00000000
00100000
00010000
01000000
00000000
,
00011000
00000000
01000100
00000000
00100010
01000100
00100010
00000000
,
00011000
00000000
00011000
00011000
00000000
00000000
00000000
00000000
,
10000010
00000010
10000100
00000100
,
10000010
00001000
10000001
00000100
,
10000001
00000000
01000100
00000000
00100010
01000100
00100010
00000000
,
10000001
00000000
10000001
10000001
00000000
00000000
00000000
00000000
,
00100001
00100000
01000001
01000000
,
00100001
10000000
00010001
01000000
,
00000010
00001100
00000010
00000101
,
00000001
00000100
00000010
00000000
00001000
00000010
00000100
00000000
,
00100000
11000000
00100000
01010000
,
00010000
01000000
00100000
00000000
10000000
00100000
01000000
00000000
,
00001000
00000000
00001000
00000000
00001000
00000100
00000001
00000000
,
00001000
00000000
00001000
00000000
00000001
00000010
00001000
00000000
,
00010000
00000000
00010000
00000000
00010000
01000000
10000000
00000000
,
00010000
00000000
00010000
00000000
10000000
00100000
00010000
00000000
,
00010001
00000000
00000000
00000000
00010000
00000000
00000000
00000000
10000001
00000000
00000000
10000000
00000000
00000000
10000000
00000000
,
00100001
00000000
00000000
00000000
10000000
00000000
00000000
00000000
00010001
00000000
00000000
00010000
00000000
00000000
00010000
00000000
,
10000001
00000000
00000000
00000000
00000001
00000000
00000000
00000000
10001000
00000000
00000000
00001000
00000000
00000000
00001000
00000000
,
10000010
00000000
00000000
00000000
00001000
00000000
00000000
00000000
10000001
00000000
00000000
00000001
00000000
00000000
00000001
00000000
,
00010000
00000000
00000000
00000000
00010000
00000000
00000000
00000000
10000000
00000000
00000000
10000000
00000000
00000000
10000000
00000000
,
00000001
00000000
00000000
00000000
00000001
00000000
00000000
00000000
00001000
00000000
00000000
00001000
00000000
00000000
00001000
00000000
,
00100010
00000000
00000000
00000000
00010001
00000000
00000000
00000000
10001000
00000000
00000000
10001000
00000000
00000000
10001000
00000000
,
01000100
00000000
00000000
00000000
10001000
00000000
00000000
00000000
00010001
00000000
00000000
00010001
00000000
00000000
00010001
00000000
,
10011001
00000000
00000000
00000000
;
