#TITLE:PARANOiA Rebirth;
#SUBTITLE:(25th Anniversary Special);
#ARTIST:190';
#BANNER:PARANOiA Rebirth (25th Anniversary Special)-bn.png;
#BACKGROUND:PARANOiA Rebirth (25th Anniversary Special)-bg.png;
#JACKET:PARANOiA Rebirth (25th Anniversary Special)-jacket.png;
#MUSIC:PARANOiA Rebirth (25th Anniversary Special).ogg;
#SAMPLESTART:77.048;
#SAMPLELENGTH:20;
#DISPLAYBPM:190;
#BPMS:0=190.074,16=190.011;
#BGCHANGES:;

//---------------dance-single - ----------------
#NOTES:
     dance-single:
     :
     Challenge:
     13:
     :
0000
0000
0000
0000
,
0000
0000
0000
0000
,
0000
0000
0000
0000
,
0000
0000
0000
0000
,
0001
0010
1000
0100
0001
0000
1000
0000
,
0010
0100
0001
1000
0000
0100
0000
1000
,
0010
0100
0001
1000
0001
0000
0100
0000
,
0010
0000
1000
0100
1000
0000
0000
0000
0010
0000
0001
0100
0001
0000
1000
0000
,
0010
0100
1001
0100
0010
1000
0001
0000
,
0010
0100
1000
0010
1000
0001
0000
0100
,
0100
0010
1000
0001
0000
0010
0100
0000
,
1000
0010
0100
0001
0010
0100
1000
1100
,
0000
0101
1000
0001
0100
0010
1000
0000
,
0001
0000
0010
0000
1000
0000
0100
0010
0100
0000
1000
0000
0000
0000
0001
0000
,
0001
0100
0010
1000
0100
0010
0000
0001
,
0011
1100
0101
1010
,
0010
1001
0100
0010
1000
0100
0001
0000
,
0010
0001
0200
0000
0301
0010
0100
1000
,
0010
0100
0010
1000
0000
0001
0100
0000
,
0001
0010
1000
0100
1000
0001
0100
1010
,
0000
0000
0101
0000
1000
0000
0001
0000
0010
0000
0100
0000
1000
0000
0000
0001
,
0100
0000
0010
0000
2000
0000
0000
3001
0010
0000
0100
0000
2000
0000
0000
3010
,
1000
0100
0001
0100
1000
0010
0001
0010
,
1000
0100
1000
0100
0010
0001
0100
0010
,
0000
0110
0001
0100
0010
0100
1000
0100
,
0001
0100
1000
0100
0010
0100
0000
0101
,
0000
1100
0000
0001
0001
0000
1000
1000
,
0010
0001
0010
1000
0100
0010
0001
0100
,
0000
0110
1000
0010
0100
0010
0001
0010
,
1000
0010
0001
0010
1000
0100
0010
0001
,
0000
0011
0100
0010
0001
0010
1000
0001
,
1000
0000
0100
0000
0001
0000
0100
0000
1000
0000
0000
0000
0010
0100
0010
0100
,
0010
1000
0100
0001
0000
0010
0001
0100
,
0000
0001
0010
1000
0000
0100
0010
0001
,
1000
0010
0100
0001
0000
0010
0001
1000
,
0000
0100
0100
0100
0000
1000
0001
0100
,
0001
0010
0100
1000
0010
0100
0010
1000
,
0000
0001
0010
0100
0000
1000
0000
0001
,
1000
0010
0100
0001
0010
0001
1000
0001
,
0100
0010
0100
0010
0100
0000
0000
0000
0001
0000
1000
0100
1000
0000
0001
0000
,
1001
0000
0000
0000
1000
0100
0001
0010
,
0000
0000
0000
0000
2000
0010
3000
0000
0002
0100
0003
0000
2000
0010
3000
0000
,
0100
0001
0200
0000
0300
0000
0010
0000
1000
0001
2000
0000
3000
0000
0101
0000
,
0000
0001
2000
3010
2000
3001
0020
0130
,
2000
3010
0100
0010
0001
0010
1000
0010
,
0001
0010
1000
1100
0000
0101
0000
1100
,
0000
0001
0100
0010
0100
1000
0100
0001
,
0100
0010
1000
0001
0000
0010
0010
0010
,
0000
1001
0100
0001
0010
1000
0010
0100
,
0010
1000
0010
0011
0000
1010
0000
0011
,
0000
1000
0100
0001
0100
0010
0100
0001
,
0100
1000
0010
0100
0001
0010
0100
1000
,
0000
0001
0001
0001
0001
0000
0001
0000
,
1001
0010
0100
0010
1000
0100
0010
0001
,
0100
1000
0100
0002
0000
0000
1003
0000
,
0110
0001
0010
0100
1000
0010
0100
0001
,
0000
1000
1000
1000
1000
0000
1000
0000
,
1010
0001
0100
0010
0100
0001
0010
0100
,
1000
0000
0001
0000
1000
0000
0010
0100
0010
0000
1000
0000
0001
0000
0000
0000
,
0101
0000
0010
0000
0001
0000
1000
0100
1000
0000
0001
0000
0100
0000
0000
0000
,
0010
1000
0001
1000
0200
0000
0300
0000
,
0010
0010
0001
1000
0000
0001
0100
0000
,
0010
0000
1000
0002
0000
0013
0200
0000
,
1300
1000
0001
0100
0010
0100
0001
0000
,
1000
0100
0010
0001
0000
1000
0001
0000
,
0100
0100
0110
0000
1001
0000
0110
0000
,
1000
0010
1000
0001
0010
0100
1000
0000
,
0001
0001
0010
0001
1000
0010
0100
0000
,
0001
0001
0001
0100
1000
1000
1000
0000
,
0001
0010
0001
0100
0001
0010
0100
1000
,
0010
0001
0010
1000
0100
0010
0001
0000
,
1000
1000
0010
0100
0001
0010
0100
1000
,
0001
0200
0000
0000
0310
0000
1000
0000
0200
1000
0000
0000
0310
0000
0001
0000
,
1000
0010
0100
0010
1000
0001
0010
0100
,
1000
0010
0100
1000
0100
0001
0010
0100
,
1000
0010
0000
0000
0100
0001
0000
0000
1000
0100
0000
0000
0010
0001
0000
0000
,
1000
0001
0000
0000
0100
0010
0100
0000
1001
0000
0000
0000
0000
0000
0000
0000
;
