#VERSION:0.83;
#TITLE:Our Lips Are Sealed;
#SUBTITLE:;
#ARTIST:The Go-Go's;
#TITLETRANSLIT:;
#SUBTITLETRANSLIT:;
#ARTISTTRANSLIT:;
#GENRE:;
#ORIGIN:;
#CREDIT:;
#BANNER:Our Lips Are Sealed-bn.png;
#BACKGROUND:Our Lips Are Sealed-bg.png;
#PREVIEWVID:;
#JACKET:Our Lips Are Sealed-jacket.png;
#CDIMAGE:;
#DISCIMAGE:;
#LYRICSPATH:;
#CDTITLE:;
#MUSIC:Our Lips Are Sealed.ogg;
#OFFSET:0.000000;
#SAMPLESTART:28.820999;
#SAMPLELENGTH:20.000000;
#SELECTABLE:YES;
#DISPLAYBPM:124.000000:135.000000;
#BPMS:0.000=135.000,
12.000=134.000,
36.000=132.000,
60.000=131.000,
76.000=129.000,
84.000=131.310,
104.000=132.250,
112.000=131.131,
124.000=130.000,
128.000=128.000,
132.000=129.750,
144.000=131.300,
156.000=130.375,
160.000=125.000,
164.000=127.000,
172.000=126.000,
176.000=124.000,
184.000=125.300,
188.000=126.667,
204.000=133.333,
208.000=128.875,
212.000=130.010,
216.000=132.230,
224.000=131.188,
236.000=129.920,
248.000=129.131,
256.000=130.315,
264.000=129.778;
#STOPS:;
#DELAYS:;
#WARPS:;
#TIMESIGNATURES:0.000=4=4;
#TICKCOUNTS:0.000=4;
#COMBOS:0.000=1;
#SPEEDS:0.000=1.000=0.000=0;
#SCROLLS:0.000=1.000;
#FAKES:;
#LABELS:0.000=Song Start;
#BGCHANGES:;
#KEYSOUNDS:;
#ATTACKS:
;

//---------------dance-single - ----------------
#NOTEDATA:;
#CHARTNAME:;
#STEPSTYPE:dance-single;
#DESCRIPTION:;
#CHARTSTYLE:;
#DIFFICULTY:Hard;
#METER:12;
#RADARVALUES:0.473431,0.485267,0.105207,0.157810,0.022544,441.000000,427.000000,14.000000,21.000000,0.000000,0.000000,0.000000,0.000000,0.000000,0.473431,0.485267,0.105207,0.157810,0.022544,441.000000,427.000000,14.000000,21.000000,0.000000,0.000000,0.000000,0.000000,0.000000;
#CREDIT:;
#NOTES:
0000
0000
0000
0000
,
0000
0000
0000
0000
,
0000
0000
0000
0000
,
0000
0001
0010
1000
0001
0100
1000
0000
,
0010
1000
0001
0100
0000
0001
0010
1000
,
0100
0010
0001
1000
0000
0010
1000
0001
,
1000
1000
1000
1000
,
1000
0001
0010
1000
0001
0100
1000
0010
,
0000
0101
0000
1000
0100
0010
0001
0000
,
0100
0001
0100
0010
0000
1000
0001
0000
,
0010
0001
0100
0000
0001
0010
1000
0000
,
0010
1000
0100
0001
1000
0010
0001
0100
,
0000
1010
0000
0001
0000
0100
0010
2000
,
0000
3001
0010
0100
0000
1000
0001
1000
,
0010
0000
0010
0000
0100
0001
1000
0010
,
0100
0001
0100
0010
1000
0001
1000
0100
,
0220
0000
0330
0000
1000
0001
1000
0100
,
0010
0010
0010
0001
0100
0010
1000
0000
,
1010
0000
0100
0001
1000
0001
0010
0000
,
0100
0100
0100
0000
1000
0010
1000
0001
,
1000
0010
0001
0000
1000
0010
0001
0000
,
1000
0100
0001
0100
1000
0001
0001
0010
,
0100
1000
0010
0000
0100
0001
0010
0000
,
0100
0010
0100
0010
0100
1000
0001
0100
,
0010
1000
0001
0000
0010
0100
1000
0000
,
0001
0100
0001
0010
0000
0100
1000
0010
,
1000
0100
0001
0000
0010
0001
0100
0000
,
0001
1000
0100
0001
1000
0010
0001
0100
,
0010
1000
0100
0010
0000
0001
1000
0001
,
0010
0100
1001
0000
0100
0010
1000
0000
,
0001
0002
0000
1003
0002
0100
0103
0000
,
0010
1000
0010
0200
0000
0001
0301
1000
,
2200
0000
3300
0000
0100
1000
0001
0100
,
0010
0010
0010
1000
0001
1000
0100
0000
,
0011
0000
0100
0001
1000
0100
0010
0000
,
0001
0001
0001
0000
1000
0010
1000
0001
,
0100
0010
0100
0000
0100
0001
0100
0000
,
0010
1000
0010
0001
0010
1000
1000
0001
,
0100
0010
0100
0000
1000
0010
1000
0000
,
0100
1000
0100
0001
0100
1000
0010
0000
,
1001
0000
0010
1000
0100
1000
0001
0000
,
0000
0000
0100
1000
0010
1000
0001
0000
,
1000
0000
0001
0100
0001
0010
0100
1000
,
0000
0001
1000
0010
1000
0001
0010
0000
,
0100
0000
2000
0000
0000
3020
0000
1030
,
0100
0000
0020
0000
0000
0032
0000
1003
,
0001
0000
0200
0000
0000
0320
0000
0000
,
1030
0000
0100
0010
0001
1000
0001
0000
,
0110
0000
2000
0000
0000
3002
0000
0000
,
0023
0000
0000
0230
0000
0000
0300
0000
,
1100
0000
0001
0000
1000
0010
0000
1000
,
0001
0000
0000
0000
0100
0010
0100
0010
0100
0000
0001
0000
1000
0000
0100
0000
,
0010
0001
1000
0001
0100
0010
1000
0000
,
0001
1000
0001
0100
0010
1000
0001
0000
,
0010
1000
0100
0000
1000
0010
0001
0000
,
0100
0001
0010
1000
0001
0100
1000
0010
,
1000
0100
0001
0000
0010
0001
0010
0100
,
1000
0001
1000
0000
0101
0100
0010
0000
,
1010
0000
0001
0100
0010
1000
0001
0000
,
1000
0100
0010
0100
1000
0001
0100
0000
,
0220
0000
0330
0000
0010
1000
0010
0100
,
0001
0001
0001
0010
0100
1000
0010
0000
,
1001
0000
0100
0001
0010
0100
1000
0000
,
0010
0010
0010
0000
1000
0100
1000
0001
,
0010
1000
0010
0000
0010
0001
0010
0000
,
0010
1000
0010
0001
0100
0010
1000
0001
,
0100
0000
1000
0000
0100
0000
0000
0000
0100
0000
0001
0000
1000
0000
0001
0010
,
0001
0000
0100
0000
0010
0000
0000
0000
1000
0000
0001
0000
0010
0000
0100
1000
,
0100
0000
0010
0000
0100
0000
0000
0000
1000
0000
0001
0000
0010
0000
0100
1000
,
0100
0000
0001
0000
0100
0000
1000
0000
0010
0000
0100
0000
0001
0000
1000
0010
,
2000
0000
0000
0000
,
0000
0000
0000
3000
;

//---------------dance-single - ----------------
#NOTEDATA:;
#CHARTNAME:;
#STEPSTYPE:dance-single;
#DESCRIPTION:;
#CHARTSTYLE:;
#DIFFICULTY:Medium;
#METER:9;
#RADARVALUES:0.385401,0.425337,0.300591,0.225444,0.007515,359.000000,319.000000,40.000000,30.000000,0.000000,0.000000,0.000000,0.000000,0.000000,0.385401,0.425337,0.300591,0.225444,0.007515,359.000000,319.000000,40.000000,30.000000,0.000000,0.000000,0.000000,0.000000,0.000000;
#CREDIT:;
#DISPLAYBPM:124.000000:135.000000;
#NOTES:
0000
0000
0000
0000
,
0000
0000
0000
0000
,
0000
0000
0000
0000
,
0000
0001
1000
0001
1000
0001
0100
0000
,
0110
0000
0000
1000
0000
1000
0100
0000
,
0110
0000
0000
0001
0000
0001
0100
0000
,
1000
1000
1000
1000
,
0000
0001
1000
0001
1000
0001
0100
0000
,
0010
0000
1010
0000
0001
0100
1000
0000
,
0010
1000
0010
0100
0000
0000
0000
0000
,
0001
1000
0001
0000
0020
0000
0230
0000
,
1300
0100
1000
0001
0010
0100
1000
0000
,
0001
0000
0101
0000
0000
0010
1000
0100
,
0000
1000
0000
0001
0000
0001
0100
0000
,
0010
0000
0010
0000
0010
1000
0010
0000
,
1000
0000
0001
0010
0000
0001
0100
0000
,
2002
0000
3003
0000
0010
1000
0010
0100
,
0001
1000
0001
0000
0000
0000
0000
0000
,
0110
0000
0001
0100
0010
1000
0001
0000
,
1000
0100
0010
0000
0000
0001
1000
0001
,
0000
0101
1000
1100
,
0001
0000
0101
0000
1000
0010
0100
0001
,
0010
0011
0100
1100
,
0010
0000
1010
0000
0100
0001
1000
0000
,
0100
0000
0110
0000
0010
0001
1000
0000
,
0001
0100
0010
0000
0000
0000
0000
1000
,
0100
0010
0001
0000
0000
0000
0000
0000
,
0010
0001
0010
0100
1000
0001
0100
0000
,
0010
0000
1010
0000
0000
1000
0100
0001
,
0000
0010
0000
0001
0000
0001
0100
0000
,
0010
2000
0000
0000
3001
1000
0100
0000
,
0010
0001
0000
2000
0000
3001
0100
0000
,
0202
0000
0303
0000
0001
0010
0001
1000
,
0010
0100
0010
0000
0000
0000
0000
0000
,
1001
0000
0100
0001
0010
0100
1000
0000
,
0010
0100
0010
0000
0000
1000
0001
1000
,
0000
1100
0001
0101
,
1000
0000
1100
0000
0001
0010
0100
1000
,
0010
1010
0100
0101
,
0010
0000
0011
0000
0001
0100
1000
0000
,
1001
0000
0010
0000
1000
0100
0000
0100
,
0010
0000
0010
0001
0000
0001
1000
0000
,
0001
0100
0000
0010
1000
0000
0100
1000
,
0000
0001
0010
0000
0001
1000
0000
0010
,
0100
0000
0002
0000
0000
2003
0000
0000
,
3010
0000
0200
0000
0000
0302
0000
0000
,
1003
0000
0020
0000
0000
0230
0000
0000
,
0301
0000
0010
0001
0000
1000
0100
0000
,
0110
0000
0020
0000
0000
0032
0000
0000
,
2003
0000
0000
3020
0000
0000
0000
0130
,
0001
0000
2000
0000
0000
3200
0000
0310
,
0000
0000
0000
0000
0001
1000
0001
1000
0001
0000
0000
0000
1001
0000
0000
0000
,
0010
0000
0101
0000
1000
0001
0100
0000
,
0001
0010
0100
1000
0020
0000
0030
0000
,
0100
0001
1000
0000
0200
0000
0320
0000
,
0031
1000
0001
0100
0000
0010
1000
0001
,
0000
0011
0000
0000
0000
0100
1000
0001
,
0000
0101
0000
0000
0020
0000
0030
0000
,
2002
0000
3003
1000
0100
1000
0001
0000
,
0100
0001
0100
0001
0010
0100
1000
0000
,
2200
0000
3300
0000
0010
0100
0001
1000
,
0100
0010
0100
0000
0000
0000
0000
0000
,
0110
0000
1000
0001
1000
0010
0100
0000
,
0001
0010
0100
0000
0000
1000
0001
1000
,
0000
1010
0100
0101
,
0010
0000
0011
0000
1000
0001
0100
0010
,
1000
1100
0010
0011
,
0100
0000
0110
0000
0010
1000
0001
1000
,
0100
1001
0100
1001
,
0010
0000
0011
0000
1000
0001
0100
0020
,
2000
0000
0000
3030
;

//---------------dance-single - ----------------
#NOTEDATA:;
#CHARTNAME:;
#STEPSTYPE:dance-single;
#DESCRIPTION:;
#CHARTSTYLE:;
#DIFFICULTY:Easy;
#METER:7;
#RADARVALUES:0.250135,0.368224,0.135266,0.120237,0.000000,233.000000,215.000000,18.000000,16.000000,0.000000,0.000000,0.000000,0.000000,0.000000,0.250135,0.368224,0.135266,0.120237,0.000000,233.000000,215.000000,18.000000,16.000000,0.000000,0.000000,0.000000,0.000000,0.000000;
#CREDIT:;
#DISPLAYBPM:124.000000:135.000000;
#NOTES:
0000
0000
0000
0000
,
0000
0000
0000
0000
,
0000
0000
0000
0000
,
0000
0000
0000
0000
,
0001
0001
0001
0100
,
0001
0001
0001
0010
,
1000
1000
1000
1000
,
1000
0010
0100
0001
,
2002
0000
0000
3003
,
1000
0100
0001
0000
,
0010
0010
0001
0001
,
0100
0010
1000
0001
,
0220
0000
0000
0330
,
0001
0100
1000
0000
,
0010
0000
1000
0001
,
1000
1000
0100
0010
,
0022
0030
0100
0103
,
1000
0001
0100
0000
,
1010
0100
0010
0100
,
0001
1000
0010
0100
,
0001
0001
1000
1000
,
0001
0001
1000
0100
,
1000
1000
0001
0001
,
1000
0010
1000
0100
,
0220
0000
0000
0330
,
0010
0001
0100
0000
,
0010
1000
0100
0000
,
1000
0001
0100
0010
,
2002
0000
0000
3003
,
1000
0100
0010
0000
,
0001
0000
0001
1000
,
0001
0100
0010
1000
,
2200
0300
0010
3010
,
1000
0001
0100
0000
,
0101
1000
0001
1000
,
0010
0010
1000
0100
,
1000
1000
0001
0001
,
1000
1000
0010
0100
,
0001
0001
1000
1000
,
0001
1000
0001
0100
,
1001
0000
0100
0000
,
0010
0000
1000
0000
,
0100
0000
0010
0000
,
0001
0000
1000
0000
,
0000
0000
0010
0000
0000
0100
0000
0000
,
0000
0000
0001
0000
0000
1000
0000
0000
,
0000
0000
0100
0000
0000
0010
0000
0000
,
0002
0000
0000
0003
,
0000
0000
0010
0000
0000
0001
0000
0000
,
0100
0000
0000
0020
0000
0000
0000
0030
,
0000
0000
1001
0000
0001
1000
0000
0100
,
0000
1100
0101
1100
,
1001
0010
1000
0100
,
1000
0010
0100
0000
,
0001
0001
1000
1000
,
0001
0010
0001
0100
,
0110
1000
0010
1000
,
0100
0010
0001
0000
,
1000
0000
0001
1000
,
0010
0010
0100
0010
,
0220
0300
1000
1030
,
0001
0010
0100
0000
,
1001
0010
1000
0100
,
1000
1000
0001
1000
,
0001
0010
0001
0010
,
0100
1000
0100
1000
,
0010
0100
0010
0100
,
0001
1000
0001
1000
,
0001
0001
1000
1000
,
0001
0010
0001
0100
,
1001
0000
0000
0000
;

//---------------dance-single - ----------------
#NOTEDATA:;
#CHARTNAME:;
#STEPSTYPE:dance-single;
#DESCRIPTION:;
#CHARTSTYLE:;
#DIFFICULTY:Beginner;
#METER:3;
#RADARVALUES:0.141707,0.184112,0.105207,0.000000,0.000000,132.000000,118.000000,14.000000,0.000000,0.000000,0.000000,0.000000,0.000000,0.000000,0.141707,0.184112,0.105207,0.000000,0.000000,132.000000,118.000000,14.000000,0.000000,0.000000,0.000000,0.000000,0.000000,0.000000;
#CREDIT:;
#DISPLAYBPM:124.000000:135.000000;
#NOTES:
// measure 0
0000
0000
0000
0000
,  // measure 1
0000
0000
0000
0000
,  // measure 2
0000
0000
0000
0000
,  // measure 3
0000
0000
0000
0000
,  // measure 4
0001
0000
0010
0000
,  // measure 5
1000
0000
0100
0000
,  // measure 6
1000
0000
0000
0000
,  // measure 7
0001
0000
0100
0000
,  // measure 8
1001
0000
0000
0000
,  // measure 9
0010
0010
0000
0000
,  // measure 10
1000
0000
0001
0000
,  // measure 11
1000
1000
1000
0000
,  // measure 12
0110
0000
0000
0000
,  // measure 13
0001
0000
0000
0000
,  // measure 14
0100
0000
0010
0000
,  // measure 15
1000
0000
0001
0000
,  // measure 16
1001
0000
0010
0000
,  // measure 17
0100
0100
0000
0000
,  // measure 18
0110
0000
1000
0000
,  // measure 19
0001
0001
0000
0000
,  // measure 20
0010
0000
0010
0000
,  // measure 21
0010
0000
0010
0000
,  // measure 22
0100
0000
0100
0000
,  // measure 23
0100
0000
0100
0000
,  // measure 24
0110
0000
0000
0000
,  // measure 25
1000
1000
0000
0000
,  // measure 26
0001
0001
0000
0000
,  // measure 27
0010
0010
0010
0000
,  // measure 28
1001
0000
0000
0000
,  // measure 29
0100
0000
0000
0000
,  // measure 30
0010
0000
0100
0000
,  // measure 31
0001
0000
1000
0000
,  // measure 32
1001
0000
1000
0000
,  // measure 33
0100
0100
0000
0000
,  // measure 34
0110
0000
0010
0000
,  // measure 35
0001
0001
0000
0000
,  // measure 36
0100
0000
0100
0000
,  // measure 37
0100
0000
0100
0000
,  // measure 38
0010
0000
0010
0000
,  // measure 39
0010
0000
0010
0000
,  // measure 40
1001
0000
0000
0000
,  // measure 41
0100
0000
0000
0000
,  // measure 42
0010
0000
0000
0000
,  // measure 43
0100
0000
0000
0000
,  // measure 44
0001
0000
0000
0000
,  // measure 45
1000
0000
0000
0000
,  // measure 46
0001
0000
0000
0000
,  // measure 47
0100
0000
0000
0000
,  // measure 48
0110
0000
0000
0000
,  // measure 49
1000
0000
0000
0000
,  // measure 50
0010
0000
0000
0000
,  // measure 51
0110
0000
0000
0000
,  // measure 52
1000
0000
0001
0000
,  // measure 53
0010
0000
0100
0000
,  // measure 54
1000
0000
1000
0000
,  // measure 55
0010
0010
0010
0000
,  // measure 56
0100
0000
0001
0000
,  // measure 57
1000
0000
0010
0000
,  // measure 58
1000
0000
0001
0000
,  // measure 59
0100
0100
0100
0000
,  // measure 60
0110
0000
1000
0000
,  // measure 61
0010
0010
0000
0000
,  // measure 62
1001
0000
0001
0000
,  // measure 63
0100
0100
0000
0000
,  // measure 64
0010
0000
1000
0000
,  // measure 65
0010
0000
0100
0000
,  // measure 66
0001
0000
0010
0000
,  // measure 67
0001
0000
1000
0000
,  // measure 68
0010
0000
1000
0000
,  // measure 69
0010
0000
0100
0000
,  // measure 70
1001
0000
0000
0000
;
