#TITLE:Ottama getter;
#SUBTITLE:;
#ARTIST:BEMANI Sound Team "Ota Master";
#TITLETRANSLIT:;
#SUBTITLETRANSLIT:;
#ARTISTTRANSLIT:;
#GENRE:;
#CREDIT:;
#BANNER:Ottama getter-bn.png;
#BACKGROUND:Ottama getter-bg.png;
#LYRICSPATH:;
#CDTITLE:;
#MUSIC:Ottama getter.ogg;
#OFFSET:0.000000;
#SAMPLESTART:36.000000;
#SAMPLELENGTH:20.000000;
#SELECTABLE:YES;
#DISPLAYBPM:160.000000;
#BPMS:0.000000=160.000000
;
#STOPS:
;
#BGCHANGES:;
#KEYSOUNDS:;
#ATTACKS:;

//---------------dance-single - ----------------
#NOTES:
     dance-single:
     :
     Hard:
     16:
     0.818716,1.094194,0.266146,0.319375,0.829489,646.000000,616.000000,30.000000,36.000000,0.000000,0.000000,0.818716,1.094194,0.266146,0.319375,0.829489,646.000000,616.000000,30.000000,36.000000,0.000000,0.000000:
0000
0000
0000
0000
,
0000
0000
0000
0000
,
0000
0000
0000
0000
,
0000
0000
0000
0000
,
2100
0000
0000
0000
0001
0000
0000
0000
0100
0000
0000
0000
3001
0000
0000
1000
,
0020
0100
1000
0230
,
0302
0010
2003
3100
,
0021
0000
0000
1000
0000
0000
0001
0000
0001
0000
0000
0000
0130
0000
0000
0000
,
0210
0000
0000
0000
1000
0000
0000
0000
0001
0000
0000
0000
1300
0000
0000
0010
,
0200
1000
0010
0302
,
0013
0000
0100
0000
1000
0001
0000
0000
0100
0000
0010
1000
0000
1000
0000
1000
,
0002
0000
0000
0010
0000
0000
0010
0000
0000
1003
0100
0010
,
0001
0000
0100
0001
0101
0000
1100
0000
,
0101
0000
0000
0000
0010
0000
1000
0000
0100
0000
1000
0010
1000
0000
0001
0010
,
0001
0000
0100
0010
1010
0000
0011
0000
,
1010
0000
0001
0000
1000
0000
0001
0000
0010
0000
0100
0000
1000
0010
1000
0000
,
1001
0000
0000
0000
0010
1000
0010
0000
0110
0000
0000
0000
0101
0000
0000
0000
,
0011
0000
0000
0000
0001
1000
0001
0000
0110
0000
0000
0000
1010
0000
1000
0100
,
1000
0000
0000
0000
0001
0010
0001
0000
1001
0000
0000
0000
0100
0010
0100
0000
,
0001
0000
0010
0000
1000
0000
0010
0000
0001
0000
1000
0100
1000
0000
0001
0000
,
0100
0001
0100
1000
0100
0010
0100
1000
,
0100
0000
0001
0000
0010
0000
1000
0000
0010
0000
0001
0100
0001
0000
1000
0000
,
0010
1000
0010
0000
0100
0000
0001
0000
0010
0000
1000
0000
0010
0000
0100
0000
,
0010
0001
0010
0001
1000
0001
1000
0001
1000
0010
0100
0010
1000
0000
0000
0000
,
2100
0000
0000
0000
3001
0010
0100
0010
0001
1000
0001
0000
0100
0010
1000
0010
,
0100
0000
0001
0010
0001
0000
1000
0010
1000
0000
0001
0010
0100
0000
1000
0000
,
1001
0000
0000
0000
0001
0000
0010
0001
0100
0000
0010
1000
0100
0000
1000
0001
,
0100
0000
0010
1000
0001
0000
0010
0001
0100
0010
1000
0001
0200
0000
0300
0000
,
0110
0000
0000
0000
0001
1000
0010
1000
0100
0010
0001
0100
0010
0000
1000
0001
,
0100
0000
0001
0000
0010
0100
1000
0010
0100
0000
0001
1000
0001
0000
0100
0000
,
1010
0000
0000
0000
0001
0000
0010
0001
1000
0000
0100
0010
0001
0000
1000
0001
,
0100
0000
0010
1000
0001
0000
0010
0001
0010
0100
1000
0000
0002
0000
0000
0000
,
0013
0001
0100
0000
0001
1000
0100
0000
1000
0010
0100
0010
1000
0001
0100
0000
,
0001
0000
0010
0001
1000
0000
0010
1000
0100
0010
0100
1000
0001
0000
0100
0000
,
0011
0000
0000
0000
1000
0100
0010
0001
0100
0000
0010
0000
1000
0001
1000
0100
,
0010
0000
0001
0000
0100
0000
0001
0000
1000
0100
1000
0001
0020
0000
0000
0000
,
0130
1000
0001
0000
0100
0010
1000
0000
0001
0010
0001
0000
1000
0100
0010
0000
,
0001
0000
0100
0001
1000
0000
0010
1000
0100
0000
0010
0001
1000
0000
0010
0000
,
0101
0000
0000
0000
0010
0000
0100
0010
0100
0000
0001
0010
0100
0000
1000
0001
,
0010
0000
0100
1000
0001
0000
0100
0010
0100
0001
0010
0100
1000
0000
0001
0000
,
0100
0000
0000
0000
0000
0002
0000
0000
0003
0000
0000
2000
,
0000
3000
0002
0003
,
0000
0000
0000
0100
0000
0000
0000
0000
0000
0000
0000
0000
0000
0000
0000
0010
0000
0000
0000
1000
0000
0000
0000
0010
0000
0000
0000
1000
0000
0000
0000
0000
0000
0000
0000
0000
0000
0000
0000
0001
0000
0000
0000
0010
0000
0000
0000
0100
,
0000
0000
0000
0000
0000
0000
0000
0000
0000
0000
0000
0000
1000
0000
0000
0000
0000
0000
0000
0000
0000
0000
0000
0000
0000
0000
0000
0000
0001
0000
0000
0000
0000
0000
0000
0000
0000
0000
0000
0000
0000
0000
0000
0000
1000
0000
0000
0000
0000
0000
0000
0000
0000
0000
0000
0000
0000
0000
0000
0000
0001
0000
0000
0000
0000
0000
0000
0000
0000
0000
0000
0000
0000
0000
0000
0000
1000
0000
0000
0000
0000
0000
0000
0000
0000
0000
0000
0000
0000
0000
0000
0000
0001
0000
0000
0000
0000
0000
0000
0000
0000
0000
0000
0000
0000
0000
0000
0000
1000
0000
0000
0000
0000
0000
0000
0000
0000
0000
0000
0000
0000
0000
0000
0000
0001
0000
0000
0000
0000
0000
0000
0000
0000
0000
0000
0000
0000
0000
0000
0000
1000
0000
0000
0000
0000
0000
0000
0000
0000
0000
0000
0000
0000
0000
0000
0000
0100
0000
0000
0000
0000
0000
0000
0000
0000
0000
0000
0000
0000
0000
0000
0000
0000
0000
0010
0000
0000
0000
0000
0000
0000
0000
0000
0000
0000
0000
0000
0000
0000
0000
0000
0000
,
0000
0000
0002
0003
,
2000
0000
0000
3000
0000
0000
0002
0000
0000
0003
0000
0200
,
0000
0000
0000
0000
0000
0000
0310
0000
1000
0000
0010
0000
2000
0000
0000
0100
0000
0000
3002
0000
0000
0100
0000
0000
,
2003
0000
0000
0000
0000
0000
0010
0000
0010
0000
0000
0010
3000
0000
0000
0000
,
0110
0000
0000
0000
0001
0000
0000
0000
1010
0000
0001
0100
0001
0000
1000
0100
,
2000
0000
0000
0000
3001
0000
0000
0000
0011
0000
0001
1000
0001
0000
0100
0000
,
0020
0000
2030
0000
3100
0000
0010
0000
0001
0000
1000
0001
1000
0000
0100
0010
,
0001
0000
0100
0001
0010
0000
0100
0000
1000
0000
0001
0010
0100
0000
0000
0000
,
1000
1000
0001
0001
0100
0100
0010
0010
,
1000
1000
0100
0100
0010
0010
0001
0001
,
0110
1000
0100
0010
1001
0001
0100
0010
,
1000
0100
1000
0100
0010
0100
0010
0100
0010
0001
0010
0001
1000
0000
0101
0000
,
0000
2200
0300
3001
,
1000
0100
0010
0001
0100
0010
0100
0001
1000
0000
0001
0010
0001
0000
1000
0100
,
1000
0000
0010
0100
0001
0000
0010
0100
1000
0000
0001
0100
0001
0000
0010
0000
,
1001
0000
0000
0000
0010
0000
1000
0001
1000
0000
0100
0010
0001
0000
1000
0001
,
0100
0000
0001
0000
0010
0100
1000
0001
0100
0000
0001
0010
0002
0000
0000
0000
,
0013
0100
0010
0000
0001
1000
0100
0000
1000
0010
0100
0001
1000
0000
0100
1000
,
0010
0000
0100
0001
0010
0000
0000
0000
0001
0000
1000
0100
1000
0000
0001
0000
,
0010
0001
0010
0000
0001
1000
0001
0000
1000
0100
1000
0000
0100
0010
0100
0000
,
1000
0001
1000
0000
0010
0100
0010
0000
1000
0100
0010
0001
0200
0000
0000
0000
,
0301
0000
0100
0001
0020
0000
0000
0000
0130
1000
0100
1000
0001
0000
0100
0000
,
0001
0010
0001
0000
1000
0010
1000
0000
0001
0100
0010
1000
0100
0000
0010
0000
,
0001
1000
0001
0000
1000
0100
1000
0000
0010
0100
0010
0000
0100
0001
0010
0000
,
0100
1000
0001
0000
1000
0010
1000
0000
0001
1000
0010
1000
0001
0000
0100
0000
,
0002
0000
0000
0000
1003
0000
0100
0010
0001
0000
0100
0001
1000
0000
0010
1000
,
0200
0000
0000
0000
0310
0000
0100
0000
1000
0000
0001
0100
0001
0000
0010
0000
,
1000
0010
0001
0100
0001
1000
0001
1000
0100
1000
0100
1000
0001
1000
0010
1000
,
0100
0001
0100
1000
0100
0010
0100
0010
0001
1000
0010
0100
0001
0010
0100
2000
,
0002
0000
0000
0000
,
0000
0000
0000
3003
;

//---------------dance-single - ----------------
#NOTES:
     dance-single:
     :
     Medium:
     12:
     0.569046,0.596833,0.212917,0.301632,0.226224,449.000000,425.000000,24.000000,34.000000,0.000000,0.000000,0.569046,0.596833,0.212917,0.301632,0.226224,449.000000,425.000000,24.000000,34.000000,0.000000,0.000000:
0000
0000
0000
0000
,
0000
0000
0000
0000
,
0000
0000
0000
0000
,
0000
0000
0000
0000
,
2100
0001
0100
3001
,
0012
0100
0010
2003
,
3020
0230
0302
0013
,
2000
0000
0000
0001
0000
0000
0100
0000
0100
0000
0000
0000
3001
0000
0000
0000
,
0201
0001
1000
0301
,
1020
0100
0001
0230
,
0301
0000
0010
0000
0001
0000
0000
0000
1000
0000
0000
0010
0000
0000
1000
0000
,
0200
0000
0000
0000
0000
0000
0000
0000
0000
1300
0001
1000
,
0001
0000
0010
0100
1000
0000
1001
0000
,
0110
0000
0001
0010
0001
0000
1000
0010
,
0100
0000
0001
0010
0001
0000
1100
0000
,
0101
0000
0010
1000
0010
0100
0001
1000
,
0100
0000
0010
0001
1000
0000
1010
0000
,
0011
0000
0100
1000
0010
0000
0100
0001
,
1000
0000
0001
0010
0001
0000
0010
0100
,
1000
0001
1000
0010
1000
0001
1000
0010
,
0200
0000
0001
0000
1000
0000
0301
0100
,
0020
0000
1000
0000
0130
0001
2000
0000
,
3001
0010
0001
0010
0100
1000
0100
1000
,
0010
1000
0001
1000
0010
1000
0001
0000
,
0101
0000
0000
0000
0001
0000
0000
0001
0010
0000
0000
0010
0100
0000
1000
0000
,
0001
0000
0100
0000
0010
0000
0000
0000
0110
0000
0000
0010
1000
0000
0001
0000
,
0100
0000
0001
0010
1000
0010
0001
0010
,
1000
0010
0001
0100
0010
1000
0100
0000
,
1100
0000
0000
0000
1000
0000
0000
1000
0001
0000
0000
0001
0100
0000
0010
0000
,
1000
0000
0100
0000
0010
0000
0000
0000
0011
0000
0000
0001
1000
0000
0001
0000
,
0100
0000
0001
0010
1000
0010
0100
0010
,
1000
0010
0001
0100
0010
1000
0100
0000
,
1000
0000
0010
0000
0001
0000
0010
0000
1000
0000
0000
0001
0100
0000
0010
0000
,
1000
0000
0000
1000
0100
0000
0000
0100
0010
0000
0000
0010
0001
0000
1000
0000
,
0001
0000
0000
0000
0100
0000
0001
0000
0010
0000
0000
0001
1000
0000
0001
0000
,
0100
0010
1000
0010
0100
0001
0010
0000
,
0100
0000
1000
0000
0001
0000
0000
0000
1010
0000
0000
0001
1000
0000
0010
0000
,
0100
0000
0000
0000
1001
0000
0000
0000
0101
0000
0000
1000
0010
0000
0100
0000
,
0001
0000
1000
0100
0001
0100
0010
0100
,
0001
0100
1000
0010
0001
0010
1000
0100
,
0000
0000
0000
0000
0000
0000
0000
0000
0000
0000
0002
0000
0000
0000
0000
0000
0000
0003
0000
0000
0000
0000
2000
0000
,
0000
3000
0002
0003
,
0000
0200
0000
0000
0000
0010
0000
0000
0000
0010
0000
0000
0000
0010
0000
0000
,
0000
0000
0000
0000
0000
0000
0000
0000
0000
0000
0000
0000
0010
0000
0000
0000
0000
0000
0000
0000
0000
0000
0000
0000
0000
0000
0000
0000
0000
0000
0000
0000
0000
0000
0000
0000
0000
0000
0000
0000
0000
0000
0000
0000
0000
0000
0000
0000
0000
0000
0000
0000
0000
0000
0000
0000
0000
0000
0000
0000
0310
0000
0000
0000
0000
0000
0000
0000
0000
0000
0000
0000
0000
0000
0000
0000
0000
0000
0000
0000
0000
0000
0000
0000
0000
0000
0000
0000
0000
0000
0000
0000
0000
0000
0000
0000
0000
0000
0000
0000
0000
0000
0000
0000
0000
0000
0000
0000
0010
0000
0000
0000
0000
0000
0000
0000
0000
0000
0000
0000
0000
0000
0000
0000
1000
0000
0000
0000
0000
0000
0000
0000
0000
0000
0000
0000
0000
0000
0000
0000
0010
0000
0000
0000
0000
0000
0000
0000
0000
0000
0000
0000
0000
0000
0000
0000
1000
0000
0000
0000
0000
0000
0000
0000
0000
0000
0000
0000
0000
0000
0000
0000
0000
0000
0001
0000
0000
0000
0000
0000
0000
0000
0000
0000
0000
0000
0000
0000
0000
0000
0000
0000
,
0000
0000
0200
0300
,
0020
0000
0000
0030
0000
0000
0200
0000
0000
0300
0000
0002
,
0000
0000
0000
1003
0100
1000
0200
0000
0000
0320
0000
0000
,
0032
0000
0000
0003
,
0110
0000
0000
0000
0001
0000
0000
0000
2010
0000
0000
0000
3100
0000
0000
1000
,
0002
0000
0103
0000
1002
0000
0013
0001
,
2000
0000
3010
1000
0010
0100
0001
1000
,
0100
0010
0100
0001
0100
1000
0001
0000
,
0010
0001
1000
0001
0100
0010
1000
0001
,
0010
0100
0010
0001
1000
0100
0010
0000
,
0001
1000
0001
0100
0010
1000
0001
0000
,
1000
0001
1000
0100
0010
0001
0100
0100
,
0000
0202
0300
1003
,
1001
0000
0000
1000
0100
0000
0000
0100
0010
0000
0000
0010
0001
0000
0100
0000
,
0010
0000
1000
0000
0010
0000
0100
0000
0001
0000
0000
0001
1000
0000
0100
0000
,
0010
0000
0001
0100
1000
0100
0001
0010
,
1000
0010
0001
0100
0010
0100
0001
1000
,
0100
0000
0000
0100
0010
0000
0000
0010
0001
0000
0000
0001
1000
0000
0010
0000
,
0100
0000
0000
0000
0101
0000
0000
0000
1100
0000
0000
0001
0010
0000
0100
0000
,
1000
0010
1000
0001
1000
0010
1000
0001
,
0010
1000
0010
0001
0100
0010
2000
0000
,
3001
0000
0000
0001
1000
0000
0000
1000
0100
0000
0000
0100
0010
0000
0001
0000
,
0100
0000
0000
0000
0001
0000
0010
0000
0001
0000
0000
1000
0010
0000
0100
0000
,
0001
0000
0010
0000
0001
0000
0100
0000
0001
0000
0000
1000
0100
0000
0010
0000
,
0001
0000
0000
0000
1000
0000
0010
0000
1000
0000
0001
0100
0001
0000
0000
0000
,
0010
0000
0001
0000
0010
0000
0100
0000
1000
0000
0000
0001
0100
0000
0010
0000
,
1000
0000
0000
0000
0100
0000
0010
0000
0001
0000
1000
0001
1000
0000
0000
0000
,
0001
0010
1000
0010
0001
0100
1000
0100
,
0001
0000
0010
0000
0100
0000
1000
0000
0010
0000
0100
0000
0001
0000
0010
0200
,
0020
0000
0000
0000
,
0000
0000
0000
0330
;

//---------------dance-single - ----------------
#NOTES:
     dance-single:
     :
     Easy:
     8:
     0.381476,0.530518,0.292761,0.558907,0.022179,301.000000,268.000000,33.000000,63.000000,0.000000,0.000000,0.381476,0.530518,0.292761,0.558907,0.022179,301.000000,268.000000,33.000000,63.000000,0.000000,0.000000:
0000
0000
0000
0000
,
0000
0000
0000
0000
,
0000
0000
0000
0000
,
0000
0000
0000
0000
,
2000
0000
0100
0000
,
0001
0000
3010
2000
,
3200
0320
0032
0003
,
0020
0000
0100
0030
,
2000
0000
0010
0000
,
0001
0000
3100
0002
,
2003
3020
0230
0300
,
0002
0000
0003
0101
,
1100
0001
0010
1000
,
0100
0100
0010
0001
,
1000
1000
0010
0100
,
0001
0010
1000
0100
,
1001
0100
0001
0010
,
0110
1000
0100
0001
,
0011
1000
1010
0001
,
0100
0001
0010
1000
,
0002
0010
0010
0013
,
2000
0010
0010
3020
,
2030
3200
0320
0031
,
0200
0302
0010
1003
,
1001
0010
0001
0100
,
0010
0000
1000
0000
0100
0000
1000
0001
,
1000
0002
0023
0230
,
2300
0000
3002
0000
1003
0010
1000
0000
,
0101
1000
0100
0010
,
0001
0000
1000
0000
0001
0000
0100
0010
,
0100
0002
2003
3002
,
0203
0000
0320
0000
1030
0100
1000
0000
,
1100
0001
0010
1000
,
0100
0000
1000
0000
0010
0000
0100
0001
,
0100
0000
0011
0000
1010
0000
0001
1000
,
0001
0000
0100
0000
0010
1000
0010
0000
,
1000
0100
1000
0000
0001
0000
0001
0000
,
0010
0000
0100
0000
1000
0000
0010
0100
,
0010
2000
3002
0023
,
0032
0000
2003
0000
3001
0100
0001
0100
,
0000
0000
0000
0000
0000
0020
0000
0000
0030
0000
0000
0020
,
0000
0030
0020
0030
,
0000
0200
0000
0000
0000
0000
0000
0000
0000
0000
0000
0000
0000
0000
0000
0000
,
0000
0000
0000
0000
0000
0000
0000
0000
0000
0000
0000
0000
0000
0310
0000
0000
,
0000
0000
2000
3000
,
2000
0000
0000
3000
0000
0000
2000
0000
0000
3000
0000
0002
,
0000
0000
0000
0000
,
0203
0000
0000
0300
,
0110
0001
2010
3001
,
1200
1300
0012
0103
,
0001
2000
0010
0000
0001
0000
0010
0000
,
3200
1000
0001
1300
,
0001
0100
0001
0000
2001
0000
3010
0000
,
0120
0130
0102
0013
,
1000
0002
0100
0000
0010
0000
0103
0000
,
2000
0000
0010
0000
0001
0000
3100
0100
,
0000
2200
0300
3001
,
1001
0000
0100
0000
0001
0000
0100
0010
,
1000
0000
0001
0000
0010
0000
0001
0100
,
0001
1010
1100
0011
,
0101
0000
1100
0000
0001
1000
0010
0000
,
0110
0000
1000
0000
0001
0000
0010
0001
,
0100
0000
0010
0000
1000
0000
0001
0100
,
0010
0000
1000
0000
0010
0000
1000
0100
,
0010
0000
0001
0000
1000
0001
0100
0000
,
0101
0000
0011
0000
1100
0000
0001
0010
,
0100
0000
1001
0000
0010
1000
0100
0000
,
1000
0000
0001
0000
1000
0000
0010
1000
,
0001
0000
0010
0000
0100
1000
0001
0000
,
0200
0010
1000
0310
,
0002
0010
1000
0203
,
0320
2030
3002
0013
,
0011
0000
1010
0000
0011
0000
1000
0001
,
0200
0000
0000
0000
,
0000
0000
0000
0300
;

//---------------dance-single - ----------------
#NOTES:
     dance-single:
     :
     Beginner:
     4:
     0.183768,0.291430,0.070972,0.141945,0.000000,145.000000,137.000000,8.000000,16.000000,0.000000,0.000000,0.183768,0.291430,0.070972,0.141945,0.000000,145.000000,137.000000,8.000000,16.000000,0.000000,0.000000:
// measure 0
0000
0000
0000
0000
,  // measure 1
0000
0000
0000
0000
,  // measure 2
0000
0000
0000
0000
,  // measure 3
0000
0000
0000
0000
,  // measure 4
2000
0000
0000
0000
,  // measure 5
0000
3000
0000
0001
,  // measure 6
0001
0001
0001
0000
,  // measure 7
0200
0000
0300
0000
,  // measure 8
0002
0000
0000
0000
,  // measure 9
0000
0003
0000
1000
,  // measure 10
1000
1000
1000
0000
,  // measure 11
0020
0000
0030
0000
,  // measure 12
0110
0000
0001
0000
,  // measure 13
0110
0000
1000
0000
,  // measure 14
0110
0000
0001
0000
,  // measure 15
0100
0100
0100
0000
,  // measure 16
1001
0000
0100
0000
,  // measure 17
1001
0000
0010
0000
,  // measure 18
1001
0000
0100
0000
,  // measure 19
0001
0001
0001
0000
,  // measure 20
0020
0000
0000
0000
,  // measure 21
0000
0030
0000
0100
,  // measure 22
0100
0100
0100
0000
,  // measure 23
2000
0000
3000
0000
,  // measure 24
0001
0001
0001
0000
,  // measure 25
1000
1000
1000
0000
,  // measure 26
0010
0000
0100
0000
,  // measure 27
0010
0000
0100
0000
,  // measure 28
0001
0001
0001
0000
,  // measure 29
0010
0010
0010
0000
,  // measure 30
0001
0000
1000
0000
,  // measure 31
0010
0000
1000
0000
,  // measure 32
0100
0100
0100
0000
,  // measure 33
0010
0010
0010
0000
,  // measure 34
0001
0000
1000
0000
,  // measure 35
0001
0000
1000
0000
,  // measure 36
0010
0010
0010
0000
,  // measure 37
1000
1000
1000
0000
,  // measure 38
0100
0000
0010
0000
,  // measure 39
0001
0000
0100
0000
,  // measure 40
0000
0000
0000
0000
,  // measure 41
0000
0000
0000
0000
,  // measure 42
0002
0000
0000
0000
,  // measure 43
0000
0000
0000
0003
,  // measure 44
0000
0000
0000
0000
,  // measure 45
0000
0000
0000
0000
,  // measure 46
2000
0000
3000
0000
,  // measure 47
0020
0000
0030
0000
,  // measure 48
1001
0000
1000
0000
,  // measure 49
0100
0000
0010
0000
,  // measure 50
0002
0000
0003
0000
,  // measure 51
0200
0000
0300
0000
,  // measure 52
0010
0000
1000
0000
,  // measure 53
0100
0000
1000
0000
,  // measure 54
0020
0000
0030
0000
,  // measure 55
0200
0000
0000
0300
,  // measure 56
0000
0000
0000
0000
,  // measure 57
0001
0001
0001
0001
,  // measure 58
0001
0001
0001
0000
,  // measure 59
0110
0000
1000
0000
,  // measure 60
0100
0100
0100
0000
,  // measure 61
1000
1000
1000
1000
,  // measure 62
1000
1000
1000
0000
,  // measure 63
0010
0010
0010
0000
,  // measure 64
0100
0100
0100
0000
,  // measure 65
0001
0001
0001
0001
,  // measure 66
0001
0001
0001
0000
,  // measure 67
1000
1000
1000
0000
,  // measure 68
0100
0100
0100
0000
,  // measure 69
0020
0000
0030
0000
,  // measure 70
0002
0003
0000
1000
,  // measure 71
1000
1000
1000
0000
,  // measure 72
0020
0000
0030
0000
,  // measure 73
1000
0000
0000
0000
;
