#VERSION:0.83;
#TITLE:Orbital Velocity;
#SUBTITLE:;
#ARTIST:Jimmy Weckl;
#TITLETRANSLIT:;
#SUBTITLETRANSLIT:;
#ARTISTTRANSLIT:;
#GENRE:;
#ORIGIN:;
#CREDIT:;
#BANNER:Orbital Velocity-bn.png;
#BACKGROUND:Orbital Velocity-bg.png;
#PREVIEWVID:;
#JACKET:Orbital Velocity-jacket.png;
#CDIMAGE:;
#DISCIMAGE:;
#LYRICSPATH:;
#CDTITLE:;
#MUSIC:Orbital Velocity.ogg;
#OFFSET:0.000000;
#SAMPLESTART:21.273001;
#SAMPLELENGTH:20.000000;
#SELECTABLE:YES;
#DISPLAYBPM:110.000000;
#BPMS:0.000=110.000;
#STOPS:;
#DELAYS:;
#WARPS:;
#TIMESIGNATURES:0.000=3=4;
#TICKCOUNTS:0.000=4;
#COMBOS:0.000=1;
#SPEEDS:0.000=1.000=0.000=0;
#SCROLLS:0.000=1.000;
#FAKES:;
#LABELS:0.000=Song Start;
#BGCHANGES:;
#KEYSOUNDS:;
#ATTACKS:
;

//---------------dance-single - ----------------
#NOTEDATA:;
#CHARTNAME:;
#STEPSTYPE:dance-single;
#DESCRIPTION:;
#CHARTSTYLE:;
#DIFFICULTY:Hard;
#METER:15;
#RADARVALUES:0.716120,0.699804,0.672454,0.244529,0.952643,492.000000,426.000000,66.000000,24.000000,0.000000,0.000000,0.000000,0.000000,0.000000,0.716120,0.699804,0.672454,0.244529,0.952643,492.000000,426.000000,66.000000,24.000000,0.000000,0.000000,0.000000,0.000000,0.000000;
#CREDIT:;
#DISPLAYBPM:110.000000;
#NOTES:
0000
0000
0000
0000
,
0000
0000
0000
0000
,
0000
0000
0000
0000
,
0000
0000
0000
0000
0000
0000
1100
0002
,
2000
0000
0000
0000
0003
0000
0000
0000
0000
0010
0000
0000
0000
0000
0000
3010
0000
0000
0100
0000
0000
0000
0000
0000
0101
0000
0000
0000
0000
0000
0000
0000
0000
0011
0000
0000
0000
0000
0000
0000
0000
0000
1100
0000
0000
0000
0000
0000
,
0000
0000
0000
1010
0000
0000
0000
0000
0000
0000
0000
0000
0101
0000
0000
0000
0000
0000
0020
0000
0000
0000
0000
0000
0200
0000
0000
0000
0030
0000
0000
0000
0000
0001
0000
0000
0000
0000
0000
0301
0000
0000
1000
0000
0000
0000
0000
0000
,
1001
0000
0000
1010
0000
0000
0101
0000
0000
0011
0000
0000
1100
0000
0020
0000
,
2000
0000
0000
0000
0030
0000
0000
0000
0000
0001
0000
0000
0000
0000
0000
3001
0000
0000
1000
0000
0000
0000
0000
0000
1010
0000
0000
0000
0000
0000
0000
0000
0000
0110
0000
0000
0000
0000
0000
0000
0000
0000
1001
0000
0000
0000
0000
0000
,
0000
0000
0000
0101
0000
0000
0000
0000
0000
0000
0000
0000
0011
0000
0000
0000
0000
0000
0200
0000
0000
0000
0000
0000
0002
0000
0000
0000
0300
0000
0000
0000
0000
1000
0000
0000
0000
0000
0000
1003
0000
0000
0100
0000
0000
0000
0000
0000
,
1001
0000
0000
0110
0000
0000
1001
0000
0000
0000
0000
0000
1100
0000
0001
1000
,
0001
0100
0000
0010
1000
0010
0100
0001
0010
0100
0010
0001
0010
0100
1000
0100
,
0010
0001
1000
0000
0110
0000
0001
0100
0010
0100
0000
0001
1000
0100
0010
0100
,
1000
0001
0100
0001
1000
0010
0100
0010
0100
0001
1000
0000
0101
0000
1000
0001
,
0010
0001
0000
0100
0010
1000
0010
0100
0010
1000
0001
1000
0100
0010
0100
0010
,
0001
1000
0010
0000
1001
0000
0100
0001
1000
0001
0000
0010
0100
0010
0001
1000
,
0010
0100
0010
1000
0010
0100
0010
1000
0100
0010
0001
0000
0011
0000
2000
0000
,
3002
0000
0103
0010
0000
0100
0001
0000
0011
0000
0000
0110
0000
0000
1100
0000
,
0000
1010
0000
0000
0101
0000
0000
1100
0000
0000
0011
0000
0000
1001
0000
0000
,
0101
0000
0000
1010
0000
0000
0011
0000
0000
1100
0000
0000
2001
0000
0010
0000
,
3010
0100
0000
0010
0000
1000
0001
0000
2100
0000
0001
0000
3001
0100
0000
0010
,
0000
1000
0100
0000
0021
0000
0001
0000
0031
0100
0000
0010
0000
1000
0001
0000
,
1002
0000
0010
0000
1003
0000
0201
0000
0010
0000
0301
0000
0110
0000
1000
0100
,
1000
0000
0001
1000
0000
0010
0100
0000
1010
0000
0100
0010
0100
0000
1000
0001
,
0000
1000
0010
0000
0201
0000
0000
0000
0310
0100
0000
0010
0000
1000
0001
0000
,
0011
0000
0000
1001
0000
0000
0110
0000
0000
1010
0000
0000
1100
0000
0000
0011
,
0000
0000
1100
0000
0000
0101
0000
0000
1010
0000
0001
0000
1000
0000
0020
0000
,
0000
0000
0130
0001
1000
0000
0010
0100
0000
0010
1000
0100
1000
0001
0100
0010
,
0200
0000
0000
0302
0000
0000
0013
0001
1000
0000
0010
0000
0100
0001
1000
0000
,
0010
1000
0100
0000
0010
0001
0100
0000
1001
0000
0000
0000
0010
1000
0010
0100
,
0010
1000
0010
0100
0001
0000
0010
0100
0000
0100
1000
0010
1000
0001
1000
0100
,
0020
0000
0000
0032
0000
0000
0103
0000
0010
1000
0010
1000
0001
0000
0100
0010
,
0000
0100
0001
0000
1000
0100
0010
0001
0200
0000
0000
0310
0000
0000
1000
0001
,
1000
0100
0010
0001
0100
0000
0010
1000
0010
0100
0001
0010
0100
0010
0001
1000
,
0002
0000
0000
0203
0000
0000
0301
0000
1000
0000
0100
0000
0010
0000
0001
0100
,
0001
0000
1000
0100
1000
0000
0010
0000
0101
0000
0010
1000
0010
0100
0001
0010
,
0001
1000
0010
0100
0001
0010
0001
0010
0100
0010
0001
1000
0100
1000
0100
1000
,
0010
0000
0000
1010
0000
0000
0101
0000
0000
1100
0000
0000
1001
0000
0000
0110
,
0000
0000
1001
0000
0000
0110
0000
0000
0101
0000
0010
1000
0001
1000
0000
0100
,
0010
0001
1000
0001
0100
0010
1000
0001
0010
0100
0010
0001
1000
0100
1000
0000
,
0011
0000
0100
0010
0100
0001
0000
1000
0001
0010
0001
0100
0010
1000
0010
0100
,
0001
1000
0001
0010
0100
1000
0001
0000
1100
0000
0010
0100
0010
1000
0000
0001
,
0010
0001
1000
0100
0010
0100
0010
0100
1000
0010
0100
0010
1000
0001
0010
0000
,
0110
0000
0100
1000
0100
0010
0000
0001
1000
0001
0100
0010
1000
0001
1000
0010
,
0100
0001
0010
0100
1000
0010
1000
0001
0000
0010
0001
0010
0100
1000
0010
1000
,
0001
0010
0001
0100
0010
1000
0000
0000
0000
0000
0000
0000
0000
0000
0000
0000
;

//---------------dance-single - ----------------
#NOTEDATA:;
#CHARTNAME:;
#STEPSTYPE:dance-single;
#DESCRIPTION:;
#CHARTSTYLE:;
#DIFFICULTY:Medium;
#METER:12;
#RADARVALUES:0.510890,0.519210,0.733586,0.224151,0.356604,351.000000,279.000000,72.000000,22.000000,0.000000,0.000000,0.000000,0.000000,0.000000,0.510890,0.519210,0.733586,0.224151,0.356604,351.000000,279.000000,72.000000,22.000000,0.000000,0.000000,0.000000,0.000000,0.000000;
#CREDIT:;
#DISPLAYBPM:110.000000;
#NOTES:
0000
0000
0000
0000
,
0000
0000
0000
0000
,
0000
0000
0000
0000
,
0000
0000
0000
0000
0000
0000
0000
0002
,
2000
0000
0000
0000
3003
0000
0000
0000
1010
0000
0000
0101
0000
0000
0011
0000
,
0000
1100
0000
0000
0000
0000
0020
0000
0200
0000
0000
0000
0330
0000
0000
0000
,
0101
0000
0000
0011
0000
0000
1100
0000
0000
1010
0000
0000
0000
0000
0002
0000
,
0020
0000
0000
0000
0033
0000
0000
0000
0011
0000
0000
1100
0000
0000
0101
0000
,
0000
1010
0000
0000
0000
0000
2000
0000
0200
0000
0000
0000
3300
0000
0000
0000
,
1001
0000
0000
0110
0000
0000
1001
0000
0000
0000
0000
0000
0110
0000
0001
0000
,
1000
0100
0000
0000
0010
0000
0001
0000
0100
0000
0001
0000
1000
0000
0001
0000
,
0100
0010
0100
0000
0000
0000
0001
0000
1000
0010
0000
0000
1000
0000
0100
0000
,
0010
0000
0100
0000
0010
0000
0001
0000
1000
0100
1000
0000
0000
0000
0010
0000
,
1000
0001
0000
0000
0010
0000
0100
0000
1000
0000
0010
0000
1000
0000
0001
0000
,
0100
0010
0100
0000
0000
0000
0001
0000
0010
0100
0000
0000
1000
0000
0010
0000
,
1000
0000
0100
0000
0010
0000
0100
0000
1000
0001
1000
0000
0000
0000
0020
0000
,
2000
0000
0000
0000
3030
0000
0000
0000
0101
0000
0000
1100
0000
0000
0101
0000
,
0000
1100
0000
0000
0011
0000
0000
1010
0000
0000
0011
0000
0000
1010
0000
0000
,
0110
0000
0000
1001
0000
0000
0110
0000
0000
1001
0000
0000
0102
0000
0000
0000
,
1003
0100
0000
1000
0000
0000
1001
0000
1020
0000
0000
0000
0130
0001
0000
0100
,
0000
0000
0110
0000
0102
0000
0000
0000
0013
0001
0000
0010
0000
0000
1001
0000
,
2010
0000
0000
3001
0000
0000
2100
0000
0000
3001
0000
0000
0021
0000
0000
0000
,
0130
1000
0000
0001
0000
0000
0101
0000
0210
0000
0000
0000
0310
1000
0000
0100
,
0000
0000
1100
0000
1002
0000
0000
0000
0013
0001
0000
0100
0000
0000
0110
0000
,
1010
0000
0000
0101
0000
0000
1100
0000
0000
0101
0000
0000
1001
0000
0000
1010
,
0000
0000
0101
0000
0000
1100
0000
0000
0000
0000
0001
0000
1000
0000
0002
0000
,
0000
0000
0013
0100
0010
0000
0001
1000
0000
0001
1000
0000
0010
0000
0100
0000
,
1001
0000
0000
0011
0000
0000
0100
0000
1000
0000
0001
0000
0100
0000
1000
0000
,
0100
0000
0001
0000
0100
0000
0010
0000
0110
0000
0000
0000
0100
0001
0100
0001
,
1000
0100
0010
0001
0010
1000
0010
0001
,
0101
0000
0000
1010
0000
0000
0001
0000
0100
0010
0100
0000
0110
0000
0000
1001
,
0000
0000
0110
0000
0000
0000
0101
0000
2100
0000
0000
3002
0000
0000
1003
0000
,
0100
0010
0001
0100
0001
0010
0001
0100
,
1010
0000
0000
1100
0000
0000
0001
0000
0010
0000
0100
0000
1000
0000
0010
0000
,
1000
0000
0001
0100
0001
0000
1000
0000
0011
0000
0100
0000
1000
0000
0010
0000
,
1000
0000
0001
0000
0100
0000
0001
0000
0010
0000
0001
0000
1000
0010
1000
0000
,
1001
0000
0000
0101
0000
0000
1001
0000
0000
1100
0000
0000
1010
0000
0000
0101
,
0000
0000
0011
0000
0000
1100
0000
0000
1001
0000
0010
0000
1000
0001
0000
0010
,
0001
0000
0100
0000
0010
0000
1000
0000
0010
0000
0100
0000
0010
1000
0001
0000
,
0000
0000
0010
0000
0001
1000
0000
0010
1000
0000
0100
0000
0010
0000
0001
0000
,
0010
0000
0100
0000
1000
0001
0100
0000
0000
0000
0010
0000
0100
0001
0000
1000
,
0100
0000
0010
0000
0001
0000
0100
0000
0001
0000
1000
0000
0100
0010
0001
0000
,
0000
0000
0100
0000
0010
1000
0000
0010
0100
0000
0001
0000
0010
0000
0100
0000
,
0010
0000
0001
0000
1000
0001
0200
0000
0000
0000
0310
0000
1000
0000
0010
0000
,
0100
0000
0001
0010
0100
1000
0000
0000
0000
0000
0000
0000
0000
0000
0000
0000
;

//---------------dance-single - ----------------
#NOTEDATA:;
#CHARTNAME:;
#STEPSTYPE:dance-single;
#DESCRIPTION:;
#CHARTSTYLE:;
#DIFFICULTY:Easy;
#METER:8;
#RADARVALUES:0.280917,0.316041,0.305661,0.264906,0.025472,193.000000,163.000000,30.000000,26.000000,0.000000,0.000000,0.000000,0.000000,0.000000,0.280917,0.316041,0.305661,0.264906,0.025472,193.000000,163.000000,30.000000,26.000000,0.000000,0.000000,0.000000,0.000000,0.000000;
#CREDIT:;
#DISPLAYBPM:110.000000;
#NOTES:
0000
0000
0000
0000
,
0000
0000
0000
0000
,
0000
0000
0000
0000
,
0000
0000
0000
0000
0000
0000
0000
0002
,
2000
0000
3003
0000
1010
0000
0000
0101
,
0000
0000
0000
0200
0020
0000
0330
0000
,
0101
0000
0000
1100
0000
0000
0000
2000
,
0002
0000
3003
0000
0011
0000
0000
1100
,
0000
0000
0000
0020
0200
0000
0330
0000
,
0110
0000
0000
1001
0000
0000
0000
1000
,
0001
0010
0100
1000
,
0010
0100
0000
0001
0100
0000
0010
0000
,
1000
0000
0001
0000
0010
0100
0000
0010
,
0001
1000
0010
1000
,
0001
0100
0000
0010
1000
0000
0100
0000
,
0010
0000
0001
0000
1000
0001
0000
0200
,
0002
0000
0303
0000
0011
0000
0000
1010
,
0000
0000
0101
0000
0000
1100
0000
0000
,
1001
0000
0000
0110
0000
0000
2020
0000
,
0000
0000
3030
0001
0202
0000
0000
0000
,
0303
0010
0220
0000
0000
0000
0330
1000
,
1010
0000
0000
1100
0000
0000
0022
0000
,
0000
0000
0033
0100
0202
0000
0000
0000
,
0303
1000
2002
0000
0000
0000
3003
0001
,
0011
0000
0000
1100
0000
0000
0101
0000
,
0000
1010
0000
0000
0010
0000
1000
0002
,
0000
0013
0100
0000
1000
0000
0010
1000
,
0001
0000
0010
0000
0001
0100
0020
0000
,
2030
3200
1300
0001
,
0010
0001
0100
0000
0010
0000
1000
0001
,
1000
0000
0010
0000
1000
0001
0010
0000
,
0100
0000
1000
0001
0010
0000
0011
0000
,
0100
1000
0001
0000
0100
0000
0010
1000
,
0100
0000
1001
0000
0010
0100
0001
0000
,
0010
0000
0001
1000
0001
0000
0100
0000
,
0010
1000
0100
0000
0010
0000
0001
0100
,
0001
0000
0000
1000
0000
0000
1010
0000
,
0000
0101
0000
0000
0000
0010
0100
0000
,
0001
0000
0010
0000
0001
0000
1000
0100
,
0000
1000
0001
0000
0100
0000
0010
0000
,
0100
0000
0001
1000
0000
1000
0100
0000
,
1000
0000
0010
0000
0100
0000
0001
0010
,
0000
0001
0100
0000
0001
0000
1000
0000
,
0010
0000
0000
0000
1000
0000
0100
0000
0000
0010
0000
0001
0000
0100
0000
0010
,
0000
0000
1000
0000
0000
0001
0000
0000
0000
0000
0000
0000
0000
0000
0000
0000
;

//---------------dance-single - ----------------
#NOTEDATA:;
#CHARTNAME:;
#STEPSTYPE:dance-single;
#DESCRIPTION:;
#CHARTSTYLE:;
#DIFFICULTY:Beginner;
#METER:3;
#RADARVALUES:0.123720,0.135255,0.142642,0.000000,0.000000,85.000000,71.000000,14.000000,0.000000,0.000000,0.000000,0.000000,0.000000,0.000000,0.123720,0.135255,0.142642,0.000000,0.000000,85.000000,71.000000,14.000000,0.000000,0.000000,0.000000,0.000000,0.000000,0.000000;
#CREDIT:;
#DISPLAYBPM:110.000000;
#NOTES:
0000
0000
0000
0000
,
0000
0000
0000
0000
,
0000
0000
0000
0000
,
0000
0000
0000
1001
,
0000
0000
0010
0000
,
0000
1001
0000
0000
,
0100
0000
0000
0110
,
0000
0000
0001
0000
,
0000
0110
0000
0000
,
1000
0000
0000
0000
,
0010
0000
0100
0000
,
0001
0000
1000
0000
,
0001
0000
0010
0000
,
0100
0000
0010
0000
,
0001
0000
1000
0000
,
0001
0000
0100
0000
,
0110
0000
1000
0000
,
0000
0001
0000
0000
,
1000
0000
0000
1001
,
0000
0000
0110
0000
,
0000
1001
0000
0000
,
0100
0000
0000
0110
,
0000
0000
1001
0000
,
0000
0110
0000
0000
,
1000
0000
0000
0010
,
0000
0000
0100
0000
,
0000
0001
0000
0000
,
1001
0000
0000
0010
,
0010
0010
0000
1000
,
0000
0001
0000
0010
,
0010
0000
0100
0100
,
0000
0010
0010
0000
,
0000
0001
0000
0000
,
0100
0000
0000
0001
,
0001
0001
0001
0000
,
0000
0010
0000
0000
,
0110
0000
0000
1001
,
0000
0000
0000
0100
,
0000
0001
0000
0010
,
0000
0100
0000
1000
,
0000
0010
0000
1000
,
0000
0001
0000
0010
,
0000
0001
0000
0100
,
0000
0010
0000
1000
,
1000
1000
0000
0000
;

//---------------dance-single - ----------------
#NOTEDATA:;
#CHARTNAME:;
#STEPSTYPE:dance-single;
#DESCRIPTION:;
#CHARTSTYLE:;
#DIFFICULTY:Challenge;
#METER:17;
#RADARVALUES:0.871861,0.857824,0.876228,0.142642,1.258304,599.000000,513.000000,86.000000,14.000000,0.000000,0.000000,0.000000,0.000000,0.000000,0.871861,0.857824,0.876228,0.142642,1.258304,599.000000,513.000000,86.000000,14.000000,0.000000,0.000000,0.000000,0.000000,0.000000;
#CREDIT:;
#DISPLAYBPM:110.000000;
#NOTES:
// measure 0
0000
0000
0000
0000
,  // measure 1
0000
0000
0000
0000
,  // measure 2
0000
0000
0000
0000
,  // measure 3
0000
0000
0000
0000
0000
0000
1100
0002
,  // measure 4
2000
0000
0000
0000
0003
0000
0000
0000
0000
0010
0000
0000
0000
0000
0000
0100
0000
0000
3100
0000
0000
0000
0000
0000
1001
0000
0000
0000
0000
0000
0000
0000
0000
0011
0000
0000
0000
0000
0000
0000
0000
0000
1001
0000
0000
0000
0000
0000
,  // measure 5
0000
0000
0000
1010
0000
0000
0000
0000
0000
0000
0000
0000
0101
0000
0000
0000
0000
0000
0020
0000
0000
0000
0000
0000
0200
0000
0000
0000
0030
0000
0000
0000
0000
1000
0000
0000
0000
0000
0000
0001
0000
0000
0301
0000
0000
0000
0000
0000
,  // measure 6
0110
0000
0000
1001
0000
0000
0011
0000
0000
1100
0000
0000
1010
0000
0200
0000
,  // measure 7
0002
0000
0000
0000
0300
0000
0000
0000
0000
0010
0000
0000
0000
0000
0000
1000
0000
0000
1003
0000
0000
0000
0000
0000
0011
0000
0000
0000
0000
0000
0000
0000
0000
1010
0000
0000
0000
0000
0000
0000
0000
0000
0101
0000
0000
0000
0000
0000
,  // measure 8
0000
0000
0000
1100
0000
0000
0000
0000
0000
0000
0000
0000
0011
0000
0000
0000
0000
0000
2000
0000
0000
0000
0000
0000
0020
0000
0000
0000
3000
0000
0000
0000
0000
0001
0000
0000
0000
0000
0000
0100
0000
0000
0130
0000
0000
0000
0000
0000
,  // measure 9
1001
0000
0000
0110
0000
0000
1001
0000
0000
0010
0100
0000
0110
0001
1000
0001
,  // measure 10
0010
0000
0100
0000
1000
0000
0001
0000
1000
0000
0010
0000
0100
0000
0001
0000
1000
0000
0100
1000
0100
0000
0010
0000
0001
0000
0100
0000
0010
0000
0100
0000
,  // measure 11
1000
0100
0001
0000
0011
1000
0001
0010
0001
0100
0010
1000
0100
0010
0001
0100
,  // measure 12
0010
0000
1000
0001
1000
0000
0100
0000
0010
0000
1000
0000
0010
0000
0001
0000
0010
0000
0100
0000
1000
0000
0000
0000
1100
0000
0010
0000
1000
0000
0100
0000
,  // measure 13
1000
0000
0001
0000
0010
0000
0100
0000
0010
0000
0001
0000
0100
0000
0010
0000
1000
0000
0100
0010
0100
0000
1000
0000
0010
0000
0001
0000
0010
0000
0100
0000
,  // measure 14
1000
0100
0001
0000
1010
0100
0010
0100
0001
1000
0100
0010
0001
1000
0010
0100
,  // measure 15
0001
0000
1000
0100
1000
0000
0010
0000
0100
0000
1000
0000
0100
0000
0001
0000
0010
0000
0100
0000
1000
0000
0001
0000
1001
0000
0000
0000
0200
0000
0000
0000
,  // measure 16
0002
0000
0000
0000
0000
0000
0000
0000
0000
0000
0300
0000
0000
0000
0000
0000
0000
0000
0000
0000
0000
0000
0000
0000
0010
0000
0000
0000
0000
0000
0000
0000
0000
0000
0000
0000
0010
0000
0000
0000
0000
0000
0000
0000
0000
0000
0000
0000
0000
0000
0000
0000
0000
0000
0000
0000
0000
0000
0000
0000
1000
0000
0000
0000
0000
0000
0000
0000
0000
0000
0000
0000
1003
0000
0000
0000
0000
0000
0000
0000
0000
0000
0000
0000
0000
0000
0000
0000
0000
0000
0000
0000
0000
0000
0000
0000
0101
0000
0000
0000
0000
0000
0000
0000
0000
0000
0000
0000
0000
0000
0000
0000
0000
0000
0000
0000
0000
0000
0000
0000
0000
0000
0000
0000
0000
0000
0000
0000
0000
0000
0000
0000
1100
0000
0000
0000
0000
0000
0000
0000
0000
0000
0000
0000
0000
0000
0000
0000
0000
0000
0000
0000
0000
0000
0000
0000
0000
0000
0000
0000
0000
0000
0000
0000
0000
0000
0000
0000
0101
0000
0000
0000
0000
0000
0000
0000
0000
0000
0000
0000
0000
0000
0000
0000
0000
0000
0000
0000
0000
0000
0000
0000
,  // measure 17
0000
1100
0000
0000
0011
0000
0000
1010
0000
0000
0011
0000
0000
1010
0000
0000
,  // measure 18
0110
0000
0000
1001
0000
0000
0110
0000
0000
1001
0000
0000
1100
0000
0001
0010
,  // measure 19
0001
0000
0100
0000
0010
0000
1000
0000
0000
0000
0100
0000
1001
0000
0000
0000
0011
0000
0000
0000
0100
0000
0000
0000
1000
0000
0001
0100
0001
0000
0010
0000
,  // measure 20
0000
0100
1100
0000
1010
0000
0100
0000
0010
1000
0001
0010
0000
0100
0110
0000
,  // measure 21
2001
0000
0010
0010
3010
0000
0102
0000
1000
1000
1003
0001
0011
0000
0100
0010
,  // measure 22
0001
1000
0001
0100
0000
0010
1010
0000
0110
0000
0001
0000
0100
0010
1000
0100
,  // measure 23
0000
1000
1001
0000
0011
0100
1000
0000
0010
1000
0001
0100
0000
0010
0101
0000
,  // measure 24
1100
0100
0000
0110
0000
0010
0011
0000
0000
0101
0000
1000
1001
0001
0000
0101
,  // measure 25
0000
0000
0100
0000
0110
0000
0010
0000
0000
0000
1010
0000
0000
0000
1000
0000
0001
0000
0100
0000
0010
0000
1000
0000
0100
0000
0000
0000
0010
0001
0000
0000
,  // measure 26
0100
0000
1000
0100
0001
0000
0010
0100
0010
0001
0100
0010
1000
0100
0001
0100
,  // measure 27
1100
0000
0000
0000
0010
0000
0101
0000
0000
0000
0000
0000
1000
0000
0010
0000
0001
0000
0010
0000
1000
0000
0100
0000
1000
0001
1000
0000
0010
0000
0100
0000
,  // measure 28
0001
0010
0001
0000
0100
0000
0000
0000
0010
1000
0010
0000
0100
0000
0001
0000
0110
0000
0000
0000
0100
0000
0010
0000
1001
0000
0100
0000
0001
0000
0010
0000
,  // measure 29
1000
0010
0001
0100
0010
1000
0100
0001
0001
1000
0010
0100
0010
1000
0001
0100
,  // measure 30
1100
0000
0001
0011
0000
1000
0100
0010
0001
0100
1000
0000
1010
0010
0100
0101
,  // measure 31
0001
1000
0011
0000
1000
0010
1001
0100
0101
0000
0000
0011
0000
0000
1000
0010
,  // measure 32
0001
1000
0100
0001
0020
0000
0130
0010
0100
1000
0010
0100
1000
0100
0001
0010
,  // measure 33
0101
0000
0000
1100
0000
0000
0001
0010
1000
0001
0100
1000
0010
0001
0001
0001
,  // measure 34
0100
1000
0100
1000
1000
0010
0100
0010
1001
0000
0100
0001
0010
0100
1000
0010
,  // measure 35
1000
0001
0100
0010
1000
0010
0001
0100
0100
0100
1000
0001
1000
0010
0010
0001
,  // measure 36
0101
0010
1000
1100
0000
0000
0011
0001
1000
0101
0000
0000
1010
0010
0100
0110
,  // measure 37
0100
0001
0011
0001
1000
1100
0001
0000
1001
0010
1000
0100
1000
0001
0010
0100
,  // measure 38
1000
0000
0010
0000
1000
0000
0001
0000
0100
0000
0010
1000
0100
0000
0010
0000
0001
0000
0100
0000
0010
0000
0100
0000
1000
0000
0100
0000
0001
0000
1000
0000
,  // measure 39
0110
0000
1000
0000
0100
0000
0010
0000
0001
0000
0100
0000
0001
0000
0010
0000
1000
0000
0010
0000
0001
0000
0100
0000
0010
0000
1000
0001
0100
0000
0010
0000
,  // measure 40
0100
1000
0100
0001
1000
0010
0100
0000
1010
0001
0010
0001
0100
1000
0100
0001
,  // measure 41
0010
0000
0100
0000
1000
0000
0001
0000
0100
0000
0001
0010
0100
0000
1000
0000
0010
0000
0100
0000
1000
0000
0100
0000
0010
0000
1000
0000
0001
0000
0010
0000
,  // measure 42
1100
0001
1000
0001
0100
0010
1000
0001
0010
0100
1000
0010
0100
0001
0010
0001
,  // measure 43
1000
0000
0010
0000
1000
0000
0001
0000
0010
0000
0100
0000
1000
0000
0002
0000
0000
0000
1003
0001
0010
0000
0100
0000
1000
0000
0010
0000
1000
0000
0100
0000
,  // measure 44
0001
0010
0001
0100
0010
1001
0000
0000
0000
0000
0000
0000
0000
0000
0000
0000
;
