#TITLE:Opera No. 2;
#SUBTITLE:;
#ARTIST:Vitas;
#MUSIC:Opera No. 2.ogg;
#BANNER:Opera No. 2-bn.png;
#BACKGROUND:Opera No. 2-bg.png;
#LYRICSPATH:;
#CDTITLE:;
#SAMPLESTART:47.077999;
#SAMPLELENGTH:20.000000;
#BPMS:0.000000=100.000000,
16.000000=99.669998,
28.000000=101.000000,
44.000000=99.687302,
56.000000=100.300003,
69.000000=99.000000,
78.000000=101.500000,
80.000000=99.999001,
96.000000=99.500000,
103.000000=100.100098,
108.000000=99.599998,
116.000000=98.803497,
126.000000=99.750000,
131.000000=102.300003,
134.000000=99.540001,
136.000000=101.010101,
140.000000=100.051003,
142.000000=99.213402,
144.000000=98.211998,
152.000000=99.719002,
180.000000=98.599998,
182.000000=102.699997
;
#STOPS:;
#TIMESIGNATURES:;
#BGCHANGES:;
#FGCHANGES:;
#ATTACKS:;
#SPEEDS:;
#SCROLLS:;
#DISPLAYBPM:98.000000:103.000000;
#KEYSOUNDS:;

//---------------dance-single - ---------------
#NOTES:
     dance-single:
     :
     Beginner:
     1:
     0,0,0,0,0:
// measure 0
0000
0000
0000
0000
,  // measure 1
0000
0000
0000
0000
,  // measure 2
0000
0000
0000
0000
,  // measure 3
0000
0000
0000
0000
,  // measure 4
0001
0000
0000
0000
,  // measure 5
1000
0000
0000
0000
,  // measure 6
0001
0000
0000
0000
,  // measure 7
0100
0000
0000
0000
,  // measure 8
0010
0000
0000
0000
,  // measure 9
1000
0000
0000
0000
,  // measure 10
0100
0000
0000
0000
,  // measure 11
0010
0000
0000
0000
,  // measure 12
0001
0000
0000
0000
,  // measure 13
0100
0000
0000
0000
,  // measure 14
0010
0000
0000
0000
,  // measure 15
0100
0000
0000
0000
,  // measure 16
0001
0000
0000
0000
,  // measure 17
1000
0000
0000
0000
,  // measure 18
0010
0000
0000
0000
,  // measure 19
1000
0000
0000
0000
,  // measure 20
0020
0000
0000
0000
,  // measure 21
0000
0000
0030
0000
,  // measure 22
0100
0000
0000
0000
,  // measure 23
0001
0000
0000
0000
,  // measure 24
2000
0000
0000
0000
,  // measure 25
0000
0000
3000
0000
,  // measure 26
0100
0000
0000
0000
,  // measure 27
0010
0000
0000
0000
,  // measure 28
0001
0000
0000
0000
,  // measure 29
1000
0000
0000
0000
,  // measure 30
0010
0000
0000
0000
,  // measure 31
1000
0000
0001
0000
,  // measure 32
1001
0000
0000
0000
,  // measure 33
0110
0000
0000
0000
,  // measure 34
1001
0000
0000
0000
,  // measure 35
0100
0000
0010
0000
,  // measure 36
0110
0000
0000
0000
,  // measure 37
0002
0000
0000
0000
,  // measure 38
0000
0000
0003
0000
,  // measure 39
1000
0000
0000
0000
,  // measure 40
0010
0000
0000
0000
,  // measure 41
0200
0000
0000
0000
,  // measure 42
0000
0000
0300
0000
,  // measure 43
0001
0000
0000
0000
,  // measure 44
1000
0000
0000
0000
,  // measure 45
1001
0000
0000
0000
,  // measure 46
0220
0000
0000
0000
,  // measure 47
0000
0000
0000
0330
;

//---------------dance-single - ---------------
#NOTES:
     dance-single:
     :
     Easy:
     5:
     0,0,0,0,0:
// measure 0
0000
0000
0000
0000
,  // measure 1
0000
0000
0000
0000
,  // measure 2
0000
0000
0000
0000
,  // measure 3
0000
0000
0000
0000
,  // measure 4
0001
1000
0001
0000
,  // measure 5
0010
0100
1000
0000
,  // measure 6
0010
1000
0100
0010
,  // measure 7
0002
0000
0000
0003
,  // measure 8
0100
0001
1000
0000
,  // measure 9
0010
1000
0100
0000
,  // measure 10
0110
0000
0001
1000
,  // measure 11
1001
0000
0000
0000
,  // measure 12
0100
0001
0100
0001
,  // measure 13
0010
0100
1000
0000
,  // measure 14
0001
0000
0010
0001
,  // measure 15
0100
0010
1000
0000
,  // measure 16
0100
0010
0100
0000
,  // measure 17
1000
0001
0100
0000
,  // measure 18
0110
0000
1000
0001
,  // measure 19
1001
0000
0000
0020
,  // measure 20
1030
0002
0000
0100
,  // measure 21
0000
1000
0000
0103
,  // measure 22
0020
0000
0000
0030
,  // measure 23
2000
0000
0000
3002
,  // measure 24
1003
0020
0000
0001
,  // measure 25
0000
0100
0000
1030
,  // measure 26
0002
0000
0000
0003
,  // measure 27
0200
0000
0000
0300
,  // measure 28
0000
0100
0000
0100
,  // measure 29
0000
0010
0000
0010
,  // measure 30
0000
1000
0000
0001
,  // measure 31
2000
0000
3001
0000
,  // measure 32
1001
0100
0001
0100
,  // measure 33
0110
0010
1000
0100
,  // measure 34
1001
0010
0001
0100
,  // measure 35
0002
0000
1003
0000
,  // measure 36
0020
0230
0320
0230
,  // measure 37
0301
2000
0000
0010
,  // measure 38
0000
0001
0000
3100
,  // measure 39
2000
0010
0010
3010
,  // measure 40
0002
0100
0100
0103
,  // measure 41
0010
0200
0000
0001
,  // measure 42
0000
1000
0000
0310
,  // measure 43
2000
0100
0100
3100
,  // measure 44
0002
0010
0010
0013
,  // measure 45
1001
0110
1001
0000
,  // measure 46
0220
0000
0000
0000
,  // measure 47
0000
0000
0000
0330
;

//---------------dance-single - ---------------
#NOTES:
     dance-single:
     :
     Medium:
     9:
     0,0,0,0,0:
// measure 0
0000
0000
0000
0000
,  // measure 1
0000
0000
0000
0000
,  // measure 2
0000
0000
0000
0000
,  // measure 3
0000
0000
0000
0000
,  // measure 4
0001
0100
0000
0010
0000
0100
0000
0001
,  // measure 5
0000
1000
0000
0100
0000
1000
0000
0001
,  // measure 6
0100
0010
0000
1000
0000
0001
0010
0100
,  // measure 7
0000
1000
0000
0001
0000
1000
0000
0001
,  // measure 8
0010
0100
0000
1000
0000
0010
0000
1000
,  // measure 9
0100
0010
0000
0001
0000
1000
0000
0001
,  // measure 10
1000
0010
0000
1000
0000
0001
0000
0100
,  // measure 11
0010
0000
0000
0000
,  // measure 12
1000
0100
0000
1000
0000
0001
0000
0100
,  // measure 13
0000
0001
0000
0010
0000
0100
0000
1000
,  // measure 14
0010
1000
0000
0100
0000
0010
0000
0001
,  // measure 15
1000
0001
0000
0010
0000
0100
0000
1000
,  // measure 16
0010
0100
0000
0001
0000
0010
0000
0001
,  // measure 17
1000
0100
0000
0010
0000
0010
0000
0001
,  // measure 18
1000
0001
0000
0100
0000
0010
0000
1000
,  // measure 19
0100
2000
3002
2003
,  // measure 20
3010
0100
0002
1000
0000
0100
0000
1000
,  // measure 21
0000
0000
0010
0000
0000
0000
0100
0000
0000
0000
2003
0000
0000
3020
0000
0000
,  // measure 22
0230
0000
0302
0000
1000
1000
1000
0100
,  // measure 23
0023
0000
0001
0000
1000
0000
0031
1000
,  // measure 24
0001
0100
0020
1000
0000
0100
0000
0001
,  // measure 25
0000
0000
1000
0000
0000
0000
0001
0000
0000
0000
2030
0000
0000
3002
0000
0000
,  // measure 26
0023
0000
0230
0000
1000
1000
1000
0001
,  // measure 27
2300
0010
0001
3100
,  // measure 28
0000
1000
0100
0010
0000
0001
1000
0001
,  // measure 29
0000
0100
0010
1000
0000
0001
0010
0100
,  // measure 30
0000
1000
0001
1000
0000
0010
0100
0010
,  // measure 31
2000
0000
0002
3003
,  // measure 32
1001
0100
0010
1000
0000
0001
1000
0010
,  // measure 33
0000
1000
0100
0010
0001
1000
0001
0100
,  // measure 34
0000
0001
0010
0001
0000
1000
0010
1000
,  // measure 35
0020
0000
0200
0330
,  // measure 36
0001
0010
0001
1000
0010
1000
0100
0010
,  // measure 37
0001
1000
0020
0000
1000
1000
1000
0000
,  // measure 38
0100
0000
0100
0000
0100
0000
0000
0000
1030
0000
0002
0000
0000
0023
0000
0000
,  // measure 39
0230
0000
0320
0000
0001
0001
0001
1000
,  // measure 40
0032
0000
1000
0000
0100
0000
1003
0001
,  // measure 41
0010
0100
2000
0000
0010
0010
0010
0000
,  // measure 42
0001
0000
0001
0000
0001
0000
0000
0000
3100
0000
0020
0000
0000
0032
0000
0000
,  // measure 43
2003
0000
3020
0000
0100
0100
0100
1000
,  // measure 44
0230
0001
0010
1300
,  // measure 45
0110
0101
1100
0000
,  // measure 46
0022
0000
0000
0000
,  // measure 47
0000
0000
0000
0033
;

//---------------dance-single - ---------------
#NOTES:
     dance-single:
     :
     Hard:
     12:
     0.461473,0.604483,0.096036,0.148420,0.305570,370.000000,359.000000,11.000000,17.000000,0.000000,0.000000,0.461473,0.604483,0.096036,0.148420,0.305570,370.000000,359.000000,11.000000,17.000000,0.000000,0.000000:
// measure 0
0000
0000
0000
0000
,  // measure 1
0000
0000
0000
0000
,  // measure 2
0000
0000
0000
0000
,  // measure 3
0000
0000
0000
0000
,  // measure 4
1000
0010
1000
0001
0010
0100
0000
1000
,  // measure 5
0001
0010
0001
0100
0000
1000
0010
0100
,  // measure 6
0001
1000
0100
0010
0000
0010
0001
0100
,  // measure 7
0001
0010
1000
0100
0000
1000
0001
0100
,  // measure 8
0010
0000
1000
0001
0000
0000
1000
0000
0000
0000
0100
0000
0010
0000
0001
0000
,  // measure 9
0100
0000
0001
0010
0000
0000
0100
0000
1000
0000
0001
0000
1000
0000
0010
0000
,  // measure 10
0100
0000
0001
0000
0000
0000
0010
0000
0100
0000
0000
1000
0001
0000
0100
0000
,  // measure 11
1010
0000
0000
0000
,  // measure 12
0001
0100
1000
0001
0010
0000
0001
0100
,  // measure 13
0001
0010
0100
1000
0000
0010
0100
0001
,  // measure 14
1000
0000
0001
0000
0000
0000
0010
0000
0001
0000
0000
0100
0000
0000
1000
0000
,  // measure 15
0010
1000
0001
0010
0000
0100
0010
0100
,  // measure 16
1000
0000
0000
0001
1000
0000
0010
0000
0100
0000
0001
0000
0000
0000
0010
0100
,  // measure 17
0000
0000
0000
0000
1000
0001
0100
0000
0010
0000
1000
0000
0010
0000
0100
0000
,  // measure 18
0001
0000
0010
0000
0000
0000
0001
1000
0001
0000
0100
0000
0010
0000
1000
0000
,  // measure 19
0101
0000
0000
0000
2000
0000
0000
0000
3002
0000
0000
0000
0013
0100
0010
0100
,  // measure 20
1000
0000
0001
0000
0100
0000
0010
1000
0010
1000
0001
0000
0100
0000
0010
0000
,  // measure 21
0100
0000
0001
0000
1000
0000
0100
0010
0100
0000
2000
0000
0000
3002
0000
0000
,  // measure 22
0103
0000
0010
0000
0100
0000
0001
1000
0010
1000
0010
1000
0001
0000
0100
0000
,  // measure 23
0001
0000
1000
0000
0100
0000
0010
0001
1000
0001
0100
0000
0010
1000
0010
1000
,  // measure 24
0001
0000
0100
0000
0010
0000
1000
0001
0100
0001
1000
0000
0100
0000
0010
0000
,  // measure 25
0001
0000
1000
0000
0001
0000
0010
0100
1000
0000
0002
0000
0000
0203
0000
0000
,  // measure 26
0301
0000
0010
0000
0100
0000
0010
0001
1000
0010
0100
0000
0001
1000
0001
0000
,  // measure 27
0010
0000
0001
0000
0100
0000
0010
1000
0001
1000
0100
0000
0010
0001
1000
0000
,  // measure 28
0001
0100
0010
0100
0000
0010
1000
0001
,  // measure 29
0000
1000
0100
0010
0001
1000
0001
1000
,  // measure 30
0000
0001
1000
0100
0000
0100
0010
0001
,  // measure 31
2000
0010
0000
3010
0002
0100
0010
0103
,  // measure 32
1001
0000
0010
0000
0100
0000
0001
0000
1000
0010
0100
0010
1000
0000
0001
0000
,  // measure 33
0110
0000
0010
0000
0100
0000
0001
0000
0010
0001
0100
0010
1000
0000
0100
0000
,  // measure 34
1100
0000
0001
0000
1000
0000
0100
0000
0010
0001
1000
0000
0001
0000
0100
0000
,  // measure 35
0020
1000
0000
1030
0002
0100
0010
0100
,  // measure 36
1003
0001
0100
0010
1000
0001
0100
0010
1000
0001
0100
0010
1000
0010
0100
0001
,  // measure 37
0010
0000
0100
0000
1000
0000
0001
0100
0010
1000
0100
0010
0001
0000
1000
0000
,  // measure 38
0110
0000
0001
0000
0100
0000
0001
1000
0100
0010
0002
0000
0000
2003
0000
0000
,  // measure 39
3010
0000
1000
0000
0100
0000
0010
0001
1000
0001
1000
0010
0100
0000
0001
0000
,  // measure 40
1010
0000
1000
0000
0100
0000
0010
0001
0100
0001
1000
0000
0010
0100
0001
1000
,  // measure 41
0100
0000
0010
0000
0100
0000
1000
0001
0010
0001
1000
0001
0100
0000
0010
0000
,  // measure 42
1001
0000
0100
0000
0001
0000
0010
0100
1000
0001
2000
0000
0000
3020
0000
0000
,  // measure 43
0130
0000
0001
0000
1000
0000
0001
0000
0010
0100
0010
0001
1000
0000
0010
0000
,  // measure 44
0102
0000
0000
0000
1003
0000
0001
0100
0001
0010
0100
0000
1000
0001
1000
0000
,  // measure 45
1100
0000
1000
0001
1000
0000
0001
1000
0100
0000
0000
0000
0000
0000
0000
0000
,  // measure 46
0022
0000
0000
0000
,  // measure 47
0000
0000
0000
0033
;

//---------------dance-single - ---------------
#NOTES:
     dance-single:
     :
     Challenge:
     15:
     0,0,0,0,0:
// measure 0
0000
0000
0000
0000
,  // measure 1
0000
0000
0000
0000
,  // measure 2
0000
0000
0000
0000
,  // measure 3
0000
0000
0000
0000
,  // measure 4
0001
0010
0001
0100
0010
1000
0100
1000
,  // measure 5
0001
0010
0001
1000
0010
0100
0001
1000
,  // measure 6
0100
0010
0001
0100
0010
1000
0100
1000
,  // measure 7
0001
0010
0001
0100
0010
1000
0100
0001
,  // measure 8
0100
1000
0010
1000
0001
0010
0001
0100
,  // measure 9
0010
1000
0100
1000
0001
0010
0001
0100
,  // measure 10
0001
0010
0001
0100
0010
1000
0100
0010
,  // measure 11
1001
0000
0000
0000
,  // measure 12
0001
0010
0001
0100
0010
1000
0100
0001
,  // measure 13
0100
0010
0100
1000
0010
0100
0010
0001
,  // measure 14
0010
1000
0001
1000
0010
1000
0100
0010
,  // measure 15
0001
0100
0001
0010
0001
1000
0010
0100
,  // measure 16
0001
0010
0001
0100
0001
0010
0001
1000
,  // measure 17
0100
0001
0100
1000
0010
0100
0001
0010
,  // measure 18
0001
1000
0010
1000
0100
0010
0001
0100
,  // measure 19
0110
0000
0000
0000
0000
0000
0000
0000
2000
0000
0000
0000
0000
0000
0000
0000
3002
0000
0000
0000
0100
0000
0000
0000
1003
0010
1000
0010
0100
0001
0100
0001
,  // measure 20
0020
0000
0000
0000
0230
0000
0000
0000
2300
0000
0000
0000
3001
0000
0100
0010
1000
0000
0001
0000
0010
0000
0001
0000
0100
0000
0001
0000
0010
0000
0100
0000
,  // measure 21
1000
0000
0000
0000
0010
0000
1000
0000
0100
0000
0000
0000
0001
0000
0010
0100
1000
0000
0010
0000
1000
0000
0001
0000
0010
0000
0100
0000
1000
0000
0010
0000
,  // measure 22
0100
0000
0000
0000
0001
0000
0010
0000
0100
0000
0000
0000
1000
0000
0001
1000
0010
0000
0100
0000
0001
0000
0010
0000
0100
0000
1000
0000
0001
0000
0100
0000
,  // measure 23
0010
0000
0000
0000
0100
0000
0001
0000
1000
0000
0000
0000
0010
0000
1000
0100
0010
0000
0001
0000
1000
0010
1000
0010
0100
0001
0100
0001
1000
0001
0100
0010
,  // measure 24
2000
0000
0000
0000
3002
0000
0000
0000
0023
0000
0000
0000
0130
0000
1000
0001
0100
0000
0010
0000
0100
0000
0001
0000
1000
0000
0100
0000
0010
0000
0001
0000
,  // measure 25
0100
0000
0000
0000
0001
0000
0010
0000
1000
0000
0000
0000
0100
0000
1000
0001
0100
0000
0010
0000
1000
0000
0001
0000
0010
0000
0100
0000
1000
0000
0001
0000
,  // measure 26
1000
0000
0000
0000
0010
0000
0100
0000
0001
0000
0000
0000
0010
0000
0001
0100
0010
0000
1000
0000
0100
0000
0010
0000
0001
0000
0100
0000
0010
0000
1000
0000
,  // measure 27
0100
0000
0000
0000
1000
0000
0001
0000
0100
0000
0000
0000
0001
0000
0010
0100
1000
0000
0010
0000
0100
0000
0001
0000
0010
0000
0100
0000
1000
0000
0001
0100
,  // measure 28
0001
0010
0001
0100
0010
1000
0100
0010
,  // measure 29
0001
0000
0000
0000
1000
0000
0000
0000
0001
0000
0000
0000
1000
0000
0100
0010
0001
0000
0000
0000
0100
0000
0000
0000
0001
0000
0000
0000
0010
0000
0001
1000
,  // measure 30
0001
0100
0010
1000
0100
0010
0001
0100
,  // measure 31
2000
0010
0001
0010
3002
0100
1000
0103
,  // measure 32
1001
0000
0000
0000
0010
0000
0001
0000
0100
0000
0000
0000
0001
0000
1000
0010
1000
0000
0100
0000
0010
0000
0001
0000
0100
0000
0010
0000
1000
0000
0001
0000
,  // measure 33
0110
0000
0000
0000
1000
0000
0010
0000
1000
0000
0000
0000
0100
0000
0010
0001
1000
0000
0001
0000
0100
0000
0010
0000
1000
0000
0100
0000
0010
0000
0001
0000
,  // measure 34
0101
0000
0000
0000
0001
0000
0010
0000
1000
0000
0000
0000
0100
0000
1000
0010
0100
0000
0001
0000
0010
0000
0001
0000
0100
0000
0010
0000
1000
0000
0001
0000
,  // measure 35
0200
0000
0000
0000
1000
0000
0000
0000
0001
0000
0000
0000
0310
0000
0000
1000
0002
0000
0000
0000
0100
0000
0000
0000
0010
0000
0000
0000
1003
0000
0000
0000
,  // measure 36
0001
0000
0100
0000
0001
0000
0010
0000
0001
0000
1000
0000
0010
0000
1000
0000
0100
0000
0010
0000
0001
0100
0001
0100
0010
1000
0010
1000
0001
0010
0100
1000
,  // measure 37
0002
0000
0000
0000
0203
0000
0000
0000
0320
0000
0000
0000
1030
0100
1000
0001
0100
0000
0010
0000
1000
0000
0100
0000
0001
0000
0100
0000
1000
0000
0010
0000
,  // measure 38
0101
0000
0000
0000
1000
0000
0100
0000
0001
0000
0000
0000
0010
0001
0100
0010
1000
0000
0100
0000
0010
0000
0001
0000
0100
0000
1000
0000
0100
0000
0001
0000
,  // measure 39
0011
0000
0000
0000
0100
0000
1000
0000
0001
0000
0000
0000
0100
0010
1000
0001
0010
0000
0100
0000
0001
0000
0100
0000
0010
0000
0100
0000
1000
0000
0001
0000
,  // measure 40
1010
0000
0000
0000
0001
0000
0100
0000
0010
0000
1000
0000
0100
0010
0100
1000
0001
0000
0100
0000
0010
1000
0010
1000
0001
0100
0001
0100
0010
1000
0001
0100
,  // measure 41
0020
0000
0000
0000
2030
0000
0000
0000
3200
0000
0000
0000
0310
0001
1000
0001
0100
0000
0010
0000
1000
0000
0001
0000
0010
0000
1000
0000
0010
0000
0100
0000
,  // measure 42
0110
0000
0001
0000
1000
0000
0001
0000
0100
0000
0010
0000
1000
0100
0010
0001
0100
0000
0010
0000
0100
0000
1000
0000
0100
0000
0001
0000
0010
0000
0100
0000
,  // measure 43
1100
0000
0000
0000
1000
0000
0001
0000
0100
0000
0000
0000
0001
1000
0010
1000
0100
0000
0010
0000
0001
0000
0100
0000
1000
0000
0100
0000
0001
0000
0010
0000
,  // measure 44
1001
0000
0100
0001
0010
0001
1000
0010
0100
1000
0100
0001
0010
0100
1000
0001
,  // measure 45
0101
0000
0000
0000
1000
0100
1000
0100
1000
0000
0000
0000
0001
0100
0001
0100
0001
0000
0000
0000
0000
0000
0000
0000
0000
0000
0000
0000
0000
0000
0000
0000
,  // measure 46
2020
0000
0000
0000
,  // measure 47
0000
0000
0000
3030
;
