#TITLE:One Phrase Blues;
#ARTIST:Hideyuki Ono;
#BANNER:One Phrase Blues-bn.png;
#BACKGROUND:One Phrase Blues-bg.png;
#JACKET:One Phrase Blues-jacket.png;
#MUSIC:One Phrase Blues.ogg;
#OFFSET:0.8;
#SAMPLESTART:5.6;
#SAMPLELENGTH:20;
#DISPLAYBPM:150;
#BPMS:0=150;
#BGCHANGES:;

//---------------dance-single - ----------------
#NOTES:
     dance-single:
     :
     Beginner:
     4:
     :
0000
0000
0000
0000
,
0000
0000
0000
0000
,
0000
0000
0000
0000
,
0000
0000
0000
0000
,
0010
0000
0000
0001
,
0000
0000
0001
0000
,
0100
0000
0000
0100
,
0000
0000
0010
0000
,
1000
0000
0000
0010
,
0000
0000
1000
0000
,
0001
0000
0000
1000
,
0000
0000
0100
0000
,
0000
1000
1000
0000
,
0001
0001
0001
0000
,
0000
0100
0100
0000
,
0110
0000
0000
0000
,
1001
0000
0000
0000
,
0000
0010
0010
0000
,
0000
1000
0000
0001
,
0000
0100
0100
0000
,
0001
0001
0001
0001
,
0000
1000
0000
0100
,
0000
1000
1000
0000
,
0010
0000
0100
0000
,
0010
0010
0010
0010
,
0010
0010
0010
0000
,
1000
0000
1000
0000
,
1001
0000
0100
0000
,
0001
0000
0100
0000
,
0010
0010
0010
0010
,
0000
0000
0000
0000
,
1000
1000
1000
1000
,
0000
0000
0000
0000
,
0001
0001
0000
0000
,
1000
1000
0000
0000
,
0010
0010
0010
0000
,
0110
0000
1001
0000
,
0001
0000
0000
1000
,
0000
0010
0000
0100
,
0000
0000
0001
0000
,
0000
0010
0000
0000
,
0001
0000
0100
0000
,
0000
0010
0000
0000
,
1000
0000
1000
0000
,
0000
0100
0000
0000
,
0010
0000
0100
0000
,
0000
1000
0000
0000
,
0001
0000
0000
1000
,
1000
0000
0001
0001
,
0001
0001
0000
0010
,
0010
0000
0110
0000
,
0000
0000
0100
0100
,
0100
0000
1001
0000
,
0001
0001
0001
0000
,
0110
0000
0000
0000
;

//---------------dance-single - ----------------
#NOTES:
     dance-single:
     :
     Easy:
     8:
     :
0000
0000
0000
0000
,
0000
0000
0000
0000
,
0000
0000
0000
0000
,
0000
0000
0000
0000
,
0010
0000
0000
0001
0000
0000
0100
0000
,
0000
1000
0000
0000
0010
0000
0100
0000
,
0001
0000
0000
0010
0000
0000
1000
0000
,
0000
0100
0000
0000
1000
0000
0001
0000
,
1000
0000
0000
0010
0000
0000
0100
0000
,
0000
0001
0000
0000
0100
0000
0010
0000
,
0100
0000
0000
0001
0000
0000
0010
0000
,
0000
1000
0000
0000
0001
0000
0100
0000
,
0000
0110
0001
1000
,
0100
0100
0100
1000
,
0000
0010
1000
0100
,
0110
0001
0001
1000
,
1001
0000
0000
0010
0000
0000
0100
0000
,
0000
0001
0010
0000
0001
1000
0000
0000
,
0010
1000
1000
0200
,
1300
0000
0001
0000
0001
0200
0000
0000
,
0310
1000
0001
0000
0010
0000
0001
0100
,
0000
0010
2000
0000
0100
0000
3001
0000
,
0000
1000
0100
0000
1000
0000
0001
0000
,
0010
0001
1000
0000
0202
0000
0303
0000
,
1000
0000
0010
0000
1000
0000
0001
0010
,
0100
0000
1000
0000
0010
1000
0001
0000
,
0100
0010
0100
0000
0001
0000
1000
0000
,
1001
0010
1000
0100
,
0001
0010
0001
1000
,
0010
0010
0010
0110
,
0001
0001
1000
1000
,
0100
0100
0100
0110
,
0001
1000
0001
1000
,
1010
1010
0001
0001
,
0101
0101
1000
1000
,
1001
0010
1001
0100
,
0110
0000
0001
0000
1000
0001
0100
0000
,
0010
0000
0000
1000
0000
0000
0100
0000
,
0000
0010
0002
0000
0000
0103
0020
0000
,
0000
0000
0000
0000
1030
0000
0000
0010
,
0000
0000
0100
0000
0000
0001
0000
0000
,
0010
0000
0001
0000
0100
0000
0000
0010
,
0000
0000
1000
0000
0000
0001
0000
0000
,
1000
0000
0100
0000
0001
0000
0000
0010
,
0000
0000
0100
0000
0000
1000
0000
0000
,
0001
0000
1000
0000
0010
0000
0000
1000
,
0000
0000
0100
0000
0000
0001
0000
0000
,
0010
0000
0001
0000
0000
0100
0010
0000
,
1000
0001
1100
0101
,
1100
0000
0101
0000
0000
1000
0001
0000
,
0010
0001
1001
0100
,
0010
0000
0100
0000
0001
1000
0100
0000
,
1000
0000
0001
0000
1001
0000
0000
0010
,
0100
0110
0001
0100
,
1001
0000
0000
0000
;

//---------------dance-single - ----------------
#NOTES:
     dance-single:
     :
     Medium:
     11:
     :
0000
0000
0000
0000
,
0000
0000
0000
0000
,
0000
0000
0000
0000
,
0000
0000
0000
0000
,
0010
0000
0000
0100
0000
0000
0010
0000
0000
0100
0000
0000
0010
0000
0000
0100
,
0000
0000
0010
0000
0000
0100
0000
0000
0001
0000
0000
1000
0000
0000
0100
0000
,
1000
0000
0000
0001
0000
0000
1000
0000
0000
0001
0000
0000
1000
0000
0000
0001
,
0000
0000
1000
0000
0000
0001
0000
0000
0100
0000
0000
0100
0000
0000
0000
0000
,
0001
0000
0000
0010
0000
0000
0001
0000
0000
0010
0000
0000
0001
0000
0000
0010
,
0000
0000
0001
0000
0000
0010
0000
0000
0100
0000
0000
1000
0000
0000
0001
0000
,
1000
0000
0000
0100
0000
0000
1000
0000
0000
0100
0000
0000
1000
0000
0000
0100
,
0000
0000
1000
0000
0000
0100
0000
0000
0010
0000
0000
0010
0000
0000
0000
0000
,
0000
0000
0001
0000
1000
0000
0000
0000
0010
0000
0000
0010
0000
0000
0100
0000
,
0001
0010
0001
0010
0001
1000
0010
0100
,
0000
0000
0010
0000
1000
0000
0100
0000
1000
0000
0001
0000
0100
0000
0000
0110
,
0000
0001
1000
0010
1000
0000
1000
0001
,
1001
0000
0010
1000
0000
0100
0001
0000
,
0010
0000
0001
0000
0010
0000
0000
0100
0000
1000
0000
0001
0000
0000
0100
0000
,
0010
1000
0010
1000
0010
0100
0002
0000
,
0013
0001
1000
0001
1000
0200
0000
0000
,
1300
0010
0100
0000
0001
0010
0001
1000
,
0000
0000
0100
0000
1000
0000
0000
0000
0101
0000
0000
0001
0000
0000
1000
0000
,
0000
1100
0000
0000
0010
0000
0100
0000
0010
0000
1000
0000
0001
0000
0000
0000
,
0010
0001
0100
0010
2000
0000
3100
1000
,
0001
0000
0100
0000
0010
0000
1000
0000
0100
0000
0000
0010
0000
0010
0000
0010
,
0000
0001
0100
1000
0100
0001
0100
0000
,
0010
1000
0010
0100
0001
0010
0001
1000
,
0010
0000
0100
0001
0010
0001
1000
1000
,
1000
0100
1000
1000
1000
0010
1000
0001
,
0100
0000
0000
0100
0000
0000
0010
0000
0000
0010
0000
0000
1000
0000
0001
0000
,
0010
0001
0200
0000
0310
1000
0200
0000
,
1300
0000
0000
1000
0000
0000
0001
0000
0000
0001
0000
0000
0010
0000
0100
0000
,
1000
0010
1000
1000
1000
0001
0020
0000
,
0130
0000
0000
0100
0000
0000
0100
0000
1000
0000
0001
0000
0100
0000
0010
0000
,
1000
0000
0000
1000
0000
0000
1000
0000
0001
0000
1000
0000
0010
0000
0100
0000
,
0001
0000
0000
0010
0000
0000
0001
0000
1000
0000
1000
0000
0000
0000
0000
0000
,
0010
1000
0010
1000
0100
0010
0001
0000
,
2000
0000
0000
3200
0000
0000
0320
0000
0000
0032
0000
0000
0203
0000
0000
0320
,
0000
0000
1030
0000
0002
0000
0000
0000
0000
0000
0013
0100
0020
0000
0000
0000
,
0000
0000
0000
0000
0000
0000
0000
0000
0031
0000
0000
1000
0000
0000
0001
0000
,
0000
1000
0000
0000
0001
0000
0000
1000
0000
0000
0001
0000
0000
1000
0000
0000
,
0010
0000
0000
0100
0000
0000
0001
0000
0100
0000
0000
0010
0000
0000
0100
0000
,
0000
0010
0000
0000
0100
0000
0000
0010
0000
0000
0100
0000
0000
0010
0000
0000
,
1000
0000
0000
1000
0000
0000
0000
0000
0010
0000
0000
1000
0000
0000
0010
0000
,
0000
1000
0000
0000
0010
0000
0000
1000
0000
0000
0010
0000
0000
1000
0000
0000
,
0100
0000
0000
0010
0000
0000
0001
0000
0100
0000
0000
0001
0000
0000
0100
0000
,
0000
0001
0000
0000
0100
0000
0000
0001
0000
0000
0100
0000
0000
0001
0000
0000
,
0010
0000
0000
0010
0000
0000
0000
0000
0000
0000
0001
0000
1000
0000
0000
0000
,
0010
0000
0000
0010
0000
0000
1000
0000
0100
0000
0001
0000
0100
0000
1000
0000
,
0100
0010
0001
1000
0000
0010
0010
1000
,
0100
0000
0010
0000
0001
0000
0000
0101
0000
0000
1000
0000
1000
0000
0000
0000
,
0010
0000
0000
0100
0000
0000
0010
0000
0000
0000
1000
0000
1000
0000
0001
0000
,
0010
0000
0100
0000
1000
0000
0000
1100
0000
0000
0000
0000
0000
0000
0110
0000
,
0001
0000
0100
0000
0010
0000
0100
0000
1000
0000
0100
0000
0001
0000
0000
1001
;

//---------------dance-single - ----------------
#NOTES:
     dance-single:
     :
     Hard:
     13:
     :
0000
0000
0000
0000
,
0000
0000
0000
0000
,
0000
0000
0000
0000
,
0000
0000
0000
0000
,
0010
0000
0000
0100
0000
0000
0101
0000
0000
1000
0000
0000
0001
0000
0000
1000
,
0000
0000
0010
0000
0000
1000
0000
0000
1100
0000
0000
0101
0000
0000
1100
0000
,
0001
0000
0000
0010
0000
0000
1001
0000
0000
1000
0000
0000
0100
0000
0000
0010
,
0000
0000
0100
0000
0000
1000
0000
0000
0001
0100
0000
0010
1000
0000
0100
0000
,
0110
0000
0000
0001
0000
0000
0110
0000
0000
1000
0000
0000
0010
0000
0000
0100
,
0000
0000
0010
0000
0000
1000
0000
0000
0101
0000
0000
1100
0000
0000
0101
0000
,
0010
0000
0000
1000
0000
0000
1010
0000
0000
0001
0000
0000
0011
0000
0000
0100
,
0000
0000
0010
0000
0000
1000
0000
0000
0010
0100
0000
0001
1000
0000
0010
0100
,
0000
0000
0001
0000
0001
2000
0000
0000
0010
0000
0000
0100
0000
0000
0010
0000
,
3010
0000
0100
0000
0010
0000
1000
0000
0010
0000
0100
0001
0000
0001
0000
1000
,
0001
0000
0100
0000
0010
1000
0010
0000
1000
0010
1000
0000
0100
0000
0010
0001
,
0000
2000
0000
0000
3010
0000
1000
0000
0001
0200
0000
0000
0301
1000
0001
0000
,
1001
0000
0000
0010
1000
0000
0000
1000
0100
0000
0000
0100
0010
0000
0001
0000
,
0100
0000
0010
0000
1000
0100
0000
0100
1000
0001
0000
0110
0000
0000
0110
0000
,
0001
0000
1000
0000
1000
0000
0010
0000
0100
0000
0100
0000
0100
0001
0000
0011
,
0000
0002
0000
0000
1003
0000
0010
0000
1000
0000
0100
0000
1000
0001
1000
0001
,
1000
0000
0010
0100
0001
0000
0000
0000
0010
0000
0001
1000
0010
0100
0001
0000
,
0000
0000
0010
0000
0010
0002
0000
0000
1003
0100
1000
0100
2000
0000
0000
0000
,
3010
1000
0010
0000
1000
0100
1000
0000
0001
0000
0010
0100
1000
0000
0000
1001
,
0000
0010
0100
0010
0100
0000
0000
0001
2000
0000
0000
0000
3010
0100
0010
0100
,
0010
0000
1000
0000
0100
0000
0010
0000
0001
0100
0001
1000
0000
1010
0000
1010
,
0000
0000
0101
0000
0100
0000
1000
0000
0010
0000
1000
0000
0100
0010
0000
0000
,
0001
1000
0001
0000
0100
0000
0010
0000
1000
0000
0100
0000
1000
0001
0000
0011
,
0000
0000
0100
0000
0100
0010
1000
0000
0001
0000
0001
0000
0001
1000
0010
1000
,
0001
0000
0100
0000
0100
0001
0010
0000
0100
0000
0100
0000
0100
1000
0100
1000
,
0001
0000
0000
1000
0000
0000
0010
0000
0000
1000
0000
0000
0100
0000
0100
0000
,
0010
0000
0010
0000
0001
1000
0001
1000
0010
0000
0010
0000
1000
0001
1000
0001
,
0100
0000
0000
0010
0000
0000
0100
0000
0000
0001
0000
0000
1000
0100
1000
0000
,
0001
0000
0001
0000
1000
0100
1000
0100
0010
0000
0010
0000
0001
0100
0001
0100
,
0010
0000
0000
0010
0000
0000
0010
0000
1000
0000
1000
0000
1000
0100
1000
0100
,
0010
0000
0000
0001
0000
0000
1000
0000
0010
0000
0010
0000
0100
0001
0100
0001
,
0100
0000
0010
1000
0000
0010
1000
0000
0100
0000
0010
0001
0000
0010
0100
0000
,
1000
0100
1000
0000
0001
0000
0010
0000
0001
0000
0100
1000
0000
0000
0000
0000
,
0010
1000
0010
0100
0000
0000
0001
0010
0001
0100
0000
0000
0010
1000
0001
0100
,
0000
0000
0001
0010
0100
2000
0000
0000
0000
0000
3010
0100
0002
0000
0000
0000
,
0013
0001
0000
0010
0001
1000
0001
1000
0010
0000
0000
0100
0000
0000
0101
0000
,
0000
1000
0000
0000
0001
0000
0000
0010
0000
0000
0001
0000
0000
1000
0000
0000
,
0110
0000
0000
1001
0000
0000
0110
0000
1000
0000
0000
0001
0000
0000
1100
0000
,
0000
0010
0000
0000
0001
0000
0000
0100
0000
0000
0010
0000
0000
1000
0000
0000
,
0100
1000
0000
1000
0001
0000
0100
0000
1001
0000
0000
0001
0000
0000
0011
0000
,
0000
1000
0000
0000
0010
0000
0000
1000
0000
0000
0100
0000
0000
0010
0000
0000
,
0011
0000
0000
0110
0000
0000
1100
0000
0001
0000
0000
0100
0000
0000
1010
0000
,
0000
0100
0000
0000
1000
0000
0000
0001
0000
0000
0010
0000
0000
0001
0000
0000
,
1000
0010
0000
1000
0001
0000
0100
0010
1000
0000
0001
0000
0001
0020
0000
0000
,
1000
0000
0000
0001
0000
0000
0100
0000
0130
0000
0010
0000
0001
0000
0100
0000
,
0010
1000
0010
1000
0000
0001
0000
0100
0010
0000
1000
0000
0100
0010
0001
0000
,
0100
0010
1000
0000
0001
0000
0010
1000
0000
0000
0100
0000
0100
1000
0000
1000
,
0001
0000
0001
0100
0000
0100
0010
1000
0010
0000
0100
0000
0100
0001
1000
0000
,
0100
1000
0001
0000
0010
0000
0001
0100
0000
0000
0000
0000
0000
0000
0110
0000
,
1001
0000
0010
0000
1000
0100
1000
0000
0001
0100
0001
0000
0010
0000
0001
0100
;

//---------------dance-single - ----------------
#NOTES:
     dance-single:
     :
     Challenge:
     16:
     :
0000
0000
0000
0000
,
0000
0000
0000
0000
,
0000
0000
0000
0000
,
0000
0000
0000
0000
,
0010
0000
0000
0001
0000
0000
0101
0000
0000
0100
0000
0000
1010
0000
0000
1000
,
0000
0000
1100
0000
0000
0001
0000
0000
1001
0000
0000
0110
0000
0000
1001
0000
,
0100
0000
0000
1000
0000
0000
1100
0000
0000
0001
0000
0000
0011
0000
0000
0010
,
0000
0000
1001
0000
0000
0100
0000
0000
0010
1000
0000
0010
1000
0001
0100
0000
,
0001
0000
0000
1000
0000
0000
1010
0000
0000
0100
0000
0000
0101
0000
0000
0010
,
0000
0000
0011
0000
0000
1000
0000
0000
0101
0000
0000
1010
0000
0000
0101
0000
,
0010
0000
0000
1000
0000
0000
1100
0000
0000
0010
0000
0000
0110
0000
0000
0001
,
0000
0000
1100
0000
0000
0010
0000
0000
1000
0100
0000
1000
0001
1000
0100
0010
,
0001
0000
0100
0000
0100
0020
0000
0000
1000
0000
0000
0100
0000
0000
1030
0000
,
1001
0000
0100
0000
1001
0000
0100
0000
0001
0100
0010
1000
0000
0001
0010
0100
,
1000
0000
0001
0000
0010
0001
0010
0100
1000
0010
0100
0000
0110
0000
0001
1000
,
0000
0200
1000
0000
1300
0000
0001
0000
0100
0020
0000
0000
1030
0001
0100
0000
,
1001
0000
0000
0010
1000
0000
0100
0010
0000
0010
0001
0100
0001
1000
0001
1000
,
0010
0000
0100
0000
0100
0001
0000
0010
0001
1000
0000
1100
0000
0000
0110
0000
,
1001
0000
0001
0000
0100
0000
1000
0000
0010
0000
0010
0000
0010
0100
0001
1000
,
0000
0200
0010
0000
0310
0000
0001
0000
0101
0000
1000
0000
0010
0100
0010
0100
,
0010
1000
0001
1000
0100
0020
0000
0000
0031
0010
0100
1000
0100
0010
0001
1000
,
0001
0000
0200
0000
0320
1000
0000
1030
0100
0010
0001
0100
0001
1000
0010
0000
,
0100
0001
0010
0001
1000
0100
0010
0001
1000
0100
1000
0001
1000
0100
0000
0011
,
0000
0100
0001
0010
0001
1000
0000
0010
0200
0000
0001
0000
0301
1000
0001
1000
,
0010
1000
0010
0100
0010
1000
0010
0100
0001
1000
0010
0100
0000
0101
0000
1010
,
0000
0100
2000
0000
3002
0000
0203
0000
0320
0000
2030
0000
3100
0002
0000
0103
,
0010
0000
0001
0000
1000
0000
0001
0000
0000
0000
0000
0000
0100
0000
0000
0000
0000
0000
0010
0000
0000
0000
0000
0000
1000
0000
0000
0000
0000
0000
1000
0000
0000
0100
0000
0000
1000
0000
0000
0010
0000
0000
1000
0000
0000
0001
0000
0000
,
1001
0000
0000
0000
0000
0000
0010
0000
0000
0000
0000
0000
0010
0000
0000
1000
0000
0000
0001
0000
0000
0000
0000
0000
0100
0000
0000
0000
0000
0000
0100
0000
0000
0000
0000
0000
0001
0000
1000
0000
0001
0000
1000
0000
0001
0000
1000
0000
,
0100
0000
0000
0000
0000
0000
0100
0000
0000
0000
0000
0000
0100
0000
0000
0010
0000
0000
0001
0000
0000
0000
0000
0000
1000
0000
0000
0000
0000
0000
1000
0000
0000
0000
0000
0000
0010
0000
0100
0000
0010
0000
0100
0000
0010
0000
0100
0000
,
0010
0000
0000
1000
0010
0000
1000
0100
0000
0100
0010
0000
0001
1000
0001
0000
,
0010
0000
0000
0000
0000
0000
0010
0000
0000
0000
0000
0000
0001
0000
0000
0100
0000
0000
1000
0000
0000
0100
0000
0000
0001
0000
0000
0000
0000
0000
0001
0000
0000
0000
0000
0000
1000
0000
0100
0000
1000
0000
0100
0000
1000
0000
0100
0000
,
0010
0000
0000
0001
0100
0000
0100
0010
0000
0010
1000
0000
1000
0001
0100
0000
,
0001
0000
0000
0000
0000
0000
0001
0000
0000
0000
0000
0000
0001
0000
0000
0100
0000
0000
1000
0000
0000
0100
0000
0000
0001
0000
0000
0000
0000
0000
0001
0000
0000
0000
0000
0000
0001
0000
0010
0000
0001
0000
0010
0000
0001
0000
0010
0000
,
0100
0000
0000
1000
0000
0000
0000
0000
0000
0100
0000
0000
1000
0000
0000
0000
0000
0000
0100
0000
0000
1000
0000
0000
0001
0000
0000
0000
0000
0000
0001
0000
0000
0000
0000
0000
0001
0000
0100
0000
0001
0000
0100
0000
0001
0000
0100
0000
,
0010
0000
0000
1000
0000
0000
0000
0000
0000
0010
0000
0000
1000
0000
0000
0000
0000
0000
0010
0000
0000
1000
0000
0000
0100
0000
0000
0000
0000
0000
0100
0000
0000
0000
0000
0000
0100
0000
0010
0000
0100
0000
0010
0000
0100
0000
0010
0000
,
0001
0000
0100
0000
0010
1000
0001
0000
0100
0000
0100
0000
0001
0010
1000
0000
,
0100
1000
0001
0000
0100
0000
0010
0000
0100
0001
0010
0001
1000
0000
0100
0000
,
0010
0001
1000
0100
0000
0000
1000
0010
0100
0001
0000
0000
0001
1000
0100
0010
,
0000
0000
0100
1000
0001
0020
0000
0000
0031
0000
0100
0010
2000
0000
3200
0000
,
0301
0100
0000
0100
1000
0010
0100
0001
0010
0001
0000
0101
0000
0000
0010
1000
,
0000
1100
0000
0000
1000
0001
0000
0101
0000
0000
0010
0100
0000
0110
0000
0000
,
1010
0000
0000
0101
0000
0000
1010
0000
0100
1000
0000
1100
0000
0000
0001
0010
,
0000
0011
0000
0000
1000
0010
0000
0101
0000
0000
0010
0001
0000
1001
0000
0000
,
1000
0010
1000
0010
0100
0001
1000
0000
0100
0010
0000
0011
0000
0000
1000
0001
,
0000
1010
0000
0000
0010
1000
0000
0101
0000
0000
1000
0100
0000
0011
0000
0000
,
0101
0000
0000
0011
0000
0000
1100
0000
0001
1000
0000
0110
0000
0000
0001
0010
,
0000
0101
0000
0000
0100
0010
0000
0101
0000
0000
1000
0100
0000
1100
0000
0000
,
0001
0010
0000
0001
1000
0010
0100
0010
1000
0000
0100
0000
0100
2000
0000
0000
,
0001
0000
0000
0100
0000
3100
0010
0000
1001
0000
0100
0000
1001
0000
0100
0000
,
0001
0010
0001
1000
0000
1000
0100
0010
0001
0000
1000
0000
0010
1000
0100
0010
,
0001
1000
0001
0100
0010
0000
1000
0100
0000
0000
0011
0000
0101
0000
0000
0010
,
1000
0000
0100
1000
0000
0001
1000
0100
0010
0000
0001
0000
0010
0100
1000
0010
,
1000
0001
0100
0010
1000
0000
0100
0010
0000
0000
0000
0000
0000
0000
0110
0000
,
1001
0000
0010
0000
1000
0100
0010
0100
1000
0001
0100
0010
1000
0001
0010
0100
;
