#VERSION:0.83;
#TITLE:One Margarita;
#SUBTITLE:;
#ARTIST:Luke Bryan;
#TITLETRANSLIT:;
#SUBTITLETRANSLIT:;
#ARTISTTRANSLIT:;
#GENRE:;
#ORIGIN:;
#CREDIT:;
#BANNER:One Margarita-bn.png;
#BACKGROUND:One Margarita-bg.png;
#PREVIEWVID:;
#JACKET:One Margarita-jacket.png;
#CDIMAGE:;
#DISCIMAGE:;
#LYRICSPATH:;
#CDTITLE:;
#MUSIC:One Margarita.ogg;
#OFFSET:0.000000;
#SAMPLESTART:31.000000;
#SAMPLELENGTH:20.000000;
#SELECTABLE:YES;
#DISPLAYBPM:180.000000;
#BPMS:0.000=180.000;
#STOPS:256.000=1.333;
#DELAYS:;
#WARPS:;
#TIMESIGNATURES:0.000=4=4;
#TICKCOUNTS:0.000=4;
#COMBOS:0.000=1;
#SPEEDS:0.000=1.000=0.000=0;
#SCROLLS:0.000=1.000;
#FAKES:;
#LABELS:0.000=Song Start;
#BGCHANGES:;
#KEYSOUNDS:;
#ATTACKS:
;

//---------------dance-single - ----------------
#NOTEDATA:;
#CHARTNAME:;
#STEPSTYPE:dance-single;
#DESCRIPTION:;
#CHARTSTYLE:;
#DIFFICULTY:Hard;
#METER:13;
#RADARVALUES:0.576267,0.617515,0.407303,0.328976,0.003916,515.000000,463.000000,52.000000,42.000000,0.000000,0.000000,0.000000,0.000000,0.000000,0.576267,0.617515,0.407303,0.328976,0.003916,515.000000,463.000000,52.000000,42.000000,0.000000,0.000000,0.000000,0.000000,0.000000;
#CREDIT:;
#DISPLAYBPM:180.000000;
#NOTES:
0000
0000
0000
0000
,
0000
0000
0000
0000
,
0000
0000
0000
0000
,
0000
0000
0000
0000
,
0010
0001
0100
0000
0010
1000
0000
1000
,
0100
0000
0100
0000
1000
0001
0100
0010
,
0000
0100
0001
0000
0100
0010
0000
0010
,
1000
0000
1000
0000
1000
0100
0001
0000
,
0010
0001
0100
0001
2000
0000
3000
0010
,
1000
0000
0100
0000
0001
0000
0010
0100
,
0000
0200
0000
0000
1300
0001
1000
0000
,
1100
0000
0000
0000
0001
0100
0010
1000
,
0000
1000
0100
0010
0001
0100
0000
0010
,
1000
0010
0100
0000
0001
1000
0000
0010
,
0000
0010
1000
0001
0200
0000
0310
0000
,
0101
0000
0000
0000
0010
0001
0100
2000
,
0000
0001
3001
0000
1010
0000
0100
0002
,
0000
0010
0013
0000
0011
0000
0100
2000
,
0010
0000
3001
0000
0001
0100
1000
0000
,
1001
0000
0000
0000
0010
1000
0001
0100
,
0000
0100
0000
0010
1000
0000
0001
0010
,
0000
0010
0000
0010
0100
0000
1000
0001
,
0000
0100
0010
0000
1000
0001
0100
0000
,
0110
0000
1000
0010
0000
0100
0000
0001
,
0010
0000
0010
0001
0100
0000
0010
1000
,
0000
0100
0000
1000
0010
0100
0001
1000
,
0000
0001
0000
1000
0100
0010
0001
0000
,
1001
0000
0010
1000
0010
0100
0010
2000
,
0000
3001
1000
0100
0010
0001
0100
0020
,
0000
1030
0000
0010
1000
0100
0010
0002
,
0000
0100
0103
0010
0100
0001
1000
0000
,
1010
0000
0100
0000
0100
0001
1000
0001
,
0100
0000
0101
0000
0000
0011
0000
0000
,
0110
0000
0000
1100
0000
0000
0200
0000
,
1300
0000
1001
0000
0000
0101
0000
0000
,
0011
0000
0000
1100
0000
0000
0101
0000
,
0010
0000
0110
0000
0000
0101
0000
0000
,
1001
0000
0000
1010
0000
0000
1100
0000
,
0002
0023
0230
2300
,
3010
0000
0100
0001
0100
0010
1000
0001
,
0000
0001
0000
0001
0010
0100
1000
0010
,
0000
0100
0010
0100
0001
1000
0001
0010
,
0000
0010
0000
0010
0001
0100
1000
0000
,
1001
0000
0010
1000
0100
0010
0001
2000
,
0000
3002
0000
1003
0100
0010
0001
0200
,
0000
0320
0000
0130
0010
1000
0001
0020
,
0000
0032
0000
1003
0001
0100
0010
0000
,
1010
0000
0000
0101
0000
0000
1100
0000
,
0001
0100
1000
0100
0001
0100
1000
0100
,
0001
0010
0100
2000
0000
0000
3010
0100
,
0000
0000
0210
0000
0000
0000
0301
0100
0001
0000
0010
0000
0100
0000
1000
0000
,
0010
1000
0010
0100
0001
0000
0011
0000
,
1000
0001
1000
1000
0000
0101
0000
0010
,
0100
0100
0010
0100
0002
0000
1003
0001
,
1000
0100
0001
0000
0010
0001
0010
0100
,
1000
1000
1000
0000
1100
0000
0000
0001
,
0000
1000
0001
0000
0200
0000
0310
1000
,
0000
0100
0010
0000
0002
0000
1003
0002
,
0000
0000
0103
0000
0010
0100
0001
0000
,
0101
0000
0000
0000
1000
0001
1000
0100
,
0000
0100
0000
1000
0001
0000
0100
0010
,
0000
0100
0000
0010
1000
0000
0001
0010
,
0000
0200
0000
0000
1300
0001
0100
0000
,
0020
0000
0030
0000
1000
0100
0001
0000
,
1001
0000
1000
0010
0000
0100
0000
0001
,
0010
0000
0010
0001
0100
0000
0010
1000
,
0000
0100
0000
1000
0001
0100
0010
1000
,
0000
0001
0000
1000
0100
0010
0001
0000
,
0110
0000
1000
0001
1000
0010
0100
0002
,
0000
0013
0001
0010
0200
0000
1300
0001
,
0000
0100
0000
0010
0100
0001
1000
0100
,
0000
1000
0010
1000
0100
0010
0001
0000
,
0011
0000
0100
1000
0001
1000
0100
0010
,
0001
0000
0101
0000
0000
1010
0000
0000
,
1100
0000
0000
0011
0000
0000
0200
0000
,
1300
0000
1001
0000
0000
1010
0000
0000
,
0110
0000
0000
0101
0000
0000
0011
0000
,
1000
0000
1100
0000
0000
0101
0000
0000
,
0110
0000
0000
1010
0000
0000
0011
0000
,
2000
3200
0320
0032
,
0203
0000
0301
1000
0001
0010
0100
1000
,
0000
1000
0000
0010
1000
0010
0100
0001
,
0000
0010
0001
0010
0100
1000
0001
0100
,
0000
0100
0000
0010
1000
0001
0100
0000
,
1001
0000
0010
1000
0001
1000
0001
0200
,
0000
0320
0000
0130
0001
1000
0100
0020
,
0000
0032
0000
0103
0010
0100
0001
2000
,
0000
3200
0000
0310
0001
0100
1000
0000
,
1010
0000
0000
1100
0000
0000
0101
0000
,
0000
0000
0010
0001
0000
0010
0000
0100
,
1000
0000
1000
0000
0001
1000
0010
0100
,
0000
0000
0001
0000
0100
0010
0000
0010
,
1000
0000
1000
0000
0001
0100
1000
0000
;

//---------------dance-single - ----------------
#NOTEDATA:;
#CHARTNAME:;
#STEPSTYPE:dance-single;
#DESCRIPTION:;
#CHARTSTYLE:;
#DIFFICULTY:Medium;
#METER:11;
#RADARVALUES:0.447586,0.472217,0.140990,0.297645,0.000000,400.000000,382.000000,18.000000,38.000000,0.000000,0.000000,0.000000,0.000000,0.000000,0.447586,0.472217,0.140990,0.297645,0.000000,400.000000,382.000000,18.000000,38.000000,0.000000,0.000000,0.000000,0.000000,0.000000;
#CREDIT:;
#DISPLAYBPM:180.000000;
#NOTES:
0000
0000
0000
0000
,
0000
0000
0000
0000
,
0000
0000
0000
0000
,
0000
0000
0000
0000
,
0010
0000
0001
0000
0000
0100
0000
0010
,
1000
0000
1000
0000
1000
0001
0100
0010
,
0000
0000
1000
0000
0000
0100
0000
0010
,
0001
0000
0000
0000
0100
0010
1000
0000
,
0001
0000
1000
0000
0010
1000
0000
0100
,
0010
0000
0001
0100
0000
0000
0000
0000
,
0010
0000
1000
0000
0001
1000
0000
0100
,
0010
0000
0000
0000
0001
1000
0001
1000
,
0010
0000
0100
0000
0001
1000
0000
1000
,
0100
0000
0010
0001
0000
0000
0000
0000
,
0100
0000
0010
0000
0100
0001
0000
1000
,
0001
0000
0000
0000
0010
0100
0010
0100
,
1000
0000
0100
0000
1100
0000
0000
0001
,
0000
1000
0010
0000
0101
0000
0000
0000
,
0010
0000
0100
0000
0001
1000
0001
0000
,
1001
0000
0000
0000
1000
0100
1000
0100
,
0010
0000
0001
0000
0011
0000
0000
0100
,
0000
0010
1000
0000
1010
0000
0000
0000
,
0001
0000
1000
0000
0001
0100
0010
0000
,
0110
0000
1000
0010
0000
0100
0000
0001
,
0000
0000
0010
0001
0010
0000
0100
1000
,
0000
0010
0000
1000
0001
0000
0100
0010
,
0000
0010
0000
1000
0001
0000
0100
0000
,
1001
0000
0000
0000
0010
1000
0010
0100
,
0000
0001
1000
0001
1000
0000
0100
0010
,
0000
0010
0000
0001
0100
0000
0010
1000
,
0000
0100
1000
0001
0200
0000
0310
0000
,
0110
0000
0100
0000
0001
1000
0001
1000
,
0000
0000
0020
0000
0000
2030
0000
0000
,
3002
0000
0000
2003
0000
0000
3200
0000
,
0000
0000
0320
0000
0000
0032
0000
0000
,
0203
0000
0000
0320
0000
0000
2030
0000
,
0000
0000
3002
0000
0000
2003
0000
0000
,
3002
0000
0000
0023
0000
0000
0230
0000
,
0000
1300
0001
1000
,
1010
0000
0100
0001
0000
0000
0000
0010
,
0000
0010
0000
0001
1000
0000
0001
0100
,
0000
0100
0010
1000
0010
0000
0100
0001
,
0000
0001
0000
0001
0010
0000
1000
0000
,
0101
0000
0000
0000
1000
0001
1000
0010
,
0000
0100
0000
0010
1000
0000
0001
0100
,
0000
0100
0000
0010
1000
0000
0100
0010
,
0000
0001
0000
1000
0001
0000
0100
0000
,
0010
0000
0000
0010
0000
0000
0010
0000
,
1000
0000
0001
0000
1000
0000
0100
0010
,
0001
0100
0001
2000
0000
0000
3001
1000
,
0000
1100
0000
0000
0010
0001
0100
0010
,
2000
0000
0000
3002
0000
0000
0203
0000
,
0300
0000
0010
0000
1000
0100
0000
0001
,
0020
0000
0031
0100
0002
0000
1003
0000
,
0010
1000
0001
0000
1000
0100
0010
0001
,
0010
0000
0011
0000
,
1000
0000
0001
0000
1000
0100
0000
0100
,
0010
0000
0001
0000
0100
0010
1000
0001
,
0010
0000
0100
0000
1000
0001
0000
1000
,
0100
0000
0000
0000
1000
0010
1000
0000
,
0110
0000
0001
0000
1000
0001
0000
1000
,
0100
0000
0100
0000
0010
0001
1000
0001
,
0100
0000
0010
0000
0100
0001
0000
1000
,
0001
0000
0000
0000
0010
0100
1000
0000
,
1001
0000
1000
0010
0000
0100
0000
0001
,
0000
0000
0010
0001
0100
0000
0010
1000
,
0000
0100
0000
1000
0001
0000
0100
0010
,
0000
0010
0000
0100
0001
0000
1000
0000
,
1100
0000
0000
0000
0001
0100
0001
1000
,
0000
1000
0100
0010
0001
0000
0100
0010
,
0000
0100
0000
0001
1000
0000
0100
0010
,
0000
0010
0001
0100
0002
0000
1003
0000
,
0101
0000
0000
0000
1000
0001
0100
0000
,
0000
0000
0002
0000
0000
2003
0000
0000
,
3002
0000
0000
0023
0000
0000
0230
0000
,
0000
0000
0320
0000
0000
0230
0000
0000
,
2300
0000
0000
3002
0000
0000
2003
0000
,
0000
0000
3200
0000
0000
2300
0000
0000
,
3200
0000
0000
0320
0000
0000
0032
0000
,
0000
0103
0010
0100
,
1010
0000
0001
1000
0000
0000
0000
0100
,
0000
0100
0000
0010
0001
0000
1000
0001
,
0000
0100
0010
0100
0001
0000
1000
0010
,
0000
1000
0000
0100
0010
0000
0001
0000
,
0011
0000
0000
0000
0100
0010
1000
0001
,
0000
0001
0000
0010
0100
0000
1000
0010
,
0000
0100
0000
0010
1000
0000
0001
1000
,
0000
1000
0000
0100
1000
0000
0001
0000
,
0010
0000
0000
0010
0000
0000
0010
0000
,
0000
0000
0001
0000
0000
1000
0000
0001
,
0100
0000
0100
0000
0010
0100
0001
1000
,
0000
0000
0100
0000
0000
1000
0000
0000
,
0001
0000
0000
0000
0010
0100
1000
0000
;

//---------------dance-single - ----------------
#NOTEDATA:;
#CHARTNAME:;
#STEPSTYPE:dance-single;
#DESCRIPTION:;
#CHARTSTYLE:;
#DIFFICULTY:Easy;
#METER:7;
#RADARVALUES:0.298764,0.363244,0.187986,0.000000,0.000000,267.000000,243.000000,24.000000,0.000000,0.000000,0.000000,0.000000,0.000000,0.000000,0.298764,0.363244,0.187986,0.000000,0.000000,267.000000,243.000000,24.000000,0.000000,0.000000,0.000000,0.000000,0.000000,0.000000;
#CREDIT:;
#DISPLAYBPM:180.000000;
#NOTES:
0000
0000
0000
0000
,
0000
0000
0000
0000
,
0000
0000
0000
0000
,
0000
0000
0000
0000
,
0010
0000
0001
0000
,
0100
0000
0010
1000
,
0010
0000
0100
0000
,
0001
0000
1000
1000
,
0010
0100
0001
0000
,
0010
0100
1000
0000
,
0001
0100
0001
0000
,
0110
0000
0000
0000
,
1000
0010
0100
0000
,
0001
0010
0100
0000
,
1000
0001
1000
0100
,
1001
0000
0000
0000
,
0010
0100
0110
0000
,
0001
1000
1001
0000
,
0001
0010
0001
0100
,
0010
0000
0110
0000
,
0100
0010
1001
0000
,
0001
1000
0110
0000
,
1000
0010
0100
0001
,
0010
0100
1001
0000
,
1000
0001
1000
0000
,
0100
0010
0001
0000
,
0100
0001
1000
0000
,
1001
0000
0110
0000
,
1000
0010
0100
0000
,
0001
1000
0001
0000
,
0010
0100
1000
1000
,
1000
0000
0001
0100
,
0001
0000
1000
0000
,
0010
0000
1000
0100
,
0010
0000
0001
0000
,
0100
0000
0001
1000
,
0001
0000
0010
0000
,
0100
0000
0010
0001
,
1000
0100
0100
0100
,
1000
0001
0100
0000
,
0010
1000
0010
0000
,
0100
0001
1000
0000
,
0001
0010
0001
0100
,
0110
0000
1001
0000
,
0010
1000
0100
0000
,
1000
0010
0100
0000
,
0001
1000
0001
0100
,
0110
0000
1001
0000
,
0010
1000
0010
0100
,
0001
1000
0001
0010
,
0100
1000
1000
0001
,
0100
0001
0010
1000
,
0000
0100
0010
0100
,
1000
0010
1000
0001
,
1000
1000
0010
0100
,
0110
0000
1001
0000
,
0001
0000
0000
0000
,
0010
0000
0000
0000
,
0001
0000
0100
0000
,
1000
0000
0000
0000
,
0010
0000
0000
0000
,
1000
0000
0000
0000
,
0100
0000
1000
0000
,
0001
0000
0110
0000
,
1001
0000
0000
0000
,
1000
0100
1000
0000
,
0010
0100
0001
0000
,
0010
0100
1000
0000
,
1001
0000
0110
0000
,
1000
0100
1000
0000
,
0100
0010
0001
0000
,
0100
0001
0010
0010
,
0010
0000
0100
1000
,
0100
0000
0010
0000
,
0001
0000
1000
0100
,
1000
0000
0010
0000
,
0100
0000
0001
0010
,
0100
0000
0010
0000
,
0001
0000
1000
0001
,
0100
0010
0010
0010
,
0100
0001
1000
0000
,
0001
0010
1000
0000
,
0100
0010
0001
0000
,
0100
0001
1000
0010
,
0110
0000
1001
0000
,
0010
1000
0001
0000
,
0001
0010
0100
0000
,
0100
0010
0100
1000
,
1001
0000
0110
0000
,
1000
0000
0000
0000
,
0000
0000
0001
0100
,
0010
0000
0000
0000
,
0000
0000
1000
1000
;

//---------------dance-single - ----------------
#NOTEDATA:;
#CHARTNAME:;
#STEPSTYPE:dance-single;
#DESCRIPTION:;
#CHARTSTYLE:;
#DIFFICULTY:Beginner;
#METER:3;
#RADARVALUES:0.126443,0.181622,0.046997,0.000000,0.000000,113.000000,107.000000,6.000000,0.000000,0.000000,0.000000,0.000000,0.000000,0.000000,0.126443,0.181622,0.046997,0.000000,0.000000,113.000000,107.000000,6.000000,0.000000,0.000000,0.000000,0.000000,0.000000,0.000000;
#CREDIT:;
#DISPLAYBPM:180.000000;
#NOTES:
// measure 0
0000
0000
0000
0000
,  // measure 1
0000
0000
0000
0000
,  // measure 2
0000
0000
0000
0000
,  // measure 3
0000
0000
0000
0000
,  // measure 4
0010
0000
0000
0000
,  // measure 5
0000
0000
0001
0000
,  // measure 6
0100
0000
0000
0000
,  // measure 7
0000
0000
1000
0000
,  // measure 8
0010
0000
0000
0000
,  // measure 9
1000
0000
0000
0000
,  // measure 10
0001
0000
0001
0000
,  // measure 11
0001
0000
0000
0000
,  // measure 12
0010
0000
0000
0000
,  // measure 13
0100
0000
0000
0000
,  // measure 14
1000
0000
1000
0000
,  // measure 15
1000
0000
0000
0000
,  // measure 16
0001
0000
1000
0000
,  // measure 17
0001
0000
0100
0000
,  // measure 18
0010
0000
0010
0000
,  // measure 19
0010
0000
0000
0000
,  // measure 20
1000
0000
0010
0000
,  // measure 21
1000
0000
0001
0000
,  // measure 22
0100
0000
0100
0000
,  // measure 23
0100
0000
0000
0000
,  // measure 24
0001
0000
0000
0000
,  // measure 25
1000
0000
0000
0000
,  // measure 26
0001
0000
0000
0000
,  // measure 27
1001
0000
0000
0000
,  // measure 28
0010
0000
0000
0000
,  // measure 29
1000
0000
0000
0000
,  // measure 30
0100
0000
1000
0000
,  // measure 31
0001
0000
0000
0000
,  // measure 32
0010
0000
0000
0000
,  // measure 33
0100
0000
0000
0000
,  // measure 34
1000
0000
0000
0000
,  // measure 35
0001
0000
0000
0000
,  // measure 36
1000
0000
0000
0000
,  // measure 37
0010
0000
0000
0000
,  // measure 38
0100
0000
0100
0000
,  // measure 39
0001
0000
0000
0000
,  // measure 40
0010
0000
0000
0000
,  // measure 41
0001
0000
0000
0000
,  // measure 42
0100
0000
0000
0000
,  // measure 43
0110
0000
0000
0000
,  // measure 44
0010
0000
0000
0000
,  // measure 45
0010
0000
0000
0000
,  // measure 46
1000
0000
0000
0000
,  // measure 47
0001
0000
0001
0000
,  // measure 48
0001
0000
0010
0000
,  // measure 49
0100
0000
1000
0000
,  // measure 50
0010
0000
0100
0000
,  // measure 51
0001
0000
1000
0000
,  // measure 52
0001
0000
0000
0000
,  // measure 53
0010
0000
0000
0000
,  // measure 54
0001
0000
0100
0000
,  // measure 55
1000
0000
0000
0000
,  // measure 56
0010
0000
0000
0000
,  // measure 57
0000
0000
0000
0000
,  // measure 58
1000
0000
0000
0000
,  // measure 59
0100
0000
0000
0000
,  // measure 60
0010
0000
0000
0000
,  // measure 61
0000
0000
0000
0000
,  // measure 62
0001
0000
0000
0000
,  // measure 63
1000
0000
0000
0000
,  // measure 64
1001
0000
0000
0000
,  // measure 65
0010
0000
0000
0000
,  // measure 66
0100
0000
0000
0000
,  // measure 67
0001
0000
0000
0000
,  // measure 68
1001
0000
0000
0000
,  // measure 69
1000
0000
0000
0000
,  // measure 70
0100
0000
0000
0000
,  // measure 71
1000
0000
1000
0000
,  // measure 72
0001
0000
0000
0000
,  // measure 73
0100
0000
0000
0000
,  // measure 74
0010
0000
0000
0000
,  // measure 75
1000
0000
0000
0000
,  // measure 76
0001
0000
0000
0000
,  // measure 77
0010
0000
0000
0000
,  // measure 78
0001
0000
0000
0000
,  // measure 79
0100
0000
0010
0000
,  // measure 80
1000
0000
0000
0000
,  // measure 81
0001
0000
0000
0000
,  // measure 82
1000
0000
0000
0000
,  // measure 83
0100
0000
0000
0000
,  // measure 84
0110
0000
0000
0000
,  // measure 85
0010
0000
0000
0000
,  // measure 86
0001
0000
0000
0000
,  // measure 87
0100
0000
0000
0000
,  // measure 88
0010
0000
1000
0000
,  // measure 89
0110
0000
0000
0000
,  // measure 90
0000
0000
0001
0001
,  // measure 91
0000
0000
0000
0000
,  // measure 92
0000
0000
1000
1000
;
