#TITLE:ONLY YOU;
#ARTIST:CAPTAIN JACK;
#BANNER:ONLY YOU-bn.png;
#BACKGROUND:ONLY YOU-bg.png;
#JACKET:ONLY YOU-jacket.png;
#MUSIC:ONLY YOU.ogg;
#SAMPLESTART:22.564;
#SAMPLELENGTH:20;
#DISPLAYBPM:93;
#BPMS:0=93.011;
#BGCHANGES:2.5=ONLY YOU.mp4=1=1=0=0=StretchNoLoop==CrossFade==,
;

//---------------dance-single - ----------------
#NOTES:
     dance-single:
     :
     Beginner:
     3:
     :
0000
0000
0000
0000
,
0000
0000
0000
0000
,
0000
0000
0000
0000
,
0000
0000
0000
0000
,
0000
0000
0000
0000
,
0010
0000
0010
0000
,
0000
0001
0001
0001
,
0000
1000
1000
1000
,
1000
0000
0000
0000
,
0000
0010
0010
0010
,
0000
1000
1000
1000
,
0000
0001
0001
0001
,
0001
0000
0000
0000
,
0000
0010
0010
0010
,
0000
0001
0001
0001
,
0000
1000
1000
1000
,
1000
0000
0000
0000
,
1000
1000
0000
0000
,
0010
0010
0000
0000
,
0100
0100
0000
0000
,
1000
1000
0000
0000
,
1000
1000
0000
0100
,
0000
0010
0000
0001
,
0000
0100
0000
0010
,
0000
1000
0000
0001
,
0000
0010
0010
0010
,
0000
1000
1000
1000
,
0000
0001
0001
0001
,
0001
0000
0000
0000
,
0000
0010
0010
0010
,
0000
0001
0001
0001
,
0000
1000
1000
1000
,
1000
0000
0000
0000
;

//---------------dance-single - ----------------
#NOTES:
     dance-single:
     :
     Easy:
     5:
     :
0000
0000
0000
0000
,
0000
0000
0000
0000
,
0000
0000
0000
0000
,
0000
0000
0000
0000
,
0000
0000
0000
0000
,
0010
0010
0010
0010
,
0001
0001
0001
0001
,
1000
1000
1000
1000
,
0100
0000
0000
0000
,
1000
0001
1000
0001
,
1000
0001
1000
0001
,
0010
0100
0010
0100
,
0010
0000
0000
0000
,
0001
0001
1000
1000
,
0100
0100
0010
0010
,
0001
1000
0100
0010
,
0001
0000
0000
0000
,
1000
1000
0100
0000
,
0010
0010
0001
0000
,
0100
0100
0010
0000
,
1000
1000
0001
0000
,
1000
1000
0100
0100
,
0010
0010
0001
0001
,
0100
0100
0010
0010
,
1000
1000
0001
0001
,
1000
0001
1000
0001
,
0010
0100
0010
0100
,
1000
0001
1000
0001
,
0100
0000
0000
0000
,
0001
0010
0100
1000
,
0100
0010
0001
0010
,
0100
1000
0100
0010
,
0001
0000
1001
0000
;

//---------------dance-single - ----------------
#NOTES:
     dance-single:
     :
     Medium:
     7:
     :
0000
0000
0000
0000
,
0000
0000
0000
0000
,
0000
0000
0000
0000
,
0000
0000
0000
0000
,
0000
0000
0000
0000
,
0000
1000
0001
0000
1000
0000
1000
0000
,
0000
0100
0010
0000
0100
0000
0100
0000
,
0000
1000
0001
0000
0010
0000
0010
0000
,
0100
0000
0100
0000
,
0000
1000
0001
0000
1000
0000
1000
0000
,
0000
0010
0100
0000
0010
0000
0010
0000
,
0000
1000
0001
0000
0100
0000
0100
0000
,
0001
0010
0100
1000
,
0000
0001
1000
0000
0001
0000
0001
0000
,
0000
0100
0010
0000
0100
0000
0100
0000
,
0000
0001
1000
0000
0010
0000
0010
0000
,
0100
0000
1001
0000
,
0001
0000
1000
0000
0001
1000
0000
0000
,
0010
0000
0100
0000
0010
0100
0000
0000
,
0001
0000
0010
0000
0001
0010
0000
0000
,
0100
0000
1000
0000
0100
1000
0000
0000
,
0001
0001
1001
0000
1000
0001
0000
0000
,
1000
1000
1001
0000
0010
0100
0000
0000
,
0010
0010
0110
0000
0001
0010
0000
0000
,
0100
0100
1100
0000
0100
1000
0000
0000
,
0000
0001
1000
0000
0001
0000
0001
0000
,
0000
0100
0010
0000
0100
0000
0100
0000
,
0000
0001
1000
0000
0010
0000
0010
0000
,
0100
0001
1000
0001
,
0000
1000
0001
0000
1000
0000
1000
0000
,
0000
0010
0100
0000
0010
0000
0010
0000
,
0000
1000
0001
0000
0100
0000
0100
0000
,
0001
0000
1001
0000
;

//---------------dance-single - ----------------
#NOTES:
     dance-single:
     :
     Hard:
     10:
     :
0000
0000
0000
0000
,
0000
0000
0000
0000
,
0000
0000
0000
0000
,
0000
0000
0000
0000
,
0000
0000
0000
0000
,
1000
0000
0000
0010
0000
0000
1000
0000
0000
0010
0000
1000
0010
0000
0000
1000
0000
0000
0010
0000
0000
0100
0000
0000
,
0001
0000
0000
0100
0000
0000
0001
0000
0000
0100
0000
0001
0100
0000
0000
0001
0000
0000
0100
0000
0000
0010
0000
0000
,
1000
0000
0000
0010
0000
0000
1000
0000
0000
0010
0000
1000
0010
0000
0000
1000
0000
0000
0010
0000
0000
0100
0000
0000
,
0001
0000
0000
0000
0000
0000
0000
0000
1000
0100
0000
1000
0100
0000
0000
0000
0000
0000
0000
0000
0000
0000
0000
0000
,
0001
0000
0000
0010
0000
0000
0001
0000
0000
0010
0000
0001
0010
0000
0000
0001
0000
0000
0010
0000
0000
0100
0000
0000
,
1000
0000
0000
0100
0000
0000
1000
0000
0000
0100
0000
1000
0100
0000
0000
1000
0000
0000
0100
0000
0000
0010
0000
0000
,
0001
0000
0000
0010
0000
0000
0001
0000
0000
0010
0000
0001
0010
0000
0000
0001
0000
0000
0010
0000
0000
0100
0000
0000
,
1000
0000
0000
0100
0000
0000
1000
0000
0000
0100
0000
1000
0100
0000
0000
1000
0000
0000
0100
0000
0000
0010
0000
0000
,
0001
0000
0000
1000
0000
0000
0100
0000
0000
1000
0000
0001
0100
0000
0000
0001
0000
0000
1000
0000
0000
0100
0000
0000
,
1000
0000
0000
0001
0000
0000
0010
0000
0000
0001
0000
1000
0010
0000
0000
1000
0000
0000
0001
0000
0000
0010
0000
0000
,
0001
0000
0000
1000
0000
0000
0100
0000
0000
1000
0000
0001
0100
0000
0000
0001
0000
0000
1000
0000
0000
0100
0000
0000
,
0010
0000
0000
0000
0000
0000
0000
0000
0001
0100
0000
0001
0100
0000
0000
0000
0000
0000
0000
0000
0000
0000
0000
0000
,
1000
1000
0001
0001
0100
0100
0000
0000
,
0010
0010
1000
1000
0001
0001
0000
0000
,
0100
0100
0010
0010
1000
1000
0000
0000
,
0001
0000
0100
0000
0010
1000
0010
1000
,
0001
0100
0010
0000
,
1000
0000
0001
0000
0100
0001
0100
0001
,
1000
0001
0100
0000
,
1001
1001
1001
0000
,
0001
0000
0000
0010
0000
0000
0001
0000
0000
0010
0000
0001
0010
0000
0000
0001
0000
0000
0010
0000
0000
0100
0000
0000
,
1000
0000
0000
0100
0000
0000
1000
0000
0000
0100
0000
1000
0100
0000
0000
1000
0000
0000
0100
0000
0000
0010
0000
0000
,
0001
0000
0000
0010
0000
0000
0001
0000
0000
0010
0000
0001
0010
0000
0000
0001
0000
0000
0010
0000
0000
0100
0000
0000
,
1000
0000
0000
0100
0000
0000
1000
0000
0000
0100
0000
1000
0100
0000
0000
1000
0000
0000
0100
0000
0000
0010
0000
0000
,
0001
0000
0000
1000
0000
0000
0100
0000
0000
1000
0000
0001
0100
0000
0000
0001
0000
0000
1000
0000
0000
0100
0000
0000
,
1000
0000
0000
0001
0000
0000
0010
0000
0000
0001
0000
1000
0010
0000
0000
1000
0000
0000
0001
0000
0000
0010
0000
0000
,
0001
0000
0000
1000
0000
0000
0100
0000
0000
1000
0000
0001
0100
0000
0000
0001
0000
0000
1000
0000
0000
0100
0000
0000
,
0010
0000
0000
0000
0000
0000
0000
0000
0001
0100
0000
0001
0100
0000
0000
0000
0000
0000
0000
0000
0000
0000
0000
0000
;

//---------------dance-single - ----------------
#NOTES:
     dance-single:
     :
     Challenge:
     12:
     :
0000
0000
0000
0000
,
0000
0000
0000
0000
,
0000
0000
0000
0000
,
0000
0000
0000
0000
,
0000
0000
0000
0000
0000
0000
0010
0100
,
1001
0000
0000
0010
0000
0000
0100
0000
0000
0000
0000
0000
0100
0000
0000
0000
0000
0001
0000
0000
0001
1000
0000
1000
,
0100
0000
0000
1000
0000
0000
0001
0000
0000
0000
0000
0000
0001
0000
0000
0000
0000
0100
0000
0000
0100
0010
0000
0010
,
1000
0000
0000
0100
0000
0000
0010
0000
0000
0000
0000
0000
0010
0000
0000
0000
0000
0001
0000
0000
0100
0010
0000
1000
,
0001
0000
1000
0100
0000
0000
0000
0000
1000
0001
0000
1000
0001
0000
0000
0000
0000
0000
0010
0000
0000
0100
0000
0000
,
1001
0000
0000
0010
0000
1000
0100
0000
0000
0010
0000
0001
0100
0000
0000
0010
0000
1000
0000
0000
1000
0100
0000
0010
,
0001
0000
0000
1000
0000
0001
0100
0000
0000
0010
0000
1000
0100
0000
0000
1000
0000
0001
0000
0000
0001
0010
0000
0001
,
0100
0000
0000
0010
0000
1000
0010
0000
0000
0100
0000
0001
1000
0000
0000
0100
0000
0010
0000
0000
0001
0100
0000
0010
,
1000
0000
0100
1000
0000
0000
0001
0000
0000
0000
0000
0110
0000
0000
0110
0000
0000
0001
0010
0000
0100
1000
0000
0000
,
1001
0000
0000
0001
0000
0001
0010
0000
0000
0100
0000
0100
1000
0000
0000
0010
0000
0100
0000
0000
0010
1000
0000
0010
,
1000
0000
0000
0100
0000
0010
0001
0000
0000
0100
0000
0010
1000
0000
0000
0001
0000
0010
0000
0000
0001
1000
0000
0001
,
0100
0000
0000
0001
0000
0001
1000
0000
0000
0100
0000
0100
1000
0000
0000
0010
0000
0100
0000
0000
0001
0010
0000
0100
,
1000
0000
0100
1000
0000
0000
0000
0000
0001
1000
0000
0001
2000
0000
0000
0000
0000
0000
0000
0000
0000
0000
0000
0000
,
3010
0000
0010
0001
0000
0001
0010
0000
0010
1000
0000
1000
0100
0000
0000
0010
0000
0000
0011
0000
0000
1100
0000
0000
,
0001
0000
0001
0100
0000
0100
1000
0000
1000
0100
0000
0100
0001
0000
0000
0010
0000
0000
0011
0000
0000
1100
0000
0000
,
0100
0000
0100
0001
0000
0001
0100
0000
0100
1000
0000
1000
0001
0000
0000
0010
0000
0000
0011
0000
0000
1100
0000
0000
,
0001
0000
0001
1000
0000
1000
0001
0000
1000
0100
0000
0000
1010
0000
0000
0000
0000
0000
0101
0000
0000
0000
0000
0000
,
0011
0000
0000
0110
0000
0000
1100
0000
0000
0000
0000
0000
1100
0000
0000
0110
0000
0000
0011
0000
0000
0000
0000
0100
,
0010
1001
0110
0000
1001
1010
1100
0000
,
1001
0000
0000
0101
0000
0000
0011
0000
0000
0000
0000
0100
0010
0000
0000
1010
0000
0000
0101
0000
0000
0000
0000
0000
,
0010
0000
0000
0010
0000
0000
0010
0000
0000
0001
0000
0100
0001
0000
0000
1000
0000
0000
0110
0000
0000
0100
0000
0000
,
1001
0000
0000
0010
0000
0010
1000
0000
0000
0100
0000
0100
0010
0000
0000
0001
0000
1000
0000
0000
0001
0010
0000
0001
,
0100
0000
0000
0010
0000
0010
1000
0000
0000
0001
0000
0001
0010
0000
0000
0001
0000
0100
0000
0000
0100
0010
0000
1000
,
0100
0000
0000
1000
0000
1000
0001
0000
0000
0010
0000
0010
0100
0000
0000
0010
0000
0001
0000
0000
1000
0001
0000
1000
,
0100
0000
0010
0001
0000
0000
1000
0000
0000
0000
0000
0110
0000
0000
0110
0000
0000
0001
0010
0000
0000
0100
0000
0000
,
1001
0000
0000
0100
0000
1000
0001
0000
0000
0100
0000
0001
1000
0000
0000
0010
0000
0100
0000
0000
0100
0001
0000
1000
,
0001
0000
0000
1000
0000
0100
0010
0000
0000
0001
0000
1000
0100
0000
0000
1000
0000
0010
0000
0000
0010
0100
0000
0100
,
0001
0000
0000
0010
0000
0001
0100
0000
0000
0010
0000
1000
0100
0000
0000
1000
0000
0001
0000
0000
1000
0100
0000
0010
,
0001
0000
0100
0001
0000
0000
0000
0000
1000
0001
0000
1000
0001
0000
0000
0000
0000
0000
0000
0000
0000
0000
0000
0000
;

//---------------dance-double - ----------------
#NOTES:
     dance-double:
     :
     Easy:
     5:
     :
00000000
00000000
00000000
00000000
,
00000000
00000000
00000000
00000000
,
00000000
00000000
00000000
00000000
,
00000000
00000000
00000000
00000000
,
00000000
00000000
00000000
00000000
,
10000000
10000000
00010000
00010000
,
00100000
00100000
00001000
00001000
,
00010000
00010000
00000010
00000010
,
00001000
00000000
00000000
00000000
,
00000001
00000001
00000100
00000100
,
00000010
00000010
00010000
00010000
,
00001000
00001000
01000000
01000000
,
00010000
10000000
01000000
00100000
,
00010000
00010000
01000000
01000000
,
00001000
00001000
00010000
00010000
,
00000100
00000100
00001000
00001000
,
00000001
00000000
00000000
00000000
,
00001000
00000010
00001000
00000000
,
00000100
00010000
00000100
00000000
,
00010000
00001000
00010000
00000000
,
00001000
01000000
00001000
00000000
,
00100000
00010000
00100000
00010000
,
10000000
00010000
10000000
00010000
,
01000000
00001000
01000000
00001000
,
00010000
00000010
00010000
00000010
,
00001000
00000001
00001000
00001001
,
00000010
00010000
00001000
00011000
,
01000000
00010000
10000000
10010000
,
00100000
00100000
00001000
00001000
,
00010000
00000010
00000100
00000110
,
00000001
00001000
00000010
00011000
,
00100000
01000000
00010000
10010000
,
00010000
00000000
00011000
00000000
;

//---------------dance-double - ----------------
#NOTES:
     dance-double:
     :
     Medium:
     8:
     :
00000000
00000000
00000000
00000000
,
00000000
00000000
00000000
00000000
,
00000000
00000000
00000000
00000000
,
00000000
00000000
00000000
00000000
,
00000000
00000000
00000000
00000000
00000000
00000000
00010000
00010000
,
10000000
01000000
00100000
00010000
,
00100000
00000000
00001000
00000000
00010000
00000000
00000100
00000100
,
00001000
00000010
00000100
00000001
,
00001000
00000000
00000000
00000000
00000000
00000000
00000000
00000000
00000000
00000010
00000000
00000001
00000010
00000000
00000000
00000000
00000000
00000000
00000001
00000000
00000000
00000001
00000000
00000000
,
00001000
00000100
00010000
00001000
,
00100000
00000000
00010000
00000000
01000000
00000000
00100000
00100000
,
10000000
00010000
01000000
00001000
,
00010000
00000000
00000100
00000000
00001000
00000000
00000001
00000001
,
00000100
00000000
00000010
00000000
00010000
00001000
01000000
00000000
,
00010000
00000000
10000000
00000000
01000000
00100000
00010000
00010000
,
10000000
00100000
01000000
00100000
,
01100000
00000000
00000000
00000000
00000000
00000000
00000000
00000000
00000000
00001000
00000000
00010000
00001000
00000000
00000000
00000000
00000000
00000000
00000000
00000000
00000000
00000000
00000000
00000000
,
00010000
00001000
00010000
00000010
00001000
00001000
00000000
00000000
,
00000100
00001000
00000100
00010000
00001000
00001000
00000000
00000000
,
01000000
00010000
01000000
00100000
10000000
10000000
00000000
00000000
,
00100000
10000000
00100000
01000000
00010000
00010000
00000000
00000000
,
00100000
00001000
00010000
00000000
00000100
00000100
00000100
00000000
,
00001000
00000001
00001000
00000000
00000010
00000010
00000010
00000000
,
00010000
00001000
00100000
00000000
01000000
01000000
01000000
00000000
,
10000000
00010000
01000000
00100000
10000000
00010000
01000000
01000000
,
00001000
00000000
00100000
00000000
00001000
00010000
00000100
00000000
,
00000010
00000000
00000001
00000000
00001000
00000100
00000010
00000010
,
00000001
00000000
00001000
00000000
00000100
00010000
00001000
00000000
,
01000000
00000000
00100000
00000000
10000000
00010000
10000000
10000000
,
01000000
00000000
00100000
00000000
00010000
01000000
00001000
00000000
,
00010000
00000000
00000010
00000000
00000100
00000001
00001000
00001000
,
00000010
00000000
00000100
00000000
00000001
00000001
00000100
00000100
,
00001001
00010000
00011000
00000000
;

//---------------dance-double - ----------------
#NOTES:
     dance-double:
     :
     Hard:
     10:
     :
00000000
00000000
00000000
00000000
,
00000000
00000000
00000000
00000000
,
00000000
00000000
00000000
00000000
,
00000000
00000000
00000000
00000000
,
00000000
00000000
00000000
00000000
,
10000000
00000000
00000000
01000000
00000000
00000000
10000000
00000000
00000000
01000000
00000000
00100000
00010000
00000000
00000000
01000000
00000000
00000000
00010000
00000000
00000000
01000000
00000000
00000000
,
00001000
00000000
00000000
00010000
00000000
00000000
00000100
00000000
00000000
00000010
00000000
00000001
00001000
00000000
00000000
00000100
00000000
00000000
00001000
00000000
00000000
00000001
00000000
00000000
,
00000100
00000000
00000000
00000010
00000000
00000000
00010000
00000000
00000000
00001000
00000000
01000000
00100000
00000000
00000000
10000000
00000000
00000000
00100000
00000000
00000000
01000000
00000000
00000000
,
00010000
01000000
10010000
00000000
,
00010000
00000000
00000000
00000100
00000000
00000000
00010000
00000000
00000000
00000100
00000000
00000010
00000001
00000000
00000000
00000100
00000000
00000000
00000001
00000000
00000000
00000100
00000000
00000000
,
00001000
00000000
00000000
00010000
00000000
00000000
00001000
00000000
00000000
01000000
00000000
00010000
10000000
00000000
00000000
01000000
00000000
00000000
10000000
00000000
00000000
00010000
00000000
00000000
,
01000000
00000000
00000000
00001000
00000000
00000000
00010000
00000000
00000000
00000010
00000000
00000100
00000001
00000000
00000000
00001000
00000000
00000000
00000010
00000000
00000000
00010000
00000000
00000000
,
00001000
00100000
00010000
01000000
,
10000000
00000000
00000000
01000000
00000000
00000000
10000000
00000000
00000000
01000000
00000000
00100000
00010000
00000000
00000000
01000000
00000000
00000000
00010000
00000000
00000000
01000000
00000000
00000000
,
00001000
00000000
00000000
00010000
00000000
00000000
00000100
00000000
00000000
00000010
00000000
00000001
00001000
00000000
00000000
00000100
00000000
00000000
00001000
00000000
00000000
00000001
00000000
00000000
,
00000100
00000000
00000000
00000010
00000000
00000000
00010000
00000000
00000000
00001000
00000000
01000000
00100000
00000000
00000000
10000000
00000000
00000000
00100000
00000000
00000000
01000000
00000000
00000000
,
00010000
01000000
10010000
00000000
,
01000000
00100000
01000000
00100000
10000000
00010000
01000000
00001000
,
00010000
00000100
00010000
00000100
00001000
00000001
00000100
00000010
,
00010000
00001000
00010000
00001000
01000000
00010000
10000000
00100000
,
01000000
00001000
01000000
00001000
00010000
00000000
00011000
00000000
,
00000010
00000010
00001000
00000001
00000100
00000010
00010000
00000000
,
00001000
00001000
01000000
00100000
10000000
00010000
10000000
00000000
,
01000000
01000000
00010000
00100000
00001000
00010000
00000100
00000000
,
00001000
00000001
00000100
00000010
00001000
00000001
00000100
00000000
,
00001000
00000000
00000000
01000000
00000000
00000000
00001000
00000000
00000000
01000000
00000000
00100000
10000000
00000000
00000000
01000000
00000000
00000000
10000000
00000000
00000000
01000000
00000000
00000000
,
00010000
00000000
00000000
00001000
00000000
00000000
00010000
00000000
00000000
00000100
00000000
00001000
00000001
00000000
00000000
00000100
00000000
00000000
00000001
00000000
00000000
00001000
00000000
00000000
,
00000100
00000000
00000000
00010000
00000000
00000000
00001000
00000000
00000000
00100000
00000000
01000000
10000000
00000000
00000000
00010000
00000000
00000000
00100000
00000000
00000000
00001000
00000000
00000000
,
00010000
00000010
00001000
00000100
,
00000001
00000000
00000000
00000100
00000000
00000000
00000001
00000000
00000000
00000100
00000000
00000010
00001000
00000000
00000000
00000100
00000000
00000000
00001000
00000000
00000000
00000100
00000000
00000000
,
00010000
00000000
00000000
00001000
00000000
00000000
01000000
00000000
00000000
00100000
00000000
10000000
00010000
00000000
00000000
01000000
00000000
00000000
00010000
00000000
00000000
10000000
00000000
00000000
,
01000000
00000000
00000000
00100000
00000000
00000000
00001000
00000000
00000000
00010000
00000000
00000100
00000010
00000000
00000000
00000001
00000000
00000000
00000010
00000000
00000000
00000100
00000000
00000000
,
00001000
00000100
00001001
00000000
;

//---------------dance-couple - ----------------
#NOTES:
     dance-couple:
     :
     Medium:
     1:
     :
00000000
00000000
00000000
00000000
,
00000000
00000000
00000000
00000000
,
00000000
00000000
00000000
00000000
,
00000000
00000000
00000000
00000000
,
00000000
00000000
00000000
00000000
,
10000001
00010000
00100001
01000000
,
10000001
00010000
00100001
01000000
,
10000001
00010000
00100001
01000000
,
10010001
00010000
10010001
00000000
,
10001000
00000001
10000010
00000100
,
10001000
00000001
10000010
00000100
,
10001000
00000001
10000010
00000100
,
10001001
00000001
10001001
00000000
,
10001000
00010001
00100010
01000100
,
10001000
00010001
00100010
01000100
,
10001000
00010001
00100010
01000100
,
10011001
00010001
01100110
00000000
,
10000000
00000000
00010000
00000000
10000000
00010000
00000000
00000000
,
00001000
00000000
00000001
00000000
00001000
00000001
00000000
00000000
,
00100000
00000000
01000000
00000000
10000000
00010000
00000000
00000000
,
00000010
00000000
00000100
00000000
00001000
00000001
00000000
00000000
,
10000000
10000000
10010000
00000000
00001000
00001000
00001001
00000000
,
00100000
00100000
01100000
00000000
00000010
00000010
00000110
00000000
,
10001000
00010001
01100110
00000000
00100010
01000100
10011001
00000000
,
10001000
00100010
01000100
00010001
10001000
00010001
10011001
00000000
,
00000000
00010001
10000000
00000001
00010000
00000001
00010000
00000001
,
00000000
01000001
00100000
00000001
01000000
00000001
01000000
00000001
,
00000000
10000001
00001000
10000000
00000001
10000000
00000001
10000000
,
00000000
10000100
00000010
10000000
00000100
10000000
00000100
10000000
,
00000000
00010001
10001000
00000000
00100010
00000000
01000100
00000000
,
00000000
00010001
10001000
00000000
00100010
00000000
01000100
00000000
,
00000000
00010001
10001000
00000000
00010001
00010001
10001000
10001000
,
10011001
00000000
10011001
00000000
;

//---------------dance-solo - ----------------
#NOTES:
     dance-solo:
     :
     Easy:
     3:
     :
000000
000000
000000
000000
,
000000
000000
000000
000000
,
000000
000000
000000
000000
,
000000
000000
000000
000000
,
000000
000000
000000
000000
,
100000
010000
100000
010000
,
001000
001000
001000
001100
,
000001
000010
000001
000010
,
000001
000001
000001
100001
,
010000
000010
010000
000010
,
100000
000001
001000
001100
,
100000
000001
100000
000001
,
010000
000010
010000
010010
,
001000
000100
001000
000001
,
100000
010000
100000
100001
,
000100
000010
000100
000010
,
100000
001000
100000
101000
,
100000
000001
100000
000000
,
000100
001000
000100
000000
,
100000
010000
100000
000000
,
000001
000010
000001
000000
,
100000
001000
000100
000001
,
000100
001000
100000
000001
,
010000
000010
100000
000001
,
001000
000010
010000
000100
,
010000
000010
010000
000010
,
100000
000001
001000
001100
,
100000
000001
100000
000001
,
010000
000010
010000
010010
,
001000
000100
001000
000001
,
100000
010000
100000
100001
,
000100
000010
000100
000010
,
100000
001000
101000
000000
;

//---------------dance-solo - ----------------
#NOTES:
     dance-solo:
     :
     Medium:
     5:
     :
000000
000000
000000
000000
,
000000
000000
000000
000000
,
000000
000000
000000
000000
,
000000
000000
000000
000000
,
000000
000000
000000
000000
000000
000000
100000
000001
,
100000
000010
000000
000000
000000
001000
000100
100000
,
000001
000000
001000
000001
000000
000000
000000
000000
000000
000000
000000
100000
000100
000000
001000
000000
,
000001
000000
100000
000001
000000
000000
000000
000000
000010
000000
000001
000000
000010
000000
000001
000000
,
100000
000000
000000
000000
000000
000000
000001
100000
,
000001
010000
000000
000000
000000
001000
000100
000001
,
100000
000000
001000
100000
000000
000000
000000
000000
000000
000000
000000
000001
000100
000000
001000
000000
,
100000
000000
000001
100000
000000
000000
000000
000000
010000
000000
100000
000000
010000
000000
100000
000000
,
000001
000000
000000
000000
000000
000000
100000
000001
,
100000
000010
000000
000000
000000
001000
000100
100000
,
000001
000000
001000
000001
000000
000000
000000
000000
000000
000000
000000
100000
000100
000000
001000
000000
,
000001
000000
100000
000001
000000
000000
000000
000000
000010
000000
000001
000000
000010
000000
000001
000000
,
100000
000000
000000
000000
,
000001
000001
000001
000000
,
100000
100000
100000
000000
,
000010
000010
000010
000000
,
010000
010000
010000
000000
,
001000
001000
001000
000000
000000
000000
001100
000000
,
000100
000100
000100
000100
000100
000100
100001
000000
,
000001
000001
000001
000000
000000
000000
001100
000000
,
100000
000001
100000
000001
100000
000001
100000
000001
,
100000
000010
000000
000000
000000
001000
000100
100000
,
000001
000000
001000
000001
000000
000000
000000
000000
000000
000000
000000
100000
000100
000000
001000
000000
,
000001
000000
100000
000001
000000
000000
000000
000000
000010
000000
000001
000000
000010
000000
000001
000000
,
100000
000000
000000
000000
000000
000000
000001
100000
,
000001
010000
000000
000000
000000
001000
000100
000001
,
100000
000000
001000
100000
000000
000000
000000
000000
000000
000000
000000
000001
000100
000000
001000
000000
,
100000
000000
000001
100000
000000
000000
000000
000000
010000
000000
100000
000000
010000
000000
100000
000000
,
000001
000000
100001
000000
;

//---------------dance-solo - ----------------
#NOTES:
     dance-solo:
     :
     Hard:
     7:
     :
000000
000000
000000
000000
,
000000
000000
000000
000000
,
000000
000000
000000
000000
,
000000
000000
000000
000000
,
000000
000000
000000
000000
,
000001
000000
101000
000000
000001
000000
000100
001000
100000
000000
101000
000000
100000
000000
000001
000000
,
100000
000000
001001
000000
100000
000000
000100
001000
000001
000000
001001
000000
000001
000000
100000
000000
,
000001
000000
101000
000000
000010
000000
001000
000001
100000
000000
100100
000000
100000
000000
000001
000000
,
010000
000000
000000
000100
100100
000000
000000
000000
,
100000
000000
101000
000000
100000
000000
000100
010000
000001
000000
001001
000000
000010
000000
000100
000000
,
000001
000000
001001
000000
000001
000000
000100
000010
100000
000000
101000
000000
010000
000000
000100
000000
,
100000
000000
010010
000000
000001
000000
100000
000001
001000
000000
001010
000000
001000
000000
010000
000000
,
100000
100000
000001
000001
010000
010000
000010
000010
,
100000
000000
001001
000000
100000
000000
000100
001000
000001
000000
001001
000000
000001
000000
100000
000000
,
000001
000000
101000
000000
000001
000000
000100
001000
100000
000000
101000
000000
100000
000000
000001
000000
,
100000
000000
001001
000000
010000
000000
001000
100000
000001
000000
000101
000000
000001
000000
100000
000000
,
000010
000000
000000
000100
000101
000000
000000
000000
,
000000
000000
001000
000000
000000
000000
000100
000000
000000
000000
001000
000000
000000
000000
010000
001000
,
000000
000000
100000
000000
000000
000000
000001
000000
000000
000000
100000
000000
000000
000000
000010
100000
,
000000
000000
000001
000000
000000
000000
000100
000000
000000
000000
000001
000000
000000
000000
010000
000001
,
000000
000000
001000
000000
000000
000000
000100
000000
000000
000000
001000
000000
000000
000000
000010
001000
,
000000
000000
000001
000000
000000
000000
100000
000000
000000
000000
000001
000000
000000
000000
010000
000001
,
000000
000000
000100
000000
000000
000000
001000
000000
000000
000000
000100
000000
000000
000000
001000
000100
,
000000
000000
010000
000000
000000
000000
000010
000000
000000
000000
010000
000000
000000
000000
000010
010000
,
000000
000001
000000
001000
000000
000001
000000
000001
,
100000
000000
101000
000000
100000
000000
000100
010000
000001
000000
001001
000000
000010
000000
000100
000000
,
000001
000000
001001
000000
000001
000000
000100
000010
100000
000000
101000
000000
010000
000000
000100
000000
,
100000
000000
010010
000000
000001
000000
100000
000001
001000
000000
001010
000000
001000
000000
010000
000000
,
100000
100000
000001
000001
010000
010000
000010
000010
,
100000
000000
001001
000000
100000
000000
000100
001000
000001
000000
001001
000000
000001
000000
100000
000000
,
000001
000000
101000
000000
000001
000000
000100
001000
100000
000000
101000
000000
100000
000000
000001
000000
,
100000
000000
001001
000000
010000
000000
001000
100000
000001
000000
000101
000000
000001
000000
100000
000000
,
000010
000000
000000
000100
000101
000000
000000
000000
;
