#TITLE:ONE AND ONLY;
#SUBTITLE:;
#ARTIST:Yuta Imai;
#TITLETRANSLIT:;
#SUBTITLETRANSLIT:;
#ARTISTTRANSLIT:;
#GENRE:;
#CREDIT:;
#BANNER:ONE AND ONLY-bn.png;
#BACKGROUND:ONE AND ONLY-bg.png;
#LYRICSPATH:;
#CDTITLE:;
#MUSIC:ONE AND ONLY.ogg;
#OFFSET:1.250000;
#SAMPLESTART:58.750000;
#SAMPLELENGTH:20.000000;
#LASTBEATHINT:0.701800;
#SELECTABLE:YES;
#DISPLAYBPM:174.000000;
#BPMS:0.000000=174.000000
;
#STOPS:
;
#BGCHANGES:3.625=ONE AND ONLY.mp4=1.000=1=0=0=StretchNoLoop==CrossFade==,
367.000=ONE AND ONLY-bg.png=1.000=1=0=0=StretchNoLoop==CrossFade==,
99999=-nosongbg-=1.000=0=0=0 // don't automatically add -songbackground-
;
#KEYSOUNDS:;
#ATTACKS:;

//---------------dance-single - ----------------
#NOTES:
     dance-single:
     :
     Hard:
     16:
     0.816606,1.057683,0.111304,0.047702,0.747325,719.000000,705.000000,14.000000,6.000000,0.000000,0.000000,0.816606,1.057683,0.111304,0.047702,0.747325,719.000000,705.000000,14.000000,6.000000,0.000000,0.000000:
0000
0000
0000
0000
,
0000
0000
0000
0000
,
0000
0000
0000
0000
,
0000
0000
0000
0000
,
0000
0000
0000
0000
,
0000
0000
0000
0000
,
0000
0000
0000
0000
,
0000
0000
0000
0000
,
0000
0000
0000
0000
,
1000
0000
0100
0000
1000
0010
0100
0001
,
0010
0000
0001
0100
0001
0010
1000
0001
,
0100
0000
0000
0000
0010
0000
0000
0000
0100
0000
0000
0000
0010
0000
0000
1000
,
0001
0010
0001
0100
,
1000
0000
0010
1000
0010
0100
0001
0010
,
0100
0000
1000
0010
1000
0001
0010
0100
,
1000
0000
0010
0100
0001
0010
0001
0100
,
1000
0010
0001
0100
0001
0010
0100
1000
,
0000
0000
0001
1000
0001
0000
0001
0000
0001
0000
0000
0000
0100
0000
0000
0000
,
0010
1000
0010
0100
0010
1000
0010
0100
,
0001
0000
0000
0000
0001
0000
0000
0000
0001
0000
1000
0100
1000
0000
0001
0000
,
0010
0001
0100
0001
0010
0001
0100
0001
,
0010
0000
0001
0000
0100
0000
0010
1000
0001
1000
0000
0001
1000
0000
0100
0000
,
0010
0010
0010
0001
1000
0100
1000
0001
,
0100
0010
0100
0010
0100
0000
0001
0000
0010
0000
1000
0000
1000
0000
0100
0000
,
1001
0000
0000
0001
0100
0001
1000
0100
1000
0001
0100
0001
,
1000
0100
1000
0001
0100
0001
1000
0100
1000
0010
0100
0001
,
1000
0100
1000
0001
0100
0001
1000
0010
1000
0001
0010
0001
,
1000
0000
0000
0000
0100
0000
0000
0000
1000
0000
0001
0000
0001
0100
0000
0001
,
1000
0000
0000
0000
1100
0000
0000
0000
0101
0000
0000
0000
1100
0000
0001
1000
,
0010
0000
0000
0000
0100
0000
0100
0000
0100
0001
0000
0010
0001
0000
1000
0000
,
0001
0100
0010
0100
0001
0000
0001
0000
0001
0000
1000
0100
0010
0000
0001
1000
,
0001
0000
0000
0100
0010
0000
1000
0001
1000
0000
0100
0010
0001
0000
1000
0000
,
0110
0000
0000
0000
1000
0000
0101
0000
0000
0000
0010
0000
1100
0000
0001
1000
,
0100
0000
0010
0001
0100
0000
0010
1000
0100
0010
0000
0010
0001
0000
1000
0000
,
1010
0000
0000
0000
0001
0100
0010
0000
1000
0100
0010
0000
0001
1000
0000
0001
,
1000
0000
0010
0100
0010
0100
0010
0100
0001
0100
0001
0100
0010
1000
0100
0010
,
0001
0000
0000
0000
0100
0000
0001
0000
1000
0000
0010
0000
1000
0100
0000
1000
,
0001
0000
0100
0000
0010
0000
1000
0000
0100
0010
0000
1000
0001
0000
0000
0000
,
0100
0000
0010
0000
1000
0000
0001
0010
0000
0010
0100
0000
1000
0000
0001
0000
,
0101
0000
0000
0010
0000
0010
1000
0000
0100
0010
0001
0000
1001
0000
0000
0000
,
0100
0000
0010
0000
1000
0000
0001
1000
0000
0010
1000
0000
0100
0000
0001
0000
,
0010
0000
0100
0000
1000
0000
0010
0000
0100
0001
0100
0000
0010
0000
1000
0001
,
2000
0000
0000
0000
3100
0000
0000
0010
0001
0000
0100
0000
0001
0000
1000
0000
,
0010
0000
0000
1000
0000
1000
0001
0000
0010
0100
1000
0000
0001
0000
0100
0000
,
0010
0000
1000
0100
1000
0010
0100
0001
,
2000
0000
0000
0010
0000
0010
0000
0001
,
3001
0100
1000
0010
,
0100
0000
0000
0000
0001
0000
0010
0000
0001
0000
0100
0000
1000
0000
0010
0100
,
0001
0000
1000
0010
1000
0100
1000
0001
,
0100
0000
0010
0000
0100
0000
0010
1000
,
0100
0010
0001
1000
0001
0100
0010
1000
,
0100
0000
0001
1000
0001
0000
0001
0000
0001
0000
1000
0000
0100
0000
0000
0000
,
1010
0000
0000
0000
0000
0000
0001
0100
0010
0000
0000
0010
0000
0000
0010
1000
,
0100
0000
0000
0100
0000
0000
1000
0000
0002
0000
0000
0000
0013
0000
0001
1000
,
0001
0000
0000
0000
0100
0010
0100
0010
0100
0000
0000
0001
0000
0000
1000
0100
,
0010
0000
0000
0010
0000
0000
0001
1000
0010
0000
0000
0010
0000
0000
0100
0001
,
1000
0000
0000
0000
0001
0100
0001
0100
0010
0000
0000
0010
0000
0000
1000
0100
,
0010
0000
0000
0010
0000
0000
0001
0000
0200
0000
0000
0000
0310
0000
1000
0100
,
1000
0000
0000
0000
0001
1000
0010
1000
0001
0000
0000
0100
0000
0000
0010
0000
,
1000
0000
0000
0100
0000
0000
1000
0000
0001
0000
0100
0000
0010
1000
0010
1000
,
0010
0000
0110
0001
0010
1000
0100
0010
,
0001
0000
0000
0000
1000
0000
0010
0000
0000
0000
1000
0000
0001
0100
0001
0100
,
0001
0000
0010
0001
0100
0001
1000
0010
,
0100
0000
1000
0000
0100
0000
0001
0000
0100
0010
1000
0010
1000
0000
0001
0000
,
0010
0000
0001
0100
0001
0000
1000
0000
0100
0000
0010
0001
0010
0000
1000
0000
,
0001
0000
0100
0010
0100
0000
0001
0000
1000
0000
0010
1000
0010
0000
0100
0000
,
0001
0000
0010
0001
0100
0000
0010
1000
0100
0000
0010
0001
1000
0010
1000
0001
,
1000
0000
0000
0000
0100
0000
0000
0000
1000
0000
0001
0000
0001
0000
0100
0010
,
1000
0000
0000
0000
0001
0010
0001
0100
0010
0000
0000
1000
0000
0000
0100
0010
,
0001
0000
1000
0010
0000
1000
0001
0000
0100
0010
0000
0010
1000
0001
1000
0100
,
0010
0000
0000
0000
0001
1000
0010
1000
0100
0000
0000
0010
0000
0000
0001
1000
,
0001
0000
0000
0100
0000
0000
0010
0000
1000
0000
0100
1000
0000
0001
0010
0000
,
1100
0000
0000
0000
1000
0010
0100
0001
1000
0000
0000
0001
0000
0000
0100
0010
,
0100
0000
0000
0001
0010
0000
0001
0000
1000
0000
0010
0000
0100
0000
0001
1000
,
0001
0000
0000
0000
0010
0100
1000
0100
0010
0000
0000
0001
0000
0000
0100
0010
,
0100
0000
0001
1000
0001
0000
0001
0000
0001
0000
0000
0000
0100
0000
0000
0000
,
0101
0000
0000
0000
0010
1000
0001
1000
0100
0000
0000
0100
0000
0000
0100
0010
,
0001
0000
0000
1000
0000
0000
0001
0000
0200
0000
0000
0000
0320
0000
0000
0000
,
1030
0100
0010
0100
1000
0000
0001
0010
0100
0010
0001
0000
1000
0001
0100
0001
,
1000
0000
0010
0100
0001
0100
0010
0000
1000
0100
1000
0100
0010
0001
0010
0001
,
0100
0000
0000
0000
0001
0010
0100
1000
0001
0000
0000
0100
0010
0000
1000
0001
,
1000
0000
0100
0010
0000
0010
0001
0000
0100
0000
1000
0000
0001
0000
0100
0010
,
1000
0000
0000
0000
0001
0010
0001
0100
1000
0010
0000
0010
0100
0000
0001
0000
,
1000
0000
0100
0000
1000
0001
0010
0100
,
1000
0000
0001
0010
0001
0100
1000
0001
,
0100
0000
0010
1000
0010
0000
0100
0000
0001
0010
0001
0000
0100
0000
1000
0001
,
1000
0010
0100
0010
1000
0100
0001
0010
,
0100
0000
0000
0000
1000
0000
0010
0000
1000
0000
0001
0010
0000
0100
1000
0000
,
0010
0000
0000
0000
0100
0000
0001
1000
0010
0000
0100
0000
1000
0000
0001
0010
,
1000
0000
0100
0010
0000
0010
0001
0000
1000
0010
0000
1000
0010
0000
0100
0000
,
0001
0010
0001
0010
0100
1000
0100
1000
0001
0000
0100
0000
0010
0000
1000
0000
,
0100
0000
0001
1000
0001
0000
0001
0000
0001
0000
0000
0000
0100
0000
0000
0000
;

//---------------dance-single - ----------------
#NOTES:
     dance-single:
     :
     Medium:
     12:
     0.548568,0.620021,0.174906,0.143105,0.111304,483.000000,461.000000,22.000000,18.000000,0.000000,0.000000,0.548568,0.620021,0.174906,0.143105,0.111304,483.000000,461.000000,22.000000,18.000000,0.000000,0.000000:
0000
0000
0000
0000
,
0000
0000
0000
0000
,
0000
0000
0000
0000
,
0000
0000
0000
0000
,
0000
0000
0000
0000
,
0000
0000
0000
0000
,
0000
0000
0000
0000
,
0000
0000
0000
0000
,
0000
0000
0000
0000
,
1000
0000
0100
0000
1000
0010
0100
0001
,
0010
0000
0001
1000
0001
0100
0010
1000
,
0002
0000
0000
0000
0000
0003
0000
0010
,
0100
1000
0010
0200
,
0300
0000
0001
0010
0001
0100
0010
1000
,
0001
0000
1000
0100
0010
0100
1000
0001
,
0200
0000
0000
0000
0300
0000
0010
1000
,
0100
1000
0001
0100
,
0000
0001
0001
0001
0001
0000
0100
0000
,
0010
0000
1000
0001
1000
0000
0100
0010
,
0001
0000
0001
0000
0001
0000
1000
0010
,
0200
0302
2003
3002
,
0023
0000
0230
0000
1300
0010
1000
0001
,
0100
0010
0100
0000
0001
1000
0100
0000
,
1000
0001
0100
0000
0000
0010
0100
0000
,
1001
1100
0101
1100
,
1001
0000
0000
0110
0000
0000
1000
0000
1000
0001
0000
0001
,
0100
0000
0000
0010
0000
0000
0100
0000
0100
0001
0000
0001
,
1000
0000
0100
0000
1000
0001
0100
0000
,
0101
0000
1010
0000
0101
0000
1000
0100
,
0001
0000
0010
0001
0010
0100
1000
0001
,
0100
0010
1000
0001
1000
0000
0010
0100
,
0001
0011
1100
0011
,
0110
0000
1000
0100
0000
0010
0001
0100
,
0001
0000
1010
0000
1000
0100
1000
0001
,
0010
0000
0001
0100
0001
0010
0001
1000
,
0100
0010
0100
0010
0100
1000
0001
0100
,
0010
0000
1000
0001
1000
0000
0100
0000
,
1001
0000
0010
1000
0100
0010
0001
0000
,
1000
0010
1000
0100
0001
0010
0100
0000
,
1100
0000
0001
0010
0000
0001
1000
0000
,
0020
0000
0130
0000
0001
0010
1000
0000
,
0100
0010
0100
0000
0000
1000
0001
1000
,
0010
0100
0001
1000
,
0100
0000
0010
0000
0001
1000
0001
0100
,
0010
0000
1000
0100
1000
0010
0100
0002
,
0000
0000
0000
0000
0000
0003
0000
0010
,
0001
0100
1000
0020
,
0030
0000
1000
0010
1000
0100
0010
0001
,
0100
0000
0010
1000
0001
0010
0100
2000
,
0000
0000
0000
0000
3000
0000
0100
1000
,
0010
1000
0001
0100
,
1000
0001
0001
0001
0001
0000
0100
0000
,
1010
0000
0000
0000
0000
0000
0000
0000
0001
0000
0000
0001
0000
0000
0001
0000
,
0010
0000
0000
0010
0000
0000
0100
0000
2000
0000
0000
0000
3000
0000
0000
0000
,
0110
0000
0000
0000
0000
0000
0000
0000
1000
0000
0000
1000
0000
0000
1000
0000
,
0001
0000
0000
0100
0000
0000
0001
0000
0010
0000
0000
0100
0000
0000
1000
0000
,
0001
0000
0000
0000
0000
0000
1000
0000
0010
0000
0000
0010
0000
0000
0100
0000
,
0010
0000
0000
1000
0000
0000
0001
0000
0200
0000
0000
0000
0310
0000
1000
0000
,
0001
0000
0000
0000
0010
0000
0100
0000
1000
0000
0000
0010
0000
0000
1000
0000
,
0001
0000
0001
0000
0001
0100
1000
0000
,
0011
0000
0001
0100
0010
1000
0100
0010
,
0001
0000
0000
0100
0000
0000
1000
0001
,
1000
0000
0010
0100
0010
1000
0000
0001
,
0010
0100
1000
0001
1000
0010
0100
0001
,
1000
0000
0000
0000
0001
0000
0100
0000
0010
0000
0000
1000
0000
0000
0100
0000
,
0010
0000
0000
0001
0000
0000
1000
0000
0001
0000
0000
0100
0000
0000
0010
0000
,
1000
0000
0100
0010
0001
0100
0001
0010
,
1000
0000
0100
0000
1000
0001
0100
0000
,
1001
0000
0000
0000
0010
0000
1000
0000
0100
0000
0000
0010
0000
0000
0001
0000
,
0100
0000
0000
0100
0000
0000
0010
0000
2000
0000
0000
0000
3001
0000
1000
0000
,
0010
0000
0000
0000
1000
0000
0001
0000
0010
0000
0000
0001
0000
0000
0100
0000
,
1000
0000
0000
1000
0000
0000
0001
0000
1000
0000
0000
0010
0000
0000
0100
0000
,
0001
0000
0000
0000
0010
0000
0001
0000
0100
0000
0000
0010
0000
0000
0100
0000
,
0001
0000
0000
0010
0000
0000
1000
0000
0002
0000
0000
0000
0103
0000
0010
0000
,
1000
0000
0000
0000
0100
0000
0010
0000
0001
0000
0000
0100
0000
0000
0001
0000
,
1000
0001
0001
0001
0001
0000
0100
0000
,
0101
0000
0000
0000
0000
0000
0010
0000
1000
0000
0000
1000
0000
0000
1000
0000
,
0001
0000
0000
0001
0000
0000
1000
0000
0200
0000
0000
0000
0300
0000
0000
0000
,
1000
0010
0001
1000
0100
0001
1000
0010
,
0001
1000
0100
0001
1000
0010
0100
0001
,
0010
0000
0000
0000
0001
0000
0100
0000
1000
0000
0000
0010
0000
0000
1000
0000
,
0001
0000
0000
0010
0000
0000
0100
0000
1000
0000
0010
0000
0001
0000
0000
0000
,
1100
0000
0000
0000
0010
0000
0001
0000
0100
0000
0000
1000
0000
0000
0001
0000
,
1000
0000
0100
0000
1000
0010
0100
0001
,
0010
0000
0001
1000
0001
0100
0010
1000
,
0001
0000
0010
0100
0000
1000
0001
1000
,
0010
1000
0100
0010
,
0001
0000
0100
0010
0100
0001
1000
0100
,
0010
0000
0001
1000
0001
0100
0010
1000
,
0100
0000
0010
0001
0000
1000
0100
1000
,
0010
1000
0001
0100
,
1000
0001
0001
0001
0001
0000
0100
0000
;

//---------------dance-single - ----------------
#NOTES:
     dance-single:
     :
     Easy:
     8:
     0.412278,0.510606,0.333911,0.127204,0.000000,363.000000,321.000000,42.000000,16.000000,0.000000,0.000000,0.412278,0.510606,0.333911,0.127204,0.000000,363.000000,321.000000,42.000000,16.000000,0.000000,0.000000:
0000
0000
0000
0000
,
0000
0000
0000
0000
,
0000
0000
0000
0000
,
0000
0000
0000
0000
,
0000
0000
0000
0000
,
0000
0000
0000
0000
,
0000
0000
0000
0000
,
0000
0000
0000
0000
,
0000
0000
0000
0000
,
1000
0100
1000
0001
,
1001
0010
1000
0100
,
1000
0010
1000
0001
,
0010
0100
1000
0010
,
0100
0000
0001
0000
1000
0010
1000
0000
,
0101
0100
1010
0010
,
1001
0100
0011
1000
,
0010
0100
0001
1000
,
0000
0000
0001
0001
0001
0000
0100
0000
,
0010
1000
1000
0100
,
0001
0001
0001
0011
,
1000
0100
1000
0100
,
1000
0000
0010
0000
1000
0001
1000
0000
,
0100
0100
0100
0000
1000
0000
0001
0000
,
0101
0000
1010
0000
0000
1000
0001
0000
,
1001
0020
2030
3200
,
2300
3020
0230
0301
,
0110
1000
0100
0001
,
1000
0000
0100
0000
1000
0010
0100
0000
,
0001
0000
0001
0000
0001
0000
0100
0010
,
0100
0000
0001
0000
1000
0000
0100
1000
,
0010
0000
0101
0000
1100
0000
1000
0001
,
1000
0010
0001
0100
,
0010
0000
0000
1000
0000
0000
0001
1000
,
0100
0000
0010
0000
0001
0000
0100
0001
,
0100
0000
0010
0000
1000
0000
0010
1000
,
0002
0000
1000
0103
,
1001
0010
1000
0100
,
0110
0001
1000
0100
,
2000
3020
0230
0302
,
0013
0000
0000
0001
0000
1000
0001
0000
,
0100
0000
1010
0000
0000
0001
1000
0000
,
0100
0000
0011
0000
0000
1000
0001
0000
,
1000
0010
0001
0100
,
0020
0000
1000
0130
,
0001
0010
0001
1000
,
0010
0000
0000
0000
,
0100
0001
0100
1000
,
0000
0010
1000
0100
,
0010
0001
0100
0010
,
1000
0100
1000
0010
,
1000
0100
0001
0010
,
1000
0000
0001
0001
0001
0000
0100
0000
,
1010
0000
0001
0000
,
1001
0110
1001
0000
,
0010
0000
1000
0100
,
0010
0010
0001
1000
,
0101
0000
0001
0100
,
0110
1001
0110
0000
,
1000
0000
0001
0100
,
0001
0001
0001
0000
,
1100
0010
1000
0100
,
0001
0000
0000
0010
0000
0000
0100
0000
,
1001
0010
1000
0100
,
1000
0000
0010
0000
0001
0100
0001
0000
,
0011
0100
1010
0100
,
0101
0010
1100
0010
,
0001
0001
0001
0001
,
1000
0000
0100
0000
1000
0100
0010
0000
,
0110
0000
0001
0100
,
1000
0010
2000
3000
,
1100
0000
0010
0001
,
0100
0010
1000
0001
,
0011
0000
0001
0100
,
0001
0010
0020
0030
,
1001
0000
1100
0101
,
0010
0000
0001
0001
0001
0000
0100
0000
,
1000
0000
0010
0100
,
0001
1000
0002
0003
,
0011
0000
0000
1100
0000
0000
0101
0000
,
0000
1010
0000
0000
1000
0100
0001
0000
,
0110
0010
1000
0001
,
1000
0010
0200
0300
,
0101
0010
1000
0001
,
1000
0100
1000
0010
,
0100
0001
0010
0001
,
0100
0010
1000
0100
,
1000
0010
0001
0100
,
0001
0010
1000
0100
,
0010
0100
1000
0010
,
1000
0001
0010
0100
,
1000
0010
0001
0100
,
1000
0000
0001
0001
0001
0000
0100
0000
;

//---------------dance-single - ----------------
#NOTES:
     dance-single:
     :
     Beginner:
     3:
     0.183992,0.255303,0.079503,0.015901,0.000000,162.000000,152.000000,10.000000,2.000000,0.000000,0.000000,0.183992,0.255303,0.079503,0.015901,0.000000,162.000000,152.000000,10.000000,2.000000,0.000000,0.000000:
// measure 0
0000
0000
0000
0000
,  // measure 1
0000
0000
0000
0000
,  // measure 2
0000
0000
0000
0000
,  // measure 3
0000
0000
0000
0000
,  // measure 4
0000
0000
0000
0000
,  // measure 5
0000
0000
0000
0000
,  // measure 6
0000
0000
0000
0000
,  // measure 7
0000
0000
0000
0000
,  // measure 8
0000
0000
0000
0000
,  // measure 9
1000
0000
1000
0000
,  // measure 10
0001
0000
0010
0000
,  // measure 11
0001
0000
0000
0000
,  // measure 12
0100
0000
0100
0000
,  // measure 13
0010
0000
1000
0000
,  // measure 14
0100
0000
1000
0000
,  // measure 15
0010
0000
0000
0000
,  // measure 16
0100
0000
0001
0000
,  // measure 17
0000
0000
0001
0000
,  // measure 18
0010
0000
0000
0000
,  // measure 19
0001
0001
0001
0000
,  // measure 20
1000
0000
1000
0000
,  // measure 21
1000
0000
0010
0000
,  // measure 22
0100
0000
0001
0000
,  // measure 23
0100
0000
0010
0000
,  // measure 24
1000
0000
0001
0000
,  // measure 25
0100
0100
0100
0000
,  // measure 26
0010
0010
0010
0000
,  // measure 27
1000
0000
1000
0000
,  // measure 28
0001
0001
0001
0001
,  // measure 29
0001
0000
0010
0000
,  // measure 30
0100
0100
0100
0000
,  // measure 31
1000
0000
0010
0000
,  // measure 32
1001
0000
0000
0000
,  // measure 33
0100
0100
0100
0000
,  // measure 34
0001
0000
0010
0000
,  // measure 35
1000
0000
0000
0000
,  // measure 36
0010
0000
1000
0000
,  // measure 37
0100
0000
0010
0000
,  // measure 38
0002
0000
0003
0000
,  // measure 39
2000
0000
3000
0000
,  // measure 40
0110
0000
0000
0000
,  // measure 41
0100
0000
0000
0000
,  // measure 42
1000
0000
0001
0000
,  // measure 43
0010
0000
0100
0000
,  // measure 44
1000
0000
0000
0000
,  // measure 45
0010
0000
0000
0000
,  // measure 46
1000
0000
0000
0000
,  // measure 47
0100
0000
0000
0000
,  // measure 48
0010
0000
0010
0000
,  // measure 49
0010
0000
0000
0000
,  // measure 50
0001
0000
0001
0000
,  // measure 51
1000
0000
0001
0000
,  // measure 52
1001
0000
0000
0000
,  // measure 53
0010
0010
0010
0000
,  // measure 54
0100
0000
0000
0000
,  // measure 55
0110
0000
1001
0000
,  // measure 56
0110
0000
0000
0000
,  // measure 57
1000
1000
1000
0000
,  // measure 58
0100
0000
1000
0000
,  // measure 59
0010
0010
0010
0000
,  // measure 60
1001
0000
0000
0000
,  // measure 61
0100
0000
0000
0000
,  // measure 62
0110
0000
0000
0000
,  // measure 63
0100
0000
0010
0000
,  // measure 64
1000
0000
0001
0000
,  // measure 65
1000
0000
0010
0000
,  // measure 66
0100
0000
0001
0000
,  // measure 67
1000
0000
1000
0000
,  // measure 68
0001
0000
0010
0000
,  // measure 69
0001
0001
0001
0000
,  // measure 70
0100
0000
0010
0000
,  // measure 71
1000
0000
0100
0000
,  // measure 72
0010
0000
0100
0000
,  // measure 73
0010
0010
0010
0000
,  // measure 74
0001
0000
0100
0000
,  // measure 75
1000
0000
0001
0000
,  // measure 76
1001
0000
0000
0000
,  // measure 77
0000
0000
0000
0000
,  // measure 78
1000
0000
0100
0000
,  // measure 79
1000
0000
0010
0000
,  // measure 80
0110
0000
0010
0000
,  // measure 81
0001
0001
0001
0000
,  // measure 82
0010
0000
0001
0000
,  // measure 83
1000
0000
1000
0000
,  // measure 84
0100
0000
1000
0000
,  // measure 85
0010
0000
0000
0000
,  // measure 86
0100
0000
0001
0000
,  // measure 87
0010
0000
0100
0000
,  // measure 88
1000
0000
1000
0000
,  // measure 89
1000
0000
0000
0000
,  // measure 90
0010
0000
0001
0000
,  // measure 91
0000
0000
0000
0100
;
