#TITLE:O-o-h Child;
#SUBTITLE:;
#ARTIST:The Five Stairsteps;
#TITLETRANSLIT:;
#SUBTITLETRANSLIT:;
#ARTISTTRANSLIT:;
#GENRE:;
#CREDIT:;
#BANNER:O-o-h Child-bn.png;
#BACKGROUND:O-o-h Child-bg.png;
#LYRICSPATH:;
#CDTITLE:;
#MUSIC:O-o-h Child.ogg;
#OFFSET:0.000000;
#SAMPLESTART:35.719002;
#SAMPLELENGTH:20.000000;
#SELECTABLE:YES;
#DISPLAYBPM:86.000000:90.000000;
#BPMS:0.000000=89.000000
,16.000000=87.000000
,20.000000=86.000000
,36.000000=88.000000
,40.000000=86.199997
,44.000000=87.699997
,46.000000=87.129997
,52.000000=90.000000
,64.000000=88.572998
,72.000000=89.250000
,80.000000=88.959999
,84.000000=87.699997
,91.000000=89.300003
,112.000000=88.400002
,116.000000=89.500000
,122.000000=87.675003
,132.000000=88.199997
,136.000000=86.995003
,140.000000=89.800003
;
#STOPS:
;
#BGCHANGES:;
#KEYSOUNDS:;
#ATTACKS:;

//---------------dance-single - ----------------
#NOTES:
     dance-single:
     :
     Hard:
     12:
     0.417519,0.508895,0.221660,0.049258,0.492578,356.000000,329.000000,27.000000,6.000000,0.000000,0.000000,0.417519,0.508895,0.221660,0.049258,0.492578,356.000000,329.000000,27.000000,6.000000,0.000000,0.000000:
0000
0000
0000
0000
,
0000
0000
0000
0000
,
0000
0000
0000
0000
,
0000
0000
0000
0000
,
0000
0000
0000
0000
,
0010
0001
0010
1000
,
0010
0000
0100
0001
0000
1000
0100
0000
1000
0010
1000
0010
0000
0100
0001
0000
,
1000
0000
0000
0000
0010
0000
0000
0000
0100
0000
0000
0000
0001
0010
0001
0000
,
1000
0100
1000
0001
0000
0100
0001
0000
0010
0001
1000
0000
0010
0100
0010
0000
,
0100
0001
0100
1000
,
0100
0000
0010
0001
0000
1000
0010
0000
0100
0001
0100
0001
0000
1000
0010
0000
,
0100
0000
0000
0000
0010
0000
0000
0000
1000
0000
0000
0000
0001
0100
0001
0000
,
1000
0100
0010
0001
0000
0100
0010
0000
1000
0001
1000
0010
0000
0100
0001
0000
,
1001
0000
0000
0000
0110
0000
0100
0000
0001
0000
0100
0010
1000
0000
0000
0000
,
0001
1000
0100
1000
0000
1000
0010
0100
0001
0010
0100
0000
1100
0000
0001
0000
,
0101
0000
0000
0000
1010
0000
0001
0000
1000
0000
0010
1000
0000
0100
0010
0000
,
0001
0100
0001
0100
0000
0010
1000
0000
0001
1000
0100
1000
0010
1000
0100
0000
,
1010
0000
0000
0000
0110
0000
0100
0000
0001
0000
1000
0010
0100
0000
0000
0001
,
1000
0000
0010
0100
0001
0000
1000
0100
0001
0100
1000
0000
1001
0000
0010
0000
,
1100
0000
0000
0000
0011
0000
0001
0000
0100
0000
0010
1000
0100
0010
0001
0000
,
1000
0010
0100
0001
0000
0010
0100
0000
1000
0001
1000
0001
0010
1000
0100
0000
,
0020
0130
0002
1003
,
0001
0000
1000
0010
0000
0100
0000
0010
0100
0001
1000
0000
1100
0000
0011
0000
,
1000
0000
0000
0000
0010
0000
0000
0000
0100
0001
0000
1000
0001
0010
0100
1000
,
0000
0010
1000
0001
0000
1000
0100
0000
0010
0001
0100
0000
0001
1000
0100
0000
,
2000
3010
0200
0301
,
0010
0000
0001
0100
0000
0010
0000
1000
0100
1000
0001
0000
0101
0000
0110
0000
,
1000
0000
0000
0000
0001
0000
0000
0000
1000
0010
0000
0100
0010
0100
0001
1000
,
0000
1000
0100
0010
0000
0001
0100
0000
0001
1000
0001
0010
0100
1000
0010
0000
,
0100
1010
0100
0011
,
1000
0000
0001
0100
0000
0010
1000
0000
0001
1000
0100
0010
0000
0001
0100
0000
,
0010
0000
0000
0000
1000
0000
0000
0000
0001
0000
0000
0000
0100
0010
0100
0000
,
0001
1000
0100
0010
0000
0100
1000
0000
0001
0010
0001
0000
0010
0100
1000
0000
,
0010
1100
0010
0101
,
0010
0000
1000
0001
0000
1000
0100
0000
1000
0010
0100
0001
0000
1000
0001
0000
,
0100
0000
0000
0000
0010
0000
0000
0000
1000
0000
0000
0000
0001
1000
0001
0000
,
1000
0010
0100
0001
0000
1000
0100
0000
1000
0001
0010
0001
0100
0010
1000
0000
,
0101
0000
0101
0000
1000
0001
0000
0001
1000
0100
1000
0010
0000
0100
0010
0000
,
1010
0000
1010
0000
1000
0001
0000
0010
0001
0100
0010
1000
0000
0100
1000
0000
,
1100
0000
1100
0000
0010
0001
0000
0100
0010
1000
0100
1000
0000
1000
0001
0000
,
0011
0000
0011
0000
0001
0100
0000
0010
1000
0100
0010
0001
0010
0100
1000
0000
,
2002
0000
0000
0000
,
0000
0000
0000
3003
;

//---------------dance-single - ----------------
#NOTES:
     dance-single:
     :
     Medium:
     9:
     0.253326,0.298318,0.147774,0.114935,0.000000,216.000000,198.000000,18.000000,14.000000,0.000000,0.000000,0.253326,0.298318,0.147774,0.114935,0.000000,216.000000,198.000000,18.000000,14.000000,0.000000,0.000000:
0000
0000
0000
0000
,
0000
0000
0000
0000
,
0000
0000
0000
0000
,
0000
0000
0000
0000
,
0000
0000
0000
0000
,
0010
1000
0100
0001
,
0010
0001
0010
0001
0100
0010
1000
0000
,
0001
0100
0010
1000
,
0100
0010
0001
0000
1000
0001
0100
0000
,
0010
1000
0100
0001
,
0010
0001
0010
0001
0100
0010
1000
0000
,
0001
1000
0010
0100
,
0001
1000
0100
0000
0010
0001
1000
0000
,
1001
0000
0110
0000
1000
0100
0001
0000
,
0010
0001
0010
0100
1000
1000
1000
0001
,
0100
0000
0101
0000
1010
0000
0001
1000
,
0001
0010
0100
0000
1000
0001
1000
0010
,
0100
1001
0110
1001
,
0100
0001
0100
0010
1000
1000
1000
0001
,
0010
0000
0011
0000
1100
0000
0010
1000
,
0010
0100
0001
0000
1000
0100
0010
0000
,
0002
0203
0320
0030
,
0010
1000
0100
0010
0001
0001
0001
0000
,
2000
0000
3020
0000
0230
0000
0301
1000
,
0001
0010
0100
0000
1100
0000
0101
0000
,
2000
3020
0230
0300
,
0100
0001
1000
0001
0010
0010
0010
0000
,
0002
0000
0203
0000
0320
0000
1030
0001
,
0010
0100
1000
0000
0001
0001
0001
0000
,
0010
0001
0100
1000
,
0010
1000
0001
1000
0100
0010
0001
0000
,
0100
0010
1000
0001
,
0010
0001
1000
0000
0000
0010
0100
0010
,
1000
0100
0010
0001
,
1000
0001
1000
0010
0100
0010
1000
0000
,
0001
0010
1000
0100
,
0010
0100
1000
0000
0010
1000
0001
0000
,
0011
0011
0011
0000
1000
0100
1000
0000
,
0010
1000
0100
0000
1000
0010
0001
0000
,
1100
1100
1100
0000
0010
0001
0100
0000
,
0010
1000
0100
0000
1000
0010
0001
0000
,
2002
0000
0000
0000
,
0000
0000
0000
3003
;

//---------------dance-single - ----------------
#NOTES:
     dance-single:
     :
     Easy:
     5:
     0.133700,0.175481,0.065677,0.106725,0.000000,114.000000,106.000000,8.000000,13.000000,0.000000,0.000000,0.133700,0.175481,0.065677,0.106725,0.000000,114.000000,106.000000,8.000000,13.000000,0.000000,0.000000:
0000
0000
0000
0000
,
0000
0000
0000
0000
,
0000
0000
0000
0000
,
0000
0000
0000
0000
,
0000
0000
0000
0000
,
0010
0000
0100
0000
,
0010
0000
1000
0001
,
1000
0000
0100
0000
,
0010
0000
0001
1000
,
0001
0000
0010
0000
,
0001
0000
1000
0100
,
1000
0000
0010
0000
,
0100
0100
0001
1000
,
1001
0010
1000
0100
,
1000
1000
0001
0100
,
0000
0020
0200
0330
,
1001
0000
0000
0010
,
0110
0100
0001
1000
,
0001
0001
0010
0100
,
0000
2000
0002
3003
,
0110
0000
1000
0001
,
0010
0001
0200
0300
,
0010
0010
0010
1000
,
0100
0010
0001
1000
,
0001
0002
0000
0003
,
0100
0001
0020
0030
,
0100
0100
0100
1000
,
0001
1000
0010
1000
,
0100
0100
1000
0001
,
0100
0000
0010
0000
,
0100
0000
0001
1000
,
0100
0000
0010
0000
,
0001
0000
1000
0001
,
1000
0000
0010
0000
,
0100
0000
0010
0100
,
0001
0000
1000
0000
,
0100
0110
1000
0001
,
0220
0000
0000
0330
,
1000
0010
1000
0001
,
2002
0000
0000
3003
,
0100
0010
1000
0001
,
2002
0000
0000
0000
,
0000
0000
0000
3003
;

//---------------dance-single - ----------------
#NOTES:
     dance-single:
     :
     Beginner:
     2:
     0.072714,0.122837,0.024629,0.032839,0.000000,62.000000,59.000000,3.000000,4.000000,0.000000,0.000000,0.072714,0.122837,0.024629,0.032839,0.000000,62.000000,59.000000,3.000000,4.000000,0.000000,0.000000:
// measure 0
0000
0000
0000
0000
,  // measure 1
0000
0000
0000
0000
,  // measure 2
0000
0000
0000
0000
,  // measure 3
0000
0000
0000
0000
,  // measure 4
0000
0000
0000
0000
,  // measure 5
0010
0000
0100
0000
,  // measure 6
0010
0000
0000
0000
,  // measure 7
0001
0000
1000
0000
,  // measure 8
0001
0000
0000
0000
,  // measure 9
0100
0000
0010
0000
,  // measure 10
0100
0000
0000
0000
,  // measure 11
1000
0000
0001
0000
,  // measure 12
1000
0000
0000
0000
,  // measure 13
0010
0000
0100
0000
,  // measure 14
0001
0001
0001
0000
,  // measure 15
1000
0000
0001
0000
,  // measure 16
1001
0000
0000
0000
,  // measure 17
0100
0000
0010
0000
,  // measure 18
1000
1000
1000
0000
,  // measure 19
0001
0000
1000
0000
,  // measure 20
1001
0000
0000
0000
,  // measure 21
1000
0000
0001
0000
,  // measure 22
0100
0100
0100
0000
,  // measure 23
0010
0000
1000
0000
,  // measure 24
0001
0000
0000
0000
,  // measure 25
0010
0000
0100
0000
,  // measure 26
1000
1000
1000
0000
,  // measure 27
0010
0000
0100
0000
,  // measure 28
0001
0000
0000
0000
,  // measure 29
1000
0000
0100
0000
,  // measure 30
1000
0000
0000
0000
,  // measure 31
0001
0000
0100
0000
,  // measure 32
0001
0000
0000
0000
,  // measure 33
0001
0000
0010
0000
,  // measure 34
0001
0000
0000
0000
,  // measure 35
1000
0000
0010
0000
,  // measure 36
1000
0000
0000
0000
,  // measure 37
0020
0000
0000
0000
,  // measure 38
0030
0000
0000
0000
,  // measure 39
0200
0000
0000
0000
,  // measure 40
0300
0000
0000
0000
,  // measure 41
2002
0000
0000
0000
,  // measure 42
0000
0000
0000
3003
;
