#TITLE:Nova emo�o;
#SUBTITLE:;
#ARTIST:Berimbau '66;
#TITLETRANSLIT:Nova emocao;
#SUBTITLETRANSLIT:;
#ARTISTTRANSLIT:;
#GENRE:;
#CREDIT:;
#BANNER:Nova emoção-bn.png;
#BACKGROUND:Nova emoção-bg.png;
#LYRICSPATH:;
#CDTITLE:;
#MUSIC:Nova emoção.ogg;
#OFFSET:1.277000;
#SAMPLESTART:26.042000;
#SAMPLELENGTH:20.000000;
#LASTBEATHINT:0.433967;
#SELECTABLE:YES;
#DISPLAYBPM:94.000000:272.000000;
#BPMS:0.000000=94.000000
,4.000000=188.000000
,60.000000=136.000000
,76.000000=272.000000
,220.000000=136.000000
,224.000000=272.000000
,288.000000=136.000000
;
#STOPS:
;
#BGCHANGES:;
#KEYSOUNDS:;
#ATTACKS:;

//---------------dance-single - ----------------
#NOTES:
     dance-single:
     :
     Challenge:
     15:
     0.854856,1.182907,0.555656,0.042743,0.395371,560.000000,508.000000,52.000000,4.000000,0.000000,0.000000,0.854856,1.182907,0.555656,0.042743,0.395371,560.000000,508.000000,52.000000,4.000000,0.000000,0.000000:
0000
0000
0000
0000
,
0011
0000
0001
0100
0010
1000
0100
0010
,
0001
0000
1000
0001
1000
0010
0100
0001
,
1000
0000
0010
0100
0010
1000
0100
0010
,
0001
0100
0010
0100
0001
0100
0010
1000
,
0100
0000
0010
0001
1000
0001
0100
0010
,
1000
0100
0010
0001
0100
0010
0000
1000
,
0001
0000
0010
0001
1000
0010
0100
0010
,
1000
0001
1000
0100
0010
0001
0100
0010
,
1000
0000
0001
1000
0001
0100
0010
1000
,
0100
0010
0001
0100
0001
1000
0010
0100
,
0001
0000
1000
0001
1000
0100
0010
0001
,
0100
0010
1000
0001
1000
0100
0010
0000
,
0011
0000
0100
0001
1000
0001
0010
0100
,
1000
0010
1000
0000
0001
0010
0100
0000
,
1100
0000
0000
0001
0000
0001
0000
0001
0200
0000
0000
0000
0300
0000
0110
0000
,
1001
0000
0000
0010
0000
0010
0000
0010
2000
0000
0000
0000
3000
0000
1100
0000
,
0001
0100
0000
0100
0010
0000
1010
0000
1000
0100
0000
0100
0010
0000
0011
0000
,
1001
0000
0000
0000
0100
0000
0000
0000
1001
0000
0000
0000
0100
0000
0000
0000
1001
0000
0000
0000
0000
0000
0000
0000
0000
0000
0000
0000
0000
0010
0000
0000
,
1000
0100
0000
1010
0000
1010
0000
1010
,
0000
0100
0000
0001
0000
1000
0000
0000
,
0001
0100
0000
0100
0010
1000
0000
1000
,
0100
0010
0000
0010
0001
1000
0000
1000
,
0010
0100
0000
0101
0000
0101
0000
0101
,
0000
1000
0000
0100
0000
0010
0000
0000
,
0001
1000
0000
1000
0010
0100
0000
0100
,
0001
0010
0000
0010
0100
1000
0000
1000
,
0000
1001
0000
0100
0010
1000
0000
1000
,
0100
0010
0000
0011
0000
0000
0000
0000
,
0000
0110
0000
0010
0001
0100
0000
0100
,
0010
1000
0000
1100
0000
0000
0000
0000
,
0000
1001
0000
0010
1000
0100
0000
0100
,
0010
0001
0000
0101
0000
0110
0000
0000
,
1010
0000
0100
0001
1000
0000
0100
0010
,
0001
0000
0000
2200
0000
0000
3000
0000
0000
0000
1300
0000
,
0010
0100
0000
1010
0000
1010
0000
1010
,
0000
1000
0000
0001
0000
0010
0000
0000
,
0001
1000
0000
1000
0001
0010
0000
0010
,
0100
1000
0000
1000
0010
0100
0010
0100
,
0001
1000
0000
0011
0000
0011
0000
0011
,
0000
0010
0000
0001
0000
1000
0000
0000
,
0010
0100
0000
0100
0001
0010
0000
0010
,
0100
1000
0000
1000
0001
1000
0000
1000
,
0000
1010
0000
0100
0010
1000
0000
1000
,
0100
0010
0000
0011
0000
0000
0000
0000
,
0000
0110
0000
0010
0001
0100
0000
0100
,
0010
1000
0000
1100
0000
0000
0000
0000
,
0000
1001
0000
1000
0001
0010
0000
0010
,
0100
1000
0000
1100
0000
0011
0000
0000
,
1001
0000
0100
0010
0000
1000
0000
0010
,
1000
0100
0000
0010
0001
0000
0011
0000
,
0110
0000
1000
0100
1000
0010
0000
0010
,
0100
0001
0000
0001
1000
0000
1100
0000
,
1010
0000
0100
0001
0010
0000
0100
0000
,
0110
0000
1000
0010
0100
0001
1000
0000
,
0101
0000
0000
1100
0000
0000
0000
0101
0000
0000
0110
0000
1001
0000
0000
0000
,
0010
0000
1000
0010
0100
0001
0010
0100
,
0000
0100
0000
0100
1000
0000
0001
0000
,
1000
0000
0010
0000
0100
0001
0000
0010
,
0000
0001
0000
0001
1000
0010
0000
1000
,
0000
0100
0000
1000
0000
0010
0000
1000
,
0000
0001
0000
0100
0000
0010
0000
0000
,
1000
0100
0000
0100
0010
0001
0000
0100
,
0000
0010
0000
0010
1000
0001
0000
0100
,
0010
1000
0000
0100
0000
1000
0000
0001
,
0000
0000
0010
0000
0000
0010
0000
0000
0001
0000
0000
1000
0000
0000
0100
0000
,
1000
0001
0000
0100
0010
1000
0000
0100
,
0000
0000
0010
0000
0000
0010
0000
0000
0001
0000
0000
1000
0000
0000
0010
0000
,
0100
0001
0000
0010
0000
0100
0000
1000
,
0001
0100
0000
0010
0000
0010
1000
0000
,
0100
0001
1000
0001
0100
0001
1000
0001
,
0100
0001
1000
0001
0100
0001
1000
0001
,
0010
0000
0000
0000
0000
0000
0000
0000
0000
0001
0000
0000
1000
0000
0000
0000
0000
0000
0010
0000
0000
0000
0000
0000
1000
0000
0000
0000
0100
0000
0000
0000
0010
0000
0000
0000
0001
0000
0000
0000
0100
0000
0000
0000
0010
0000
0000
0000
,
1000
0000
0100
0010
0100
0000
1000
0001
1000
0000
0010
0100
0010
0000
0100
0001
,
0100
0010
0000
0010
1000
0000
0100
0000
1000
0001
0000
0010
0001
0100
0000
0010
,
1000
0100
0000
0100
0010
0000
0001
0000
0100
0010
1000
0010
0100
0000
0001
1000
,
0100
0010
0000
0010
0001
0000
1000
0000
0001
0100
0010
1000
0100
0010
0000
0010
,
0001
1000
0000
1000
0001
0000
0100
0000
0010
1000
0010
0100
0010
1000
0000
0001
,
0010
0100
0000
0100
1000
0000
0001
0100
0001
0010
0001
1000
0010
0100
0000
0100
,
0001
1000
0010
1000
0001
0000
0100
0000
0010
1000
0100
0010
0001
1000
0000
1000
,
0010
0100
0000
0100
0001
1000
0000
1000
0001
0010
0000
0010
0100
0010
0001
0000
,
0101
0000
0000
0000
1010
0000
0100
0000
0001
1000
0000
1000
0100
0010
0000
0010
,
0001
0000
0000
0000
;

//---------------dance-single - ----------------
#NOTES:
     dance-single:
     :
     Hard:
     14:
     0.635036,0.876227,0.416742,0.320571,0.219057,416.000000,377.000000,39.000000,30.000000,0.000000,0.000000,0.635036,0.876227,0.416742,0.320571,0.219057,416.000000,377.000000,39.000000,30.000000,0.000000,0.000000:
0000
0000
0000
0000
,
0011
0000
1000
0001
0000
0100
0010
0000
,
1010
0000
0101
0000
1000
0100
0001
0100
,
1000
0010
0100
0001
0000
1000
0000
1000
,
0000
0001
0010
0100
0000
1000
0001
0100
,
0010
0000
0100
0001
1000
0100
0010
0000
,
0110
0000
0001
0000
1000
0010
0100
0000
,
1001
0000
1000
0010
0100
0010
1000
0001
,
0000
1010
0000
1100
0000
0010
0001
0000
,
0101
0000
1000
0010
0000
0100
0001
0000
,
0010
0001
0100
0000
1000
0010
0001
0010
,
1000
0000
0001
0010
0001
0100
0010
1000
,
0000
0100
0000
1000
0010
0100
0001
0000
,
1001
0000
0100
0001
0000
1000
0010
0000
,
0110
0000
1000
0000
0100
0010
0001
0000
,
0011
0000
0000
1000
0000
1000
0000
1000
0002
0000
0000
0000
0003
0000
1010
0000
,
1010
0000
0000
0010
0000
0010
0000
0010
0200
0000
0000
0000
0300
0000
0101
0000
,
0001
0100
0000
0100
0002
0000
1000
0000
1003
0100
0000
0100
2000
0000
0001
0000
,
3001
0000
0000
0000
0000
0000
0000
0000
0101
0000
0000
0000
0000
0000
0000
0000
1100
0000
0000
0000
0000
0000
0000
0000
0000
0000
0000
0000
0000
0010
0000
0000
,
0001
1000
0000
0010
0000
1000
0000
0100
,
0000
0010
0000
0001
0000
0100
0000
0000
,
0020
0000
0000
2030
0000
0000
3001
0000
,
1000
0100
0000
0100
0010
0000
0000
0001
,
1000
0001
0000
0100
0000
0010
0000
1000
,
0000
0100
0000
1000
0000
0001
0000
0000
,
0200
0000
0300
0001
0100
0000
0000
0010
,
1000
0000
0000
0100
1000
0000
0001
0000
,
0000
0010
0000
0010
0001
1000
0000
0001
,
0100
0010
0000
2020
0000
3030
0000
0000
,
0000
0100
0000
0100
1000
0001
0000
0100
,
0010
1000
0000
0202
0000
0303
0000
0000
,
0000
0001
0000
0001
0010
0100
0000
1000
,
0010
1000
0000
0100
0000
0010
0000
0000
,
0012
0000
1003
0000
,
1001
0000
0000
0000
0000
0000
2002
0000
0000
0000
0000
0000
0000
0000
0000
3003
0000
0000
0000
0000
1000
0000
0000
0000
,
0010
0100
0000
0001
0000
0001
0000
0001
,
0000
0010
0000
0100
0000
1000
0000
0000
,
0200
0000
0000
0320
0000
0000
0000
0000
,
0031
0100
0000
0001
0100
0000
0010
1000
,
0010
0100
0000
0001
0000
0001
0000
0001
,
0000
1000
0000
0100
0000
1000
0000
0000
,
0010
1000
0000
0002
0000
0000
0000
0000
,
1000
1000
0013
0000
,
0000
1000
0000
0100
1000
0001
0000
0001
,
0100
0010
0000
0220
0000
0330
0000
0000
,
0000
0010
0000
0010
1000
0100
0000
0100
,
0010
0001
0000
2002
0000
3003
0000
0000
,
0000
1000
0000
1000
0100
0010
0000
0001
,
0000
1000
0000
0001
0000
0100
0000
0000
,
2001
0000
0010
0000
,
3001
0000
0000
1000
0001
0000
0100
0000
,
0102
0000
1000
1000
,
0103
0000
0000
0001
1000
0000
0010
0000
,
0120
0000
1030
0010
,
0210
0000
0301
1000
,
1100
0000
0000
0101
0000
0000
0000
0110
0000
0000
1001
0000
1001
0000
0000
0000
,
0010
0000
0000
1000
0000
0100
0000
1000
,
0000
0001
0000
0000
0100
0000
0010
0000
,
0100
0000
0100
0000
0001
0010
0000
0001
,
0000
1000
0000
0100
1000
0001
0000
0100
,
0000
0010
0000
0100
0000
0001
0000
1000
,
0000
0100
0000
0010
0000
0002
0000
0000
,
1003
0000
0000
0010
1000
0000
0000
0001
,
0010
0100
0000
0100
1000
0001
0000
0100
,
0000
0001
0000
1000
0000
0001
0000
0100
,
0000
0000
0010
0000
0000
1000
0000
0000
0100
0000
0000
0010
0000
0000
0001
0000
,
0000
1000
0000
0001
0000
0000
0000
0000
,
0000
0000
0100
0000
0000
0001
0000
0000
0010
0000
0000
0100
0000
0000
1000
0000
,
0000
0001
0000
0010
0000
0001
0000
0100
,
0000
0010
0000
1000
0000
0002
0000
0000
,
0013
0000
1001
0000
,
1010
1000
1100
1000
,
1001
0000
0110
0001
1000
0000
0100
0010
,
0001
0000
1000
0001
0010
0100
1000
0010
,
0001
0000
0000
0000
0100
0000
0001
0000
0010
0000
0000
0001
0000
1000
0000
0002
,
0000
0000
0000
0000
0103
0000
0010
0000
1000
0000
0000
0000
0100
1000
0000
0001
,
0000
0000
0000
0000
0100
0000
0100
0000
0010
0000
0000
1000
0000
0100
0000
2000
,
0000
0000
0000
0000
3001
0000
0100
0000
0010
0000
1000
0000
0001
0010
0000
0100
,
0000
0000
0000
0000
1000
0000
1000
0000
0001
0000
0000
0010
0000
0001
0000
0200
,
0000
0000
0000
0310
0100
0000
0001
0000
1000
0000
0000
0000
0100
0010
0000
0010
,
0001
0000
0000
1000
0001
0000
0000
1000
0100
0000
0000
0010
0001
0000
0000
0000
,
0011
0000
0000
0000
1100
0000
0001
0000
0100
0010
0000
0010
1000
0001
0000
0010
,
0100
0000
0000
0000
;

//---------------dance-single - ----------------
#NOTES:
     dance-single:
     :
     Medium:
     11:
     0.512914,0.832416,0.459485,0.181657,0.010686,336.000000,293.000000,43.000000,17.000000,0.000000,0.000000,0.512914,0.832416,0.459485,0.181657,0.010686,336.000000,293.000000,43.000000,17.000000,0.000000,0.000000:
0000
0000
0000
0000
,
0011
0000
1000
0000
0000
0001
0100
0000
,
0010
0000
1000
0000
0000
0100
0000
0100
,
0000
0010
0000
0000
0000
0001
0000
1000
,
0000
0001
0000
0100
0000
0010
0000
2000
,
0000
0000
3001
1000
0000
0010
0100
0000
,
0101
0000
1000
0000
0000
0020
0000
0000
,
0130
0000
0001
0000
0000
1000
0000
1000
,
0000
0100
0000
2000
0000
0000
3010
0000
,
0110
0000
1000
0000
0000
0001
1000
0000
,
0010
0000
0100
0000
0001
0000
1000
0100
,
0000
0010
0000
0000
0000
0001
0000
0001
,
0000
1000
0000
0010
0100
0000
0001
0000
,
1001
0000
0100
0000
0000
0010
1000
0000
,
0002
0000
0010
0103
,
0110
0000
1000
0001
0200
0000
0300
1001
,
1001
0000
1000
0100
0020
0000
0030
0011
,
0011
0001
1000
1010
1010
0010
0100
0000
,
1001
0110
1001
0000
,
0010
1000
0010
0100
,
0001
0010
1000
0000
,
0200
0000
0000
0320
0000
0000
0000
0000
,
0031
0000
0000
0100
0010
0000
0000
1000
,
0100
0010
0100
1000
,
0010
0100
0001
0000
,
1000
0000
0000
1000
0010
0000
0000
0010
,
0100
0000
0000
0100
0001
0000
0000
0000
,
0000
0010
0000
0000
0001
0000
0000
0100
,
0010
1000
0001
0000
,
0000
1000
0000
0000
0100
0000
0000
0100
,
0010
0001
1000
0000
,
0000
0001
0000
0000
0100
0000
0000
0010
,
1000
0100
1000
0001
,
0200
0000
0310
0000
,
0110
0110
0000
0000
,
0010
1000
0001
0010
,
0001
0100
1000
0000
,
0002
0000
0000
0203
0000
0000
0000
0000
,
0310
0010
1000
0001
,
1000
0100
0010
0001
,
0100
0001
1000
0000
,
0002
0000
0000
2003
0000
0000
0000
0000
,
3010
0010
0100
0000
,
0000
0001
0000
0000
0010
0000
0000
0100
,
1000
0001
0100
0000
,
0000
0010
0000
0000
0100
0000
0000
0010
,
1000
0001
0100
0000
,
0000
0001
0010
0100
,
1000
0010
1000
0001
,
0012
0000
0100
0000
,
0100
0000
1003
0010
,
2010
0000
0100
0000
,
0100
0000
3001
1000
,
2001
0000
3100
0000
,
1002
0000
0103
0010
,
0110
0000
0000
0110
0000
0000
0000
0110
0000
0000
0110
0000
0110
0000
0000
0000
,
1000
0000
0100
1000
,
0001
0000
0100
0010
,
1000
1000
0001
0000
,
0010
0001
0100
0010
,
1000
0100
1000
0001
,
0100
0010
1000
0001
,
0010
0100
1000
0000
,
0001
0100
0001
0100
,
0010
1000
0001
1000
,
0100
0010
0010
0000
,
0001
0100
1000
0000
,
0010
1000
0001
0000
,
0101
0100
0010
0000
,
1010
1000
0001
0000
,
0101
0000
1100
0000
,
1001
0000
0101
0000
,
0110
0000
1001
0100
0010
0000
1000
0001
,
0100
0000
0100
0001
1000
0000
1010
0000
,
0011
0000
0001
0010
0100
0000
1000
0010
,
1000
0000
0001
0100
0001
0000
0011
0000
,
1100
0000
0010
0001
0100
0000
0010
1000
,
0100
0000
1000
0001
1000
0000
1001
0000
,
0110
0000
0010
1000
0100
0000
0100
1000
,
0001
0000
0010
0001
0100
0000
1010
0000
,
0101
0001
1000
0000
0100
0000
0100
0000
,
0110
0000
1001
0100
0010
0000
1000
0100
,
0001
0000
0000
0000
;

//---------------dance-single - ----------------
#NOTES:
     dance-single:
     :
     Easy:
     8:
     0.378579,0.569548,0.277828,0.053429,0.000000,248.000000,222.000000,26.000000,5.000000,0.000000,0.000000,0.378579,0.569548,0.277828,0.053429,0.000000,248.000000,222.000000,26.000000,5.000000,0.000000,0.000000:
0000
0000
0000
0000
,
0001
0001
1000
0000
,
0100
0100
0010
0000
,
0001
0100
0010
1000
,
0001
0100
0100
0000
,
0010
1000
1000
0000
,
0001
0100
0100
0000
,
0001
0010
0001
0100
,
0010
1000
1000
0000
,
0100
0010
0001
0000
,
0100
0010
1000
0000
,
0001
0010
0001
0100
,
0010
1000
0001
0000
,
1000
0100
0010
0000
,
0001
0000
1000
0000
,
1001
0100
0200
0300
,
1001
0100
0200
0300
,
1001
0100
1001
0100
,
1001
0110
1001
0000
,
0010
0000
1000
0000
,
0100
0010
0001
0000
,
1000
0000
0001
0000
,
0010
0000
0100
0000
,
1000
0000
0010
1000
,
0001
0000
0100
0000
,
0010
0000
0010
0000
,
1000
0000
0001
0000
,
0010
0000
1001
0000
,
0100
0001
0100
0000
,
0010
0000
1001
0000
,
0100
1000
0100
0000
,
1000
0001
1000
0000
,
0100
0010
0001
0000
,
0110
0000
0001
0000
,
1000
1000
0000
0000
,
0010
0000
1000
0000
,
0100
0010
0001
0000
,
0100
0000
0010
0000
,
0100
0000
0001
0000
,
1000
0000
0001
0010
,
0001
0000
0100
0000
,
0010
0000
0010
0000
,
1000
0100
1000
0000
,
0001
0000
1001
0000
,
0001
0010
0001
0000
,
1000
0000
1001
0000
,
1000
0010
1000
0000
,
0100
0010
0100
0000
,
1000
0001
0100
0000
,
0002
0000
0000
0000
,
0000
0000
0013
0100
,
2000
0000
0001
0000
,
0100
0000
3001
0000
,
1001
0000
0000
0000
,
0110
0000
1000
0001
,
1000
0000
1000
0000
0001
0010
0100
0000
,
1000
0000
0010
1000
,
0001
0000
0110
0000
,
0001
0100
0001
0000
,
0010
0000
1001
0000
,
1000
0100
1000
0000
,
0001
0100
0001
0000
,
0010
0000
0010
0000
,
0001
0000
0100
0000
,
0001
1000
0001
0000
,
0010
0000
0110
0000
,
0001
0010
0100
0000
,
1000
0000
0001
0000
,
1000
0010
1000
0000
,
0100
1000
0001
0000
,
0110
0000
0110
0000
,
1001
0000
1001
0000
,
0110
1001
0000
0000
,
0010
1000
0100
1000
,
0001
0010
0001
0100
,
0010
1000
0100
0010
,
0100
1000
0010
0001
,
1000
0001
1000
0010
,
0100
0001
0010
0100
,
1000
1000
0001
0001
,
0200
0000
0000
0300
,
1001
0110
0001
1000
,
1001
0000
0000
0000
;

//---------------dance-single - ----------------
#NOTES:
     dance-single:
     :
     Beginner:
     4:
     0.174024,0.350491,0.106857,0.042743,0.000000,114.000000,104.000000,10.000000,4.000000,0.000000,0.000000,0.174024,0.350491,0.106857,0.042743,0.000000,114.000000,104.000000,10.000000,4.000000,0.000000,0.000000:
// measure 0
0000
0000
0000
0000
,  // measure 1
0001
0000
0000
0000
,  // measure 2
1000
0000
0000
0000
,  // measure 3
0001
0000
0000
0000
,  // measure 4
0000
0000
0000
0000
,  // measure 5
0010
0000
0000
0000
,  // measure 6
0100
0000
0000
0000
,  // measure 7
1000
0000
0000
0000
,  // measure 8
0000
0000
0000
0000
,  // measure 9
0001
0000
0000
0000
,  // measure 10
0100
0000
0000
0000
,  // measure 11
0010
0000
0000
0000
,  // measure 12
0000
0000
0000
0000
,  // measure 13
0100
0000
0000
0000
,  // measure 14
0010
0000
0000
0000
,  // measure 15
0110
0000
0000
0000
,  // measure 16
1001
0000
0000
0000
,  // measure 17
0110
0000
1001
0000
,  // measure 18
0100
0100
0100
0000
,  // measure 19
0001
0000
0001
0000
,  // measure 20
0001
0000
0100
0000
,  // measure 21
0020
0000
0000
0000
,  // measure 22
0030
0000
0000
0000
,  // measure 23
1000
0000
1000
0000
,  // measure 24
1000
0000
0100
0000
,  // measure 25
0020
0000
0000
0000
,  // measure 26
0030
0000
0000
0000
,  // measure 27
0001
0000
0000
0000
,  // measure 28
1000
0000
0000
0000
,  // measure 29
0001
0000
0000
0000
,  // measure 30
0100
0000
0000
0000
,  // measure 31
0010
0000
0000
0000
,  // measure 32
1000
0000
0000
0000
,  // measure 33
0110
0000
0000
0000
,  // measure 34
1001
0000
0000
0000
,  // measure 35
0010
0000
0010
0000
,  // measure 36
0010
0000
1000
0000
,  // measure 37
0002
0000
0000
0000
,  // measure 38
0003
0000
0000
0000
,  // measure 39
0100
0000
0100
0000
,  // measure 40
0100
0000
0001
0000
,  // measure 41
2000
0000
0000
0000
,  // measure 42
3000
0000
0000
0000
,  // measure 43
0010
0000
0000
0000
,  // measure 44
1000
0000
0000
0000
,  // measure 45
0001
0000
0000
0000
,  // measure 46
0010
0000
0000
0000
,  // measure 47
0001
0000
0000
0000
,  // measure 48
0100
0000
0000
0000
,  // measure 49
0110
0000
0000
0000
,  // measure 50
0000
0000
1000
0000
,  // measure 51
1000
0000
0000
0000
,  // measure 52
0000
0000
0000
0000
,  // measure 53
1001
0000
0000
0000
,  // measure 54
0110
0000
0000
0000
,  // measure 55
1001
0000
0100
0100
,  // measure 56
0100
0000
0000
0000
,  // measure 57
0010
0000
0000
0000
,  // measure 58
1000
0000
1000
0000
,  // measure 59
0001
0000
0000
0000
,  // measure 60
0010
0000
0001
0000
,  // measure 61
0010
0000
0100
0000
,  // measure 62
1000
0000
0000
0000
,  // measure 63
0001
0000
0000
0000
,  // measure 64
1000
0000
1000
0000
,  // measure 65
0010
0000
0100
0000
,  // measure 66
0001
0000
0000
0000
,  // measure 67
0000
0000
0000
0000
,  // measure 68
0010
0000
0100
0000
,  // measure 69
0010
0000
0100
0000
,  // measure 70
1000
0000
1000
0000
,  // measure 71
0001
0000
0001
0000
,  // measure 72
0100
0100
0000
0000
,  // measure 73
0010
0000
0010
0000
,  // measure 74
0010
0000
1000
0000
,  // measure 75
0001
0000
0010
0000
,  // measure 76
0100
0000
0100
0000
,  // measure 77
0010
0000
0001
0000
,  // measure 78
0100
0000
0010
0000
,  // measure 79
1000
0000
1000
0000
,  // measure 80
1000
0000
0000
0000
,  // measure 81
0001
0001
0000
0000
,  // measure 82
0100
0000
0000
0000
;
