#TITLE:Nothing Breaks Like a Heart;
#SUBTITLE:;
#ARTIST:Mark Ronson ft. Miley Cyrus;
#TITLETRANSLIT:;
#SUBTITLETRANSLIT:;
#ARTISTTRANSLIT:;
#GENRE:;
#CREDIT:;
#BANNER:Nothing Breaks Like a Heart-bn.png;
#BACKGROUND:Nothing Breaks Like a Heart-bg.png;
#LYRICSPATH:;
#CDTITLE:;
#MUSIC:Nothing Breaks Like a Heart.ogg;
#OFFSET:0.000000;
#SAMPLESTART:58.683998;
#SAMPLELENGTH:20.000000;
#SELECTABLE:YES;
#DISPLAYBPM:114.000000;
#BPMS:0.000000=114.000000
;
#STOPS:
;
#BGCHANGES:;
#KEYSOUNDS:;
#ATTACKS:;

//---------------dance-single - ----------------
#NOTES:
     dance-single:
     :
     Challenge:
     14:
     0.566910,0.568263,0.265189,0.113653,0.700857,419.000000,391.000000,28.000000,12.000000,0.000000,0.000000,0.566910,0.568263,0.265189,0.113653,0.700857,419.000000,391.000000,28.000000,12.000000,0.000000,0.000000:
0000
0000
0000
0000
,
0000
0000
0000
0000
,
0000
0000
0000
0000
,
0000
0000
0000
0000
0000
0000
0000
1000
,
2000
0000
0000
0010
0000
0000
0100
0000
0000
0010
0000
0000
0000
0000
0001
0000
,
3002
0000
0000
0100
0000
0000
1000
0000
0000
0000
0010
0000
0013
0000
0000
0001
,
0200
0000
0000
0000
0300
0000
0000
0000
0110
0000
0000
0000
1001
0000
0000
0100
,
0001
0000
0000
0100
0010
1000
0000
0000
0101
0000
0000
0000
1100
0000
0000
1000
,
0001
0100
0010
0000
0000
1000
0000
1000
0100
0000
0010
0000
0001
0000
0000
0100
,
0010
0100
0001
0000
1000
0100
0000
0000
0011
0000
0000
0000
1010
0000
0000
0100
,
0001
1000
0001
0000
0010
0100
0000
0100
1000
0000
0001
0000
1000
0000
0000
0010
,
0100
0001
1000
0000
0001
0010
0000
0010
0100
0000
1000
0000
0001
0100
0000
0010
,
1000
0000
0100
0000
1000
0000
0010
0100
0000
0001
0000
0001
0000
0000
0010
0000
,
0001
0000
1000
0020
0000
0000
0130
0000
0001
1000
0000
0200
0000
0000
0310
0000
,
0001
1000
0010
0100
0001
0000
0000
0010
0100
0000
0100
0000
1000
0001
0000
0000
,
1000
0010
0100
0001
1000
0000
0000
0001
0010
0000
0010
0000
0001
0000
1000
0000
,
0010
0000
1000
0000
0100
0000
0010
0000
0001
0000
1000
0002
0000
0000
0100
0000
,
0103
0010
0000
1000
0000
0000
0001
0000
0010
0001
0000
1000
0000
0000
0100
0000
,
1000
0001
0100
0010
1000
0000
0000
0010
0100
0000
0100
0000
0001
1000
0000
0000
,
0001
0010
0100
1000
0001
0000
0000
0100
0010
0000
0010
0000
1000
0000
0001
0000
,
1000
0000
0100
0000
1000
0000
0001
0010
0000
0010
0000
0100
0000
0000
1000
0000
,
0001
0000
0100
0000
0010
0000
0100
0000
1000
0000
0100
0001
0000
0001
0010
0000
,
0100
0010
0001
1000
0010
0000
0000
0100
0001
0000
1000
0000
0001
0000
0010
0000
,
0100
1000
0001
0010
0001
0000
0000
1000
0010
0000
0100
0000
0001
0000
1000
0000
,
0100
0010
0000
0100
0010
0000
0001
1000
0000
0010
0000
1000
0100
0000
0010
0000
,
0011
0000
0000
0000
1100
0000
0000
0001
0100
0000
0010
0000
1000
0000
0000
0000
,
0001
1000
0000
0001
1000
0000
0001
0010
0000
0100
0000
1000
0010
0000
0100
0000
,
0101
0000
0000
0000
1010
0000
0000
0010
0100
0000
0001
0000
1000
0100
0010
0001
,
0100
0010
0000
0010
1000
0000
0001
0000
0010
0000
0100
0000
1000
0000
0010
0000
,
1000
0100
0000
0010
0001
0000
0100
0010
0000
0010
1000
0000
0001
0000
0000
1000
,
0100
0010
0000
0010
0001
0000
0000
0000
0101
0000
0000
0000
1100
0000
0000
0001
,
1000
0010
0100
0010
1000
0000
0000
0000
0110
0000
0000
0000
1000
0001
0010
0100
,
1000
0001
0000
0001
0100
0000
0010
1000
0000
1000
0100
0000
0010
0000
0001
0000
,
0100
0001
0000
0001
1000
0000
0100
0010
0000
0010
0001
0000
1000
0001
0000
0100
,
0010
1000
0100
0010
0001
0000
0100
0000
1010
0000
0000
0000
0011
0000
0000
0010
,
0001
0100
0010
1000
0100
0000
0000
0000
1001
0000
0000
0000
1000
0010
0100
0001
,
0010
0000
0001
0100
0001
0000
2000
0000
0000
3020
0000
0000
0130
0000
0001
0000
,
0010
0001
0000
1000
0010
0000
0100
0000
0001
0000
0010
0000
0001
1000
0000
1000
,
0100
0000
0000
0000
0010
0000
0000
0000
1001
0000
0000
0000
0110
0000
0000
1000
,
0001
0000
0000
0100
0001
0010
0000
0000
0011
0000
0000
0000
1100
0000
0000
0001
,
1000
0010
0100
0010
1000
0000
0001
0000
0020
0000
0000
0230
0000
0000
1300
0001
,
0100
0000
0000
0010
1000
0100
0000
0000
1100
0000
0000
0000
0101
0000
0000
0010
,
1000
0001
0100
0001
1000
0000
0000
0000
0110
0000
0000
0001
0100
0000
0000
0000
,
1010
0000
0000
0001
1000
0100
0000
0000
0011
0000
0000
0000
0101
0000
0000
1000
,
0001
0000
0000
0100
0010
0000
1000
0000
0001
1000
0000
0010
0100
0000
0001
0000
,
0010
0000
0000
0100
1000
0001
0000
0000
0011
0000
0000
0000
1001
0000
0000
1000
,
0010
0100
0000
0001
1000
0000
0000
0000
0100
0010
0001
1000
0010
0100
0001
0000
,
1000
0000
0000
0000
0000
0000
0000
0000
0000
0001
0000
0000
0000
0000
0000
0000
0000
0000
0100
0000
0000
0000
0000
0000
0001
0000
0000
0000
0000
0000
0010
0000
0000
0000
0000
0000
0001
0000
0100
0000
0010
0000
1000
0000
0100
0000
0010
0000
,
0001
0000
0000
1000
0000
0000
0010
0000
0100
0001
0010
0100
2000
0001
0000
0000
,
3020
0000
0000
0000
,
0030
0000
0000
0000
;

//---------------dance-single - ----------------
#NOTES:
     dance-single:
     :
     Hard:
     12:
     0.454610,0.473552,0.303073,0.227305,0.350429,336.000000,304.000000,32.000000,24.000000,0.000000,0.000000,0.454610,0.473552,0.303073,0.227305,0.350429,336.000000,304.000000,32.000000,24.000000,0.000000,0.000000:
0000
0000
0000
0000
,
0000
0000
0000
0000
,
0000
0000
0000
0000
,
0000
0000
0000
0000
0000
0000
0000
1000
,
2000
0000
0000
0010
0000
0000
0100
0000
0000
0010
0000
0000
0000
0000
0001
0000
,
3002
0000
0000
0100
0000
0000
1000
0000
0000
0000
0010
0000
0010
0000
0000
0000
,
0203
0300
0110
1001
,
0110
0000
0000
0000
1000
0001
0000
0000
0011
0000
0000
0000
1100
0000
0000
0000
,
0001
0100
0001
0000
0000
0000
0000
0000
1000
0000
1000
0000
1000
0000
0000
0000
,
1010
0000
0000
0000
0001
0100
0000
0000
0101
0000
0000
0000
1100
0000
0000
0000
,
0001
0100
0001
0000
2000
0000
0000
0000
0010
0000
0010
0000
3010
0000
0000
0000
,
0001
0000
1000
0000
0001
0100
0000
0100
0010
0000
1000
0000
0001
0000
0000
0000
,
0010
0001
0100
0010
1000
0100
0001
0100
,
1000
0010
0100
0010
1000
0001
0010
0100
,
1000
0010
0000
0100
0001
0000
0000
0000
0010
0000
0001
0000
0100
0010
0000
0000
,
1000
0001
0000
0010
0100
0000
0000
0000
1000
0000
1000
0000
1000
0000
0000
0000
,
0001
0100
0010
1000
0100
0010
0001
0100
,
1000
0100
0001
0010
0001
1000
0010
0100
,
0001
1000
0000
0100
0010
0000
0000
0000
0001
0000
1000
0000
0010
0100
0000
0000
,
0010
1000
0000
0001
0100
0000
0000
0000
0010
0000
0010
0000
0010
0000
0000
0000
,
0100
0001
1000
0010
0100
0010
1000
0001
,
0010
1000
0010
0100
0010
0001
1000
0010
,
0100
0001
0100
0010
1000
0000
0000
0000
0001
0000
0001
0000
0001
0000
1000
0000
,
0010
0100
0010
1000
0001
0000
0000
0000
0100
0000
0010
0000
1000
0000
0001
0000
,
0010
0001
0000
0001
0100
0000
0020
0000
0000
2030
0000
0000
3100
0000
0010
0000
,
0011
0000
1100
0000
0001
0100
1000
0000
,
0010
1000
0000
1000
0100
0000
0020
0000
0000
0032
0000
0000
1003
0000
0010
0000
,
0110
0000
0000
0000
1001
0000
0000
0000
0100
0000
0001
0000
1000
0010
1000
0010
,
2000
0000
0000
0100
0000
0000
0001
0000
0000
0100
0000
0000
3010
0000
1000
0000
,
0002
0000
0000
0010
0000
0000
1000
0000
0000
0100
0000
0000
1003
0000
0000
0010
,
0100
0000
0000
0000
0001
0000
0000
0000
0011
0000
0000
0000
1010
0000
0000
1000
,
0100
0000
0000
0000
0110
0000
0000
0000
1001
0000
0000
0000
0100
0001
0100
0001
,
0020
0000
0000
1000
0000
0000
0001
0000
0000
1000
0000
0000
0130
0000
0010
0000
,
0002
0000
0000
0100
0000
0000
0010
0000
0000
0100
0000
0000
1003
0000
0000
0001
,
1000
0000
0000
0000
0010
0000
0100
0000
1010
0000
0000
0000
1001
0000
0000
0001
,
0010
0000
0000
0000
1100
0000
0000
0000
0101
0000
0000
0000
1000
0010
0100
0010
,
2000
0000
0000
0001
0000
0000
0100
0000
0000
0010
0000
0000
3001
0000
0100
0000
,
0020
0000
0000
1000
0000
0000
0001
0000
0000
0000
0100
0000
0130
0000
0000
0010
,
2000
3001
0011
0101
,
1010
0000
0000
0000
0010
0100
0000
0000
0110
0000
0000
0000
1001
0000
0000
0000
,
1000
0001
0000
0100
0010
0000
1000
0000
0002
0000
0000
0023
0000
0000
0031
0000
,
2000
0000
0000
0000
3010
0100
0000
0000
0101
0000
0000
0000
1010
0000
0000
0000
,
0001
0010
0000
0100
1000
0000
0000
0000
1001
0000
0000
0100
0001
0000
0000
0000
,
0010
0000
0000
0000
0001
1000
0000
0000
1100
0000
0000
0000
0011
0000
0000
0001
,
0100
0000
0000
0010
1000
0000
0100
0000
0020
0000
0000
0032
0000
0000
1003
0000
,
0020
0000
0000
0000
0130
0001
0000
0000
0110
0000
0000
0000
0101
0000
0000
1000
,
0001
0000
0000
0010
0000
0000
0100
0000
1000
0001
1000
0010
0200
0000
0000
0000
,
0301
0000
0000
0010
0000
0000
0001
0000
1000
0000
0000
0000
0010
1000
0010
0100
,
0001
0000
0000
0010
0000
0000
0100
0000
1000
0001
0010
0100
2000
0000
0000
0000
,
3020
0000
0000
0000
,
0030
0000
0000
0000
;

//---------------dance-single - ----------------
#NOTES:
     dance-single:
     :
     Medium:
     9:
     0.332839,0.355164,0.265189,0.246247,0.047355,246.000000,218.000000,28.000000,26.000000,0.000000,0.000000,0.332839,0.355164,0.265189,0.246247,0.047355,246.000000,218.000000,28.000000,26.000000,0.000000,0.000000:
0000
0000
0000
0000
,
0000
0000
0000
0000
,
0000
0000
0000
0000
,
0000
0000
0000
0000
0000
0000
1000
0001
,
0200
0000
0000
0000
0010
0000
0000
0001
,
0302
0000
2003
0010
,
3200
0300
0110
1001
,
0110
1000
0101
1100
,
0010
0100
0000
0000
0001
1000
0100
0000
,
0010
0001
0011
1100
,
0011
0000
2000
0000
0100
0100
3100
0000
,
0001
0000
0010
0000
0001
1000
0100
0000
,
1000
0000
0010
0000
1000
0001
0100
0000
,
0010
0010
1000
0000
0100
0010
0001
0000
,
0100
0000
0010
0000
1000
0000
0000
0000
0000
0000
0000
0000
0001
1000
0000
0000
,
0001
0010
0100
0000
0000
0000
0000
1000
,
0010
0000
1000
0000
0001
1000
0100
0000
,
1000
0001
0001
0000
0100
0010
1000
0000
,
0001
0000
0010
0000
0100
0000
0000
0000
0000
0000
0000
0000
1000
0001
0000
0000
,
1000
0010
0100
0000
0000
0000
0000
0001
,
0010
0000
0100
0000
1000
0010
0001
0000
,
1000
0100
1000
0000
0001
0100
0001
0000
,
0100
0010
1000
0000
0000
0000
0000
0001
,
0010
0001
0100
0000
0000
0020
0000
1000
,
1030
0000
0000
0001
0000
0000
1000
0000
0000
0100
0000
0000
0010
0000
0001
0000
,
0100
0110
0000
1001
,
0010
0000
0000
1000
0000
0000
0100
0000
0000
1000
0000
0000
0001
0000
0100
0000
,
0010
0000
2020
0000
0030
0000
3001
1000
,
0100
0000
0110
0000
0001
0100
0010
1000
,
0100
0000
1001
0000
1000
0010
0001
0000
,
0101
0000
0020
2030
,
3200
0000
0310
0000
0001
0000
1000
0001
,
0100
0000
1010
0000
0001
1000
0100
0010
,
0001
0000
0011
0000
1000
0010
0100
0000
,
0110
0000
0000
1000
0002
0000
0023
0000
,
0230
0000
1300
0000
0001
0000
1000
0010
,
0100
0000
1001
0000
0100
0010
1000
0001
,
0010
0000
1100
0000
1000
0001
0100
0000
,
0102
0013
1001
0110
,
1001
0000
0100
0010
2000
0000
3002
0000
,
0013
0000
0000
0001
0000
0000
0100
0000
0010
0000
0000
1000
0000
0000
0001
0000
,
1000
0000
0100
0010
0002
0000
2003
0000
,
3010
1010
0001
1100
,
0001
0000
0100
0010
2000
0000
3200
0000
,
1300
0000
0000
0001
0000
0000
1000
0000
0010
0000
0000
0100
0000
0000
0001
0000
,
0010
0000
0001
1000
0002
0000
0203
0000
,
0310
0000
0101
0000
0001
0100
2000
0000
,
3010
0000
0110
0000
0000
1000
1000
0000
,
0001
0000
0011
0000
1000
0001
2000
0000
,
3020
0000
0000
0000
,
0030
0000
0000
0000
;

//---------------dance-single - ----------------
#NOTES:
     dance-single:
     :
     Easy:
     6:
     0.221893,0.284131,0.246247,0.132595,0.000000,164.000000,138.000000,26.000000,14.000000,0.000000,0.000000,0.221893,0.284131,0.246247,0.132595,0.000000,164.000000,138.000000,26.000000,14.000000,0.000000,0.000000:
0000
0000
0000
0000
,
0000
0000
0000
0000
,
0000
0000
0000
0000
,
0000
0000
0000
0000
,
2000
0000
3010
0000
,
0002
0000
2003
0000
,
3200
0000
0320
0000
,
0032
0000
0203
0000
,
0310
1000
0100
1000
,
0001
0010
0001
0100
,
1000
0001
1000
0010
,
0100
0001
0100
0010
,
1000
1000
0001
0001
,
1000
0100
0010
0001
,
1001
0000
0000
0100
,
0110
0000
0000
0000
,
0100
0100
0010
0010
,
0100
0001
1000
0010
,
1001
0000
0000
0010
,
0110
0000
0000
0000
,
1000
0100
1000
0010
,
0100
0001
0010
0100
,
0110
0000
0000
1000
,
1001
0000
0000
0020
,
0130
0010
0100
0001
,
1000
0000
0000
0000
,
0001
0010
0001
0100
,
1000
0000
0000
0000
,
0001
0010
0001
0010
,
0100
1000
0010
0100
,
0002
0003
0101
1100
,
0101
0000
0000
0000
,
1000
0001
0010
0001
,
0100
0010
1000
0001
,
2000
3000
1100
0101
,
1100
0000
0000
0000
,
0010
0001
0100
0010
,
1000
0001
0010
0100
,
2000
3000
1010
0011
,
1010
0100
0001
1000
,
1001
0000
0010
0100
,
0001
1000
0110
1001
,
0110
0000
1000
0000
,
0001
0100
0101
1010
,
0101
0000
1000
0001
,
1000
0100
0110
1001
,
0110
0000
1000
0001
,
0200
0010
0010
0310
,
0110
0000
2000
0001
,
3020
0000
0000
0000
,
0030
0000
0000
0000
;

//---------------dance-single - ----------------
#NOTES:
     dance-single:
     :
     Beginner:
     2:
     0.110946,0.139224,0.113653,0.000000,0.000000,82.000000,70.000000,12.000000,0.000000,0.000000,0.000000,0.110946,0.139224,0.113653,0.000000,0.000000,82.000000,70.000000,12.000000,0.000000,0.000000,0.000000:
// measure 0
0000
0000
0000
0000
,  // measure 1
0000
0000
0000
0000
,  // measure 2
0000
0000
0000
0000
,  // measure 3
0000
0000
0000
0000
,  // measure 4
1000
0000
0000
0000
,  // measure 5
0001
0000
0001
0000
,  // measure 6
0100
0000
0010
0000
,  // measure 7
0100
0000
0001
0000
,  // measure 8
1001
0000
0000
0000
,  // measure 9
0000
0000
0100
0000
,  // measure 10
0110
0000
0000
0000
,  // measure 11
0000
0000
0000
0000
,  // measure 12
1000
0000
1000
0000
,  // measure 13
0001
0000
0001
0000
,  // measure 14
1001
0000
0000
0000
,  // measure 15
0110
0000
0000
0000
,  // measure 16
0100
0000
0100
0000
,  // measure 17
0010
0000
0010
0000
,  // measure 18
0110
0000
0000
0000
,  // measure 19
1001
0000
0000
0000
,  // measure 20
0010
0000
0100
0000
,  // measure 21
0001
0000
1000
0000
,  // measure 22
1001
0000
0000
0000
,  // measure 23
0110
0000
0000
0000
,  // measure 24
0001
0000
0001
0000
,  // measure 25
0001
0000
0000
0000
,  // measure 26
1000
0000
1000
0000
,  // measure 27
1000
0000
0000
0000
,  // measure 28
0010
0000
1000
0000
,  // measure 29
0010
0000
0100
0000
,  // measure 30
0001
0000
1000
0000
,  // measure 31
0001
0000
0000
0000
,  // measure 32
1000
0000
1000
0000
,  // measure 33
0010
0000
0100
0000
,  // measure 34
0001
0000
0010
0000
,  // measure 35
0100
0000
0000
0000
,  // measure 36
1000
0000
0001
0000
,  // measure 37
1000
0000
0010
0000
,  // measure 38
0100
0000
0001
0000
,  // measure 39
0001
0000
1000
0000
,  // measure 40
1001
0000
0000
0000
,  // measure 41
0010
0000
0100
0000
,  // measure 42
0110
0000
0000
0000
,  // measure 43
0010
0000
1000
0000
,  // measure 44
1001
0000
0000
0000
,  // measure 45
0100
0000
0010
0000
,  // measure 46
0110
0000
0000
0000
,  // measure 47
0001
0000
0000
0000
,  // measure 48
1000
0000
1000
0000
,  // measure 49
0010
0000
0000
0000
;
