#VERSION:0.83;
#TITLE:Noise Won't Stop;
#SUBTITLE:;
#ARTIST:Shy Child;
#TITLETRANSLIT:;
#SUBTITLETRANSLIT:;
#ARTISTTRANSLIT:;
#GENRE:;
#ORIGIN:;
#CREDIT:;
#BANNER:Noise Won't Stop-bn.png;
#BACKGROUND:Noise Won't Stop-bg.png;
#PREVIEWVID:;
#JACKET:Noise Won't Stop-jacket.png;
#CDIMAGE:;
#DISCIMAGE:;
#LYRICSPATH:;
#CDTITLE:;
#MUSIC:Noise Won't Stop.ogg;
#OFFSET:0.000000;
#SAMPLESTART:29.128000;
#SAMPLELENGTH:20.000000;
#SELECTABLE:YES;
#DISPLAYBPM:206.000000;
#BPMS:0.000=203.900,
4.000=206.001;
#STOPS:;
#DELAYS:;
#WARPS:;
#TIMESIGNATURES:0.000=4=4;
#TICKCOUNTS:0.000=4;
#COMBOS:0.000=1;
#SPEEDS:0.000=1.000=0.000=0;
#SCROLLS:0.000=1.000;
#FAKES:;
#LABELS:0.000=Song Start;
#BGCHANGES:1.750=Noise Won't Stop.avi=1.000=0=0=0=StretchNoLoop====,
99999=-nosongbg-=1.000=0=0=0 // don't automatically add -songbackground-
;
#KEYSOUNDS:;
#ATTACKS:
;

//---------------dance-single - ----------------
#NOTEDATA:;
#CHARTNAME:;
#STEPSTYPE:dance-single;
#DESCRIPTION:;
#CHARTSTYLE:;
#DIFFICULTY:Beginner;
#METER:3;
#RADARVALUES:0.102283,0.163333,0.067123,0.044749,0.000000,64.000000,58.000000,6.000000,4.000000,0.000000,0.000000,0.000000,0.000000,0.000000,0.102283,0.163333,0.067123,0.044749,0.000000,64.000000,58.000000,6.000000,4.000000,0.000000,0.000000,0.000000,0.000000,0.000000;
#CREDIT:;
#DISPLAYBPM:206.000000;
#NOTES:
0000
0000
0000
0000
,
0000
0000
0000
0000
,
0000
0000
0000
0000
,
0000
0000
0000
0000
,
0000
0000
0000
0000
,
0001
0000
0000
0000
,
0000
0000
0000
0000
,
1000
0000
0000
0000
,
0000
0000
0000
0000
,
1001
0000
0000
0000
,
0000
0000
0000
0000
,
0100
0000
0000
0000
,
0000
0000
0000
0000
,
0110
0000
0000
0000
,
0000
0000
0000
0000
,
1000
0000
0000
0000
,
0000
0000
0000
0000
,
1001
0000
0000
0000
,
0000
0000
0000
0000
,
0010
0000
0000
0000
,
0000
0000
0000
0000
,
1000
0000
0000
0000
,
0000
0000
0000
0000
,
2002
0000
0000
3003
,
0000
0000
0000
0000
,
0001
0000
0000
0100
,
0000
0000
0000
0000
,
0001
0000
0000
0100
,
0000
0000
0000
0000
,
0010
0000
0000
1000
,
0000
0000
0000
0000
,
0010
0000
0000
1000
,
0000
0000
0000
0000
,
0001
0000
0000
1000
,
0000
0000
0000
0000
,
0001
0000
0000
1000
,
0000
0000
0000
0000
,
0100
0000
0000
0010
,
0000
0000
0000
0000
,
0220
0000
0000
0330
,
0000
0000
0000
0000
,
0001
0000
0000
1000
,
0000
0000
0000
0000
,
0100
0000
0000
1000
,
0000
0000
0000
0000
,
0001
0000
0000
0100
,
0000
0000
0000
0000
,
0001
0000
0000
0010
,
0000
0000
0000
0000
,
0100
0000
0000
1000
,
0000
0000
0000
0000
,
0001
0000
0000
1000
,
0000
0000
0000
0000
,
0010
0000
0000
0100
,
0000
0000
0000
0000
,
0001
0000
0000
0100
,
0000
0000
0000
0000
,
0010
0000
0000
0100
,
0000
0000
0000
0000
,
0010
0000
0000
0100
,
0000
0000
0000
0000
,
0001
0000
0000
1000
,
0000
0000
0000
0000
,
0001
0000
0000
1000
,
0000
0000
0000
0000
,
0100
0000
0000
0010
,
0000
0000
0000
0000
,
0100
0000
0000
0010
,
0000
0000
0000
0000
,
0001
0000
0000
1000
,
0000
0000
0000
0000
,
0001
0000
0000
1000
,
0000
0000
0000
0000
,
1001
0000
0000
0000
;

//---------------dance-single - ----------------
#NOTEDATA:;
#CHARTNAME:;
#STEPSTYPE:dance-single;
#DESCRIPTION:;
#CHARTSTYLE:;
#DIFFICULTY:Easy;
#METER:6;
#RADARVALUES:0.169406,0.244999,0.123059,0.044749,0.000000,106.000000,95.000000,11.000000,4.000000,0.000000,0.000000,0.000000,0.000000,0.000000,0.169406,0.244999,0.123059,0.044749,0.000000,106.000000,95.000000,11.000000,4.000000,0.000000,0.000000,0.000000,0.000000,0.000000;
#CREDIT:;
#DISPLAYBPM:206.000000:207.000000;
#NOTES:
0000
0000
0000
0000
,
0000
0000
0000
0000
,
0000
0000
0000
0000
,
0000
0000
0000
0000
,
0000
0000
0000
0000
,
1000
0000
0000
0000
,
0000
0000
0000
0000
,
0001
0000
0000
0000
,
0000
0000
0000
0000
,
1000
0000
0000
0001
0000
0000
1000
0000
,
0000
0000
0000
0000
,
0001
0000
0000
1000
0000
0000
0001
0000
,
0000
0000
0000
0000
,
0010
0000
0000
0100
0000
0000
0010
0000
,
0000
0000
0000
0000
,
0100
0000
0000
0010
0000
0000
0100
0000
,
0000
0000
0000
0000
,
1000
0000
0000
0100
0000
0000
0001
0000
,
0000
0000
0000
0000
,
0001
0000
0000
0100
0000
0000
1000
0000
,
0000
0000
0000
0000
,
1000
0000
0000
0001
0000
0000
1000
0000
,
0000
0000
0000
0000
,
2002
0000
0000
0000
,
0000
0000
3003
0000
,
1000
0000
0000
0100
0000
0000
1000
0000
,
0000
0000
0000
0000
,
0001
0000
0000
0100
0000
0000
0001
0000
,
0000
0000
0000
0000
,
0010
0000
0000
0001
0000
0000
0010
0000
,
0000
0000
0000
0000
,
0100
0000
0000
1000
0000
0000
0100
0000
,
0000
0000
0000
0000
,
0010
0000
0000
0100
0000
0000
0010
0000
,
0000
0000
0000
0000
,
0001
0000
0000
1000
0000
0000
0001
0000
,
0000
0000
0000
0000
,
0100
0000
0000
0010
0000
0000
0100
0000
,
0000
0000
0000
0000
,
0220
0000
0000
0000
,
0000
0000
0330
0000
,
0001
0000
0000
0000
,
1001
0000
0000
0000
,
0100
0000
0000
0000
,
0110
0000
0000
0000
,
0010
0000
1000
0000
,
1001
0000
0000
0000
,
0001
0000
0010
0000
,
0110
0000
0000
0000
,
0100
0000
0000
0000
,
1001
0000
0000
0000
,
0010
0000
0000
0000
,
0110
0000
0000
0000
,
1000
0000
0001
0000
,
1001
0000
0000
0000
,
0010
0000
0100
0000
,
0110
0000
0000
0000
,
0001
0000
0010
0000
,
0001
0000
1000
0000
,
0001
0000
0010
0000
,
0001
0000
0000
0000
,
1000
0000
0010
0000
,
1000
0000
0001
0000
,
1000
0000
0010
0000
,
1000
0000
0000
0000
,
0100
0000
0010
0000
,
0001
0000
0010
0000
,
0100
0000
0010
0000
,
0001
0000
0000
0000
,
1000
0000
0100
0000
,
0010
0000
0100
0000
,
1000
0000
0100
0000
,
0010
0000
0000
0000
,
0110
0000
0000
0000
;

//---------------dance-single - ----------------
#NOTEDATA:;
#CHARTNAME:;
#STEPSTYPE:dance-single;
#DESCRIPTION:;
#CHARTSTYLE:;
#DIFFICULTY:Medium;
#METER:9;
#RADARVALUES:0.367579,0.489999,0.145433,0.413926,0.000000,230.000000,217.000000,13.000000,37.000000,0.000000,0.000000,0.000000,0.000000,0.000000,0.367579,0.489999,0.145433,0.413926,0.000000,230.000000,217.000000,13.000000,37.000000,0.000000,0.000000,0.000000,0.000000,0.000000;
#CREDIT:;
#DISPLAYBPM:206.000000:207.000000;
#NOTES:
0000
0000
0000
0000
,
0000
0000
0000
0000
,
0000
0000
0000
0000
,
0000
0000
0000
0000
,
0000
0000
0000
0000
,
0001
0000
0000
1000
0000
0000
0100
0000
,
0000
1000
0000
0000
0001
0000
0000
0000
,
1000
0000
0000
0001
0000
0000
0100
0000
,
0000
0001
0000
0000
1000
0000
0000
0000
,
0020
0000
0000
2030
0000
0000
3200
0000
,
0000
1300
0000
0000
0001
0000
0000
0000
,
0020
0000
0000
0032
0000
0000
0203
0000
,
0000
0301
0000
0000
1000
0000
0000
0000
,
0002
0000
0000
0023
0000
0000
0032
0000
,
0000
1003
0000
0000
0010
0000
0000
0000
,
2000
0000
0000
3020
0000
0000
2030
0000
,
0000
3001
0000
0000
0010
0000
0000
0000
,
0200
0000
0000
0320
0000
0000
0032
0000
,
0000
1003
0000
0000
1001
0000
0000
0000
,
0200
0000
0000
0320
0000
0000
2030
0000
,
0000
3001
0000
0000
1001
0000
0000
0000
,
2000
0000
0000
3002
0000
0000
0023
0000
,
0000
0130
0000
0000
0010
0000
0010
0000
,
0011
0000
0000
1010
0000
0000
1100
0000
,
0000
0101
0000
0000
1001
0000
0000
0000
,
0020
0000
0000
1030
0000
0000
0002
0000
,
0000
1003
0000
0000
1000
0000
0001
0000
,
0020
0000
0000
0031
0000
0000
2000
0000
,
0000
3001
0000
0000
0001
0000
0100
0000
,
0020
0000
0000
1030
0000
0000
0020
0000
,
0000
0130
0000
0000
0100
0000
0001
0000
,
0020
0000
0000
0031
0000
0000
0020
0000
,
0000
0130
0000
0000
0100
0000
1000
0000
,
0001
0000
1000
0100
0000
1000
0100
0000
,
0000
0010
0000
0000
0001
0000
0001
0000
,
0010
0000
0001
0100
0000
0001
0100
0000
,
0000
0010
0000
0000
1000
0000
1000
0000
,
0100
0000
1000
0001
0000
1000
0001
0000
,
0000
1000
0000
0000
0100
0000
0010
0000
,
0011
0000
0000
1100
0000
0000
1010
0000
,
0000
0101
0000
0000
0110
0000
0000
0000
,
0002
0000
0000
1000
0000
0000
1003
0000
,
0000
0001
0000
0100
0001
0000
0000
0000
,
0020
0000
0000
0100
0000
0000
0130
0000
,
0000
1000
0000
0010
0100
0000
0010
0000
,
2000
0000
0000
0001
0000
0000
3001
0000
,
0000
1000
0000
0100
1000
0000
0000
0000
,
0020
0000
0000
0100
0000
0000
0130
0000
,
0000
0001
0000
0100
0010
0000
1000
0000
,
0002
0000
0000
0010
0000
0000
0103
0000
,
0000
0010
0000
1000
0001
0000
0010
0000
,
0200
0000
0000
1000
0000
0000
0310
0000
,
0000
0100
0000
1000
0001
0000
0100
0000
,
0020
0000
0000
1000
0000
0000
0130
0000
,
0000
0100
0000
0001
1000
0000
0100
0000
,
2000
0000
0000
0010
0000
0000
3100
0000
,
0000
1000
0000
0001
0100
0001
0100
0000
,
0001
0000
0100
0001
0000
0000
0100
0000
,
0001
1000
0000
0000
0001
0000
0000
0000
,
1000
0000
0010
1000
0000
0000
0010
0000
,
0100
0010
0000
0000
1000
0000
0000
0000
,
0001
0000
0010
0001
0000
0000
0010
0000
,
0001
1000
0000
0000
0001
0000
0000
0000
,
0100
0000
0010
1000
0000
0000
0010
0000
,
0100
0010
0000
0000
1000
0000
0000
0000
,
0001
0000
0100
0001
0000
0000
1000
0000
,
0100
1000
0000
0000
0100
0000
0000
0000
,
0010
0000
0001
1000
0000
0000
0010
0000
,
1000
0001
0000
0000
0010
0000
0000
0000
,
0100
0000
1000
0100
0000
0000
1000
0000
,
0010
0100
0000
0000
0010
0000
0000
0000
,
0100
0000
0001
0010
0000
0000
0001
0000
,
1000
0100
0000
0000
1000
0000
0001
0000
,
1001
0000
0000
0000
;

//---------------dance-single - ----------------
#NOTEDATA:;
#CHARTNAME:;
#STEPSTYPE:dance-single;
#DESCRIPTION:;
#CHARTSTYLE:;
#DIFFICULTY:Hard;
#METER:13;
#RADARVALUES:0.621688,0.653332,0.268492,0.089497,0.050342,389.000000,365.000000,24.000000,8.000000,0.000000,0.000000,0.000000,0.000000,0.000000,0.621688,0.653332,0.268492,0.089497,0.050342,389.000000,365.000000,24.000000,8.000000,0.000000,0.000000,0.000000,0.000000,0.000000;
#CREDIT:;
#DISPLAYBPM:206.000000:207.000000;
#NOTES:
0000
0000
0000
0000
,
0000
0000
0000
0000
,
0000
0000
0000
0000
,
0000
0000
0000
0000
,
0000
0000
0000
0000
,
0001
0000
0000
0100
0000
0000
0010
0000
,
0000
1000
0000
0000
0100
0000
0010
0000
,
0100
0000
0000
1000
0000
0000
0001
0000
,
0000
0100
0000
0000
0001
0000
1000
0000
,
0010
0000
1000
0100
0000
0100
1000
0000
,
0100
1000
0000
0010
1000
0001
1000
0001
,
0100
0000
0001
0010
0000
0010
0001
0000
,
0010
0001
0000
0010
0100
0000
1000
0001
,
0010
0000
0001
1000
0000
1000
0001
0000
,
1000
0001
0000
0100
0010
0100
0010
1000
,
0100
0000
1000
0010
0000
0010
1000
0000
,
0010
1000
0000
0001
0100
0001
1000
0100
,
0010
0000
0001
0100
0000
1000
0100
0000
,
0001
0100
0000
0100
0001
1000
0001
1000
,
0010
0000
1000
0010
0000
0001
0010
0000
,
1000
0010
0000
0010
0100
0000
0001
0100
,
0001
0000
1000
0100
0000
1000
0010
0000
,
1000
0100
0000
0010
0001
1000
0010
0100
,
0020
0000
1030
2000
0000
3100
0200
0000
,
0310
0020
0000
0031
0100
0010
1000
0001
,
1000
0000
0001
0100
0000
0010
0100
0000
,
1000
0100
0000
0010
1000
0001
1000
0100
,
0010
0000
0001
0010
0000
0100
0010
0000
,
1000
0010
0000
0010
0001
1000
0001
0010
,
0100
0000
1000
0100
0000
0010
0100
0000
,
0001
0100
0000
0010
0001
0100
0001
1000
,
0010
0000
1000
0010
0000
0100
0010
0000
,
0001
0010
0000
0010
1000
0001
1000
0100
,
0010
0000
0001
0100
0000
0100
0010
0000
,
0010
1000
0000
1000
0001
0010
0001
0100
,
0010
0000
1000
0010
0000
0010
0001
0000
,
0001
0010
0000
0010
1000
0000
0001
0100
,
0001
0000
1000
0100
0000
0100
0010
0000
,
0010
0001
0000
0001
0100
0010
1000
0100
,
0020
0000
0031
0002
0000
0103
0200
0000
,
0310
0020
0000
1030
0100
0010
0001
0010
,
1100
0000
0000
0101
0000
0000
1001
0000
,
0000
0010
0000
1000
0001
0000
0000
0000
,
1010
0000
0000
0011
0000
0000
1001
0000
,
0000
0000
0010
0100
0010
0000
1000
0000
0001
0000
1000
0000
0001
0000
0010
0000
,
1100
0000
0000
0110
0000
0000
0011
0000
,
0000
0100
0000
1000
0010
0000
0000
0000
,
0101
0000
0000
0110
0000
0000
1010
0000
,
0000
0000
0001
0100
0001
0000
1000
0000
0100
0000
0010
0000
0001
0000
0100
0000
,
0101
0000
0000
1010
0000
0000
0101
0000
,
0000
0010
0000
1000
0100
0000
0000
0000
,
1100
0000
0000
0011
0000
0000
1100
0000
,
0000
0000
1000
0100
1000
0000
0100
0000
0010
0000
0001
0000
0100
0000
0010
0000
,
0101
0000
0000
1001
0000
0000
1010
0000
,
0000
0001
0000
0010
0100
0000
0000
0000
,
1100
0000
0000
1001
0000
0000
0011
0000
,
0000
0000
0010
0001
0010
0000
0001
0000
0010
0000
0100
0000
1000
0000
0001
0000
,
1000
0000
0001
0001
0000
0100
0100
0000
,
0010
0010
0000
1000
0010
0100
0001
1000
,
0100
0000
0001
0010
0000
1000
0100
0000
,
0001
0100
0000
0010
1000
0100
0010
0001
,
1000
0000
0100
0100
0000
0010
0010
0000
,
0001
0001
0000
0100
0010
1000
0001
1000
,
0100
0000
0010
0001
0000
0100
1000
0000
,
0100
0000
0010
0001
0010
0000
0100
0000
0000
0010
0000
0000
0100
0000
0000
0000
,
1000
0000
0001
0001
0000
0100
0100
0000
,
1000
1000
0000
0100
0010
0000
0010
1000
,
0100
0000
0001
0100
0000
1000
0010
0000
,
0100
0001
0000
0010
0100
0010
0001
0100
,
0010
0000
0100
0100
0000
0010
0010
0000
,
0001
0001
0000
0010
0100
0000
0100
0010
,
1000
0000
0001
0010
0000
1000
0100
0000
,
0010
0000
0000
0001
1000
0000
0010
0000
0000
0100
0000
0000
0010
0000
1000
0001
,
1000
0000
0000
0000
;

//---------------dance-double - ----------------
#NOTEDATA:;
#CHARTNAME:;
#STEPSTYPE:dance-double;
#DESCRIPTION:;
#CHARTSTYLE:;
#DIFFICULTY:Easy;
#METER:5;
#RADARVALUES:0.143835,0.206264,0.067123,0.067123,0.000000,90.000000,84.000000,6.000000,6.000000,0.000000,0.000000,0.000000,0.000000,0.000000,0.143835,0.206264,0.067123,0.067123,0.000000,90.000000,84.000000,6.000000,6.000000,0.000000,0.000000,0.000000,0.000000,0.000000;
#CREDIT:;
#DISPLAYBPM:206.000000:207.000000;
#NOTES:
00000000
00000000
00000000
00000000
,
00000000
00000000
00000000
00000000
,
00000000
00000000
00000000
00000000
,
00000000
00000000
00000000
00000000
,
00000000
00000000
00000000
00000000
,
00000001
00000000
00000000
00000000
,
00000000
00000000
00000000
00000000
,
00001000
00000000
00000000
00000000
,
00000000
00000000
00000000
00000000
,
00000010
00000000
00000000
00001000
00000000
00000000
00000010
00000000
,
00000000
00000000
00000000
00000000
,
00010000
00000000
00000000
00001000
00000000
00000000
00010000
00000000
,
00000000
00000000
00000000
00000000
,
00001000
00000000
00000000
01000000
00000000
00000000
00001000
00000000
,
00000000
00000000
00000000
00000000
,
00100000
00000000
00000000
00010000
00000000
00000000
00100000
00000000
,
00000000
00000000
00000000
00000000
,
01000000
00000000
00000000
10000000
00000000
00000000
01000000
00000000
,
00000000
00000000
00000000
00000000
,
10000000
00000000
00000000
00010000
00000000
00000000
10000000
00000000
,
00000000
00000000
00000000
00000000
,
00010000
00000000
00000000
01000000
00000000
00000000
00010000
00000000
,
00000000
00000000
00000000
00000000
,
00022000
00000000
00000000
00000000
,
00000000
00000000
00033000
00000000
,
00010000
00000000
00000000
00000010
00000000
00000000
00010000
00000000
,
00000000
00000000
00000000
00000000
,
00000010
00000000
00000000
00001000
00000000
00000000
00000010
00000000
,
00000000
00000000
00000000
00000000
,
00001000
00000000
00000000
00000001
00000000
00000000
00001000
00000000
,
00000000
00000000
00000000
00000000
,
00000100
00000000
00000000
00000010
00000000
00000000
00000100
00000000
,
00000000
00000000
00000000
00000000
,
00001000
00000000
00000000
00000100
00000000
00000000
00001000
00000000
,
00000000
00000000
00000000
00000000
,
00000100
00000000
00000000
00010000
00000000
00000000
00001000
00000000
,
00000000
00000000
00000000
00000000
,
00010000
00000000
00000000
00001000
00000000
00000000
00010000
00000000
,
00000000
00000000
00000000
00000000
,
00022000
00000000
00000000
00000000
,
00000000
00000000
00000000
00033000
,
00001000
00000000
00000000
00000000
,
00100000
00000000
00000000
00000000
,
01000000
00000000
00000000
00000000
,
01100000
00000000
00000000
00000000
,
00100000
00000000
00000000
00000000
,
01000000
00000000
00000000
00000000
,
10000000
00000000
00000000
00000000
,
10010000
00000000
00000000
00000000
,
01000000
00000000
00000000
00000000
,
00001000
00000000
00000000
00000000
,
00010000
00000000
00000000
00000000
,
00000100
00000000
00000000
00000000
,
00001001
00000000
00000000
00000000
,
00000001
00000000
00000000
00000000
,
00000100
00000000
00000000
00000010
00000000
00000000
00000100
00000000
,
00000000
00000000
00000000
00000000
,
00000010
00000000
00000000
00000000
,
00010000
00000000
00000000
00000000
,
00001000
00000000
00000000
00010000
00000000
00000000
00001000
00000000
,
00000000
00000000
00000000
00000000
,
00100000
00000000
00000000
00000000
,
00010000
00000000
00000000
00000000
,
10000000
00000000
00000000
01000000
00000000
00000000
10000000
00000000
,
00000000
00000000
00000000
00000000
,
00100000
00000000
00000000
00000000
,
01000000
00000000
00000000
00000000
,
00001000
00000000
00000000
00010000
00000000
00000000
00001000
00000000
,
00000000
00000000
00000000
00000000
,
00010000
00000000
00000000
00000000
,
00000100
00000000
00000000
00000000
,
00000010
00000000
00000000
00000001
00000000
00000000
00000000
00000000
,
00001000
00000000
00000000
00000000
,
00002002
00000000
00000000
00003003
;

//---------------dance-double - ----------------
#NOTEDATA:;
#CHARTNAME:;
#STEPSTYPE:dance-double;
#DESCRIPTION:;
#CHARTSTYLE:;
#DIFFICULTY:Medium;
#METER:8;
#RADARVALUES:0.354794,0.449165,0.044749,0.290867,0.000000,222.000000,218.000000,4.000000,26.000000,0.000000,0.000000,0.000000,0.000000,0.000000,0.354794,0.449165,0.044749,0.290867,0.000000,222.000000,218.000000,4.000000,26.000000,0.000000,0.000000,0.000000,0.000000,0.000000;
#CREDIT:;
#DISPLAYBPM:206.000000:207.000000;
#NOTES:
00000000
00000000
00000000
00000000
,
00000000
00000000
00000000
00000000
,
00000000
00000000
00000000
00000000
,
00000000
00000000
00000000
00000000
,
00000000
00000000
00000000
00000000
,
01000000
00000000
00000000
00100000
00000000
00000000
00001000
00000000
,
00000000
00010000
00000000
00000000
00001000
00000000
00000000
00000000
,
00010000
00000000
00000000
00000010
00000000
00000000
00001000
00000000
,
00000000
00000100
00000000
00000000
00010000
00000000
00001000
00000000
,
00010000
00000000
00000000
00001000
00000000
00000000
00010000
00000000
,
00000000
00001000
00000000
00000000
00100000
00000000
00000000
00000000
,
01000000
00000000
00000000
10000000
00000000
00000000
01000000
00000000
,
00000000
10000000
00000000
00000000
00010000
00000000
00000000
00000000
,
01000000
00000000
00000000
00001000
00000000
00000000
01000000
00000000
,
00000000
00001000
00000000
00000000
00010000
00000000
00000000
00000000
,
00000010
00000000
00000000
00001000
00000000
00000000
00000010
00000000
,
00000000
00001000
00000000
00000000
00000100
00000000
00000010
00000000
,
00000001
00000000
00000001
00000100
00000000
00000000
00000010
00000000
,
00000010
00001000
00000000
00000000
00001000
00000000
00000100
00000000
,
00010000
00000000
00010000
00001000
00000000
00000000
00100000
00000000
,
00100000
01000000
00000000
00000000
01000000
00000000
10000000
00000000
,
00100000
00000000
00100000
01000000
00000000
00000000
00001000
00000000
,
00010000
00001000
00010000
00000000
00001000
00000000
00000100
00000000
,
00002001
00000000
00000000
00000001
00000000
00000000
00000001
00000000
,
00000000
00000001
00000000
00000000
00003001
00000000
00000000
00000000
,
00000100
00000000
00000001
00000100
00000001
00000000
00000100
00000000
,
00000000
00000100
00000000
00000000
00001000
00000000
00000000
00000000
,
00010000
00000000
01000000
00100000
01000000
00000000
00100000
00000000
,
00000000
01000000
00000000
00000000
00100000
00000000
00000000
00000000
,
00010000
00000000
10000000
00010000
10000000
00000000
00010000
00000000
,
00000000
10000000
00000000
00000000
01000000
00000000
00000000
00000000
,
00100000
00000000
00001000
00010000
00001000
00000000
00010000
00000000
,
00000000
00000010
00000000
00000000
00000100
00000000
00000000
00000000
,
00001001
00000000
00000000
00000001
00000000
00000000
00000100
00000000
,
00000001
00000010
00000001
00000000
00000100
00000000
00000000
00000000
,
00000010
00000000
00000000
00001000
00000000
00000000
00000010
00000000
,
00001000
00000100
00001000
00000000
00000100
00000000
00000000
00000000
,
00010000
00000000
00000000
00001000
00000000
00000000
00010000
00000000
,
00001000
00100000
00001000
00000000
00010000
00000000
00000000
00000000
,
01002000
00000000
00000000
01000000
00000000
00000000
01000000
00000000
,
00000000
01000000
00000000
00000000
01003000
00000000
00000000
00000000
,
00200000
00000000
00000000
20300000
00000000
00000000
32000000
00000000
,
00000000
03000000
00100000
00000000
01000000
00000000
00000000
00000000
,
00200000
00000000
00000000
00302000
00000000
00000000
00023000
00000000
,
00000000
00030000
00000100
00000000
00001000
00000000
00000100
00000000
,
00000020
00000000
00000000
00000032
00000000
00000000
00000203
00000000
,
00000000
00000300
00000010
00000000
00000100
00000000
00000000
00000000
,
00000020
00000000
00000000
00020030
00000000
00000000
00032000
00000000
,
00000000
00003000
00100000
00000000
00010000
00000000
00100000
00000000
,
20000000
00000000
00000000
30200000
00000000
00000000
00320000
00000000
,
00000000
00030000
10000000
00000000
00010000
00000000
00000000
00000000
,
02000000
00000000
00000000
03002000
00000000
00000000
00023000
00000000
,
00000000
00030000
00000010
00000000
00001000
00000000
00000010
00000000
,
00000002
00000000
00000000
00000023
00000000
00000000
00002030
00000000
,
00000000
00003000
00000001
00000000
00001000
00000000
00000000
00000000
,
00000200
00000000
00000000
00020300
00000000
00000000
00032000
00000000
,
00000000
00003000
00010000
00000000
00100000
00000000
10000000
00000000
,
00100000
00000000
01000000
00100000
01000000
00000000
00010000
00000000
,
01000000
00100000
01000000
00000000
00010000
00000000
00000000
00000000
,
10000000
00000000
00000000
01000000
00000000
00000000
00100000
00000000
,
00000000
00001000
00000000
00000000
00010000
00000000
00000000
00000000
,
00000010
00000000
00001000
00000001
00001000
00000000
00000100
00000000
,
00001000
00000001
00001000
00000000
00000010
00000000
00000000
00000000
,
00001000
00000000
00000000
00000100
00000000
00000000
00010000
00000000
,
00000000
00001000
00000000
00000000
00100000
00000000
00000000
00000000
,
01000000
00000000
10000000
01000000
10000000
00000000
00010000
00000000
,
00100000
00010000
00100000
00000000
00010000
00000000
00000000
00000000
,
01000000
00000000
00000000
00001000
00000000
00000000
00010000
00000000
,
00000000
00000010
00000000
00000000
00000100
00000000
00000000
00000000
,
00000001
00000000
00001000
00000100
00001000
00000000
00000100
00000000
,
00010000
00001000
00010000
00000000
00001000
00000000
00000000
00000000
,
01000000
00000000
00000000
10000000
00000000
00000000
01000000
00000000
,
00000000
00010000
00000000
00000000
01000000
00000000
00010000
00000000
,
01010000
00000000
00000000
00000000
;

//---------------dance-double - ----------------
#NOTEDATA:;
#CHARTNAME:;
#STEPSTYPE:dance-double;
#DESCRIPTION:;
#CHARTSTYLE:;
#DIFFICULTY:Hard;
#METER:13;
#RADARVALUES:0.618491,0.653332,0.346803,0.089497,0.000000,387.000000,356.000000,31.000000,8.000000,0.000000,0.000000,0.000000,0.000000,0.000000,0.618491,0.653332,0.346803,0.089497,0.000000,387.000000,356.000000,31.000000,8.000000,0.000000,0.000000,0.000000,0.000000,0.000000;
#CREDIT:;
#DISPLAYBPM:206.000000:207.000000;
#NOTES:
00000000
00000000
00000000
00000000
,
00000000
00000000
00000000
00000000
,
00000000
00000000
00000000
00000000
,
00000000
00000000
00000000
00000000
,
00000000
00000000
00000000
00000000
,
00010000
00000000
00001000
00010000
00000000
00001000
00100000
00000000
,
00001000
00010000
00000000
00000010
00001000
00000000
00000010
00000000
,
00000100
00000000
00000001
00001000
00000000
00000100
00010000
00000000
,
00001000
00100000
00000000
00010000
10000000
00000000
00000000
00000000
,
00010000
00100000
00010000
01000000
00000000
00000000
00010000
00100000
,
00010000
01000000
00000000
00000000
01010000
00000000
00000000
00000000
,
00100000
00001000
00010000
00000100
00000000
00000000
00010000
00000100
,
00001000
00000001
00000000
00000000
00001010
00000000
00000000
00000000
,
00001000
00000100
00001000
00000010
00000000
00000000
00001000
00000100
,
00001000
00000010
00000000
00000000
00001100
00000000
00000000
00000000
,
00000010
00010000
00001000
01000000
00000000
00000000
00001000
01000000
,
00010000
10000000
00000000
00000000
00110000
00000000
00000000
00000000
,
00100000
10000000
00010000
01000000
00000000
00000000
00100000
00010000
,
10000000
01000000
00000000
00000000
11000000
00000000
00010000
00000000
,
00100000
00001000
00010000
00001000
00000000
00000000
00000010
00010000
,
00001000
00010000
00000000
00000000
00001010
00000000
00000001
00000000
,
00000100
00000010
00001000
00000001
00000000
00000000
00000100
00000010
,
00000001
00001000
00000000
00000000
00000010
00000001
00001000
00000001
,
00000200
00000000
00001300
00000200
00000000
00000301
00000200
00000000
,
00001300
00000200
00000000
00000300
00001000
00000000
00011000
00000000
,
00010000
01000000
00100000
01000000
00000000
00000000
00100000
01000000
,
10000000
01000000
00000000
00000000
00100000
01000000
00010000
00000000
,
01000000
00001000
00010000
00001000
00000000
00000000
00010000
00001000
,
00010000
00000100
00000000
00000000
00000010
00000001
00001000
00000000
,
00000100
00001000
00000100
00000010
00000000
00000000
00000100
00000010
,
00000100
00000001
00000000
00000000
00000100
00001000
00000010
00000000
,
00010000
00001000
00100000
00001000
00000000
00000000
00100000
00010000
,
00100000
01000000
00000000
00000000
10000000
00010000
01000000
00100000
,
10000000
01000000
00010000
01000000
00000000
00000000
10000000
00100000
,
10000000
01000000
00000000
00000000
00100000
00001000
00010000
00000000
,
00001000
00000010
00000001
00000010
00000000
00000000
00000001
00000100
,
00001000
00000100
00000000
00000000
00001000
00010000
00100000
00000000
,
00100000
10000000
01000000
10000000
00000000
00000000
00100000
00010000
,
01000000
00100000
00000000
00000000
00010000
01000000
10000000
01000000
,
00200000
00000000
00310000
00200000
00000000
10300000
00200000
00000000
,
00310000
00200000
00000000
10300000
00010000
00000000
00100000
00000000
,
10010000
00000000
00000000
00101000
00000000
00000000
00010010
00000000
,
00000000
00000001
00000100
00001000
00000100
00000000
00000000
00000000
,
00001001
00000000
00000000
00010010
00000000
00000000
00101000
00000000
,
00000000
00100000
00010000
10000000
00100000
00000000
10000000
00000000
,
01100000
00000000
00000000
00110000
00000000
00000000
00011000
00000000
,
00000000
00010000
00000010
00001000
00000001
00000000
00000000
00000000
,
00000110
00000000
00000000
00001010
00000000
00000000
00011000
00000000
,
00000000
00001000
00100000
00010000
10000000
00000000
00010000
00000000
,
10100000
00000000
00000000
01010000
00000000
00000000
00011000
00000000
,
00000000
00001000
00100000
00001000
00010000
00000000
00000100
00000000
,
00000011
00000000
00000000
00001100
00000000
00000000
00011000
00000000
,
00000000
00010000
01000000
10000000
00100000
01000000
00010000
00000000
,
11000000
00000000
00000000
10010000
00000000
00000000
00110000
00000000
,
00000000
00001000
00010000
00000010
00000100
00000000
00000010
00000000
,
00000101
00000000
00000000
00001001
00000000
00000000
00001010
00000000
,
00000000
00010000
00001000
01000000
00100000
01000000
00010000
00000000
,
10000000
01000000
10000000
01000000
00000000
00010000
01000000
00010000
,
01000000
00010000
00000000
00100000
00001000
00100000
00001000
00000000
,
00010000
00000010
00010000
00000010
00000000
00000001
00000010
00000001
,
00000010
00000001
00000000
00000100
00000010
00000100
00000010
00000000
,
00010000
00000100
00010000
00001000
00000000
00100000
00010000
01000000
,
00010000
00100000
00000000
00100000
10000000
01000000
10000000
00000000
,
00001000
00100000
00001000
00010000
00000000
00000100
00000010
00000001
,
00000010
00000100
00000000
00010000
00001000
00010000
00001000
00000000
,
00100000
00010000
10000000
01000000
00000000
00100000
01000000
10000000
,
00010000
01000000
00000000
00100000
10000000
00100000
00100000
00000000
,
01000000
00010000
00100000
00001000
00000000
00000010
00000001
00000100
,
00000010
00001000
00000000
00000100
00010000
00001000
00001000
00000000
,
00100000
01000000
10000000
00010000
00000000
01000000
00001000
00010000
,
00000010
00000100
00000000
00000001
00001000
00000100
00000100
00000000
,
00010000
00001000
00010000
00100000
00000000
10000000
00100000
01000000
,
00010000
10000000
01000000
00010000
01000000
10000000
00100000
01000000
,
01000000
00000000
00000000
00000000
;

//---------------dance-single - ----------------
#NOTEDATA:;
#CHARTNAME:;
#STEPSTYPE:dance-single;
#DESCRIPTION:;
#CHARTSTYLE:;
#DIFFICULTY:Challenge;
#METER:15;
#RADARVALUES:0.915751,1.061664,0.917349,0.111872,0.218150,573.000000,491.000000,82.000000,10.000000,0.000000,0.000000,0.000000,0.000000,0.000000,0.915751,1.061664,0.917349,0.111872,0.218150,573.000000,491.000000,82.000000,10.000000,0.000000,0.000000,0.000000,0.000000,0.000000;
#CREDIT:;
#DISPLAYBPM:206.000000;
#NOTES:
// measure 0
0000
0000
0000
0000
,  // measure 1
0000
0000
0000
0000
,  // measure 2
0000
0000
0000
0000
,  // measure 3
0000
0000
0000
0000
,  // measure 4
0000
0000
0000
0000
,  // measure 5
0010
0001
0100
0010
0000
0010
1000
0000
,  // measure 6
0100
1000
0000
0010
1000
1000
1000
1000
,  // measure 7
0001
0010
0001
0100
0000
0010
1000
0000
,  // measure 8
0010
0100
0000
0001
0100
0100
0100
0100
,  // measure 9
0110
0000
0010
1010
0000
0001
1100
0000
,  // measure 10
0000
0010
0001
0100
0001
0010
0100
1000
,  // measure 11
1010
0000
0100
0101
0000
0010
1001
0000
,  // measure 12
0000
0100
0001
0010
0100
1000
0010
0100
,  // measure 13
0101
0000
0010
1010
0000
0001
0110
0000
,  // measure 14
0000
1000
0010
1000
0100
0100
0100
0000
,  // measure 15
0001
0010
0000
0001
0100
0010
1000
0000
,  // measure 16
0000
0100
0010
0100
1000
1000
0001
0100
,  // measure 17
0101
0000
1000
1100
0000
0001
1010
0000
,  // measure 18
0100
0001
0010
0100
1000
0001
0100
0000
,  // measure 19
0010
1000
0001
1000
0100
0010
0001
0000
,  // measure 20
0100
0100
0000
0010
1000
0000
0001
1000
,  // measure 21
1100
0000
0001
0011
0000
0100
1001
0000
,  // measure 22
0010
1000
0000
0100
0100
1000
0001
0100
,  // measure 23
0002
0010
0013
0002
1000
1003
0002
0100
,  // measure 24
0103
0000
0002
0000
0010
0000
0013
0000
1002
0000
0000
0000
0103
0010
1000
0001
,  // measure 25
0100
0010
1000
0100
1000
0001
0010
0000
,  // measure 26
0100
0010
0100
1000
0001
0001
0001
0000
,  // measure 27
0100
0001
0010
0001
0100
0010
1000
0000
,  // measure 28
0100
0010
0000
0001
0001
0000
0100
0010
,  // measure 29
1010
0000
0001
1100
0000
0010
0101
0000
,  // measure 30
1000
0010
1000
0001
0100
0100
0100
0000
,  // measure 31
0010
0100
0010
1000
0100
0010
0001
0000
,  // measure 32
0100
0000
0010
1000
0000
0010
1000
0000
0001
0000
0001
0000
0001
0010
0100
1000
,  // measure 33
0001
0100
0010
1000
0100
0010
0001
0000
,  // measure 34
0100
0001
0010
0100
1000
0001
1000
0000
,  // measure 35
0010
1000
0100
0001
1000
0001
0100
0000
,  // measure 36
0010
1000
0000
0100
0100
0010
0001
1000
,  // measure 37
0110
0000
0010
1001
0000
0100
1010
0000
,  // measure 38
0001
0010
0000
0100
1000
1000
0001
0100
,  // measure 39
2000
0010
3010
2000
0001
3001
2000
0100
,  // measure 40
3100
0000
2000
0000
0001
0000
3001
0000
2001
0000
0000
0000
3001
0100
0010
0000
,  // measure 41
1010
0000
0001
1100
0000
0010
0101
0000
,  // measure 42
1000
0010
1000
0001
0010
0100
1000
0001
,  // measure 43
0011
0000
0100
1010
0000
0001
0110
0000
,  // measure 44
0010
0000
1000
0001
0100
0000
0010
0000
1000
0000
0100
0010
0100
1000
0010
0100
,  // measure 45
0001
0010
1000
0100
0010
0001
0011
0000
,  // measure 46
1000
0010
1000
0001
0100
0010
1000
0100
,  // measure 47
1000
0010
0001
1000
0100
0010
1001
0000
,  // measure 48
0001
0000
0010
0100
0010
0001
1000
0000
0010
1000
0010
0100
0010
1000
0001
0100
,  // measure 49
0010
1000
0100
0001
1000
0010
0101
0000
,  // measure 50
0001
0010
1000
0001
0010
0100
1000
1000
,  // measure 51
0100
1000
0010
0001
1000
0100
1010
0000
,  // measure 52
0001
0000
1000
0010
0100
0001
0010
0000
0100
1000
0010
1000
0001
0010
0100
1000
,  // measure 53
0001
0010
0100
1100
0010
0100
1001
0000
,  // measure 54
0010
1000
0001
0010
0100
0010
0001
1000
,  // measure 55
0110
0010
1000
1100
0001
0100
0101
0000
,  // measure 56
0001
0000
0010
0001
1000
0100
0010
0000
0001
0000
0001
0000
0001
1000
0010
0100
,  // measure 57
0001
0000
1010
1100
0000
0011
0101
0000
,  // measure 58
0010
1000
0001
1000
0100
0010
0001
0100
,  // measure 59
0110
0000
1010
0101
0000
1001
1100
0000
,  // measure 60
0010
0001
0110
1000
0001
0110
1000
0000
,  // measure 61
1100
0000
0011
0101
0000
0110
1001
0000
,  // measure 62
0010
1000
0100
0010
0100
1000
0001
0010
,  // measure 63
0011
0000
1100
0101
0000
1010
0110
0000
,  // measure 64
0001
0010
0001
0100
0001
0010
0001
0100
0001
0010
0001
0100
0001
0000
0000
0000
,  // measure 65
1010
0000
1100
0011
0000
1001
0110
0000
,  // measure 66
0010
1000
0100
0010
0001
0100
0001
1000
,  // measure 67
0101
0000
0011
0101
0000
1010
1100
0000
,  // measure 68
0010
0100
1001
0010
0100
1001
0010
0000
,  // measure 69
0110
0000
1010
0101
0000
0011
1100
0000
,  // measure 70
0001
0010
1000
0100
1000
0010
0001
0100
,  // measure 71
1010
0000
1001
0011
0000
1100
0110
0000
,  // measure 72
1001
0000
0100
0010
1000
0010
0100
0000
0001
0010
0100
1000
0001
0010
0100
1000
,  // measure 73
0010
0000
0000
0000
;
