#TITLE:Nobody to Love;
#ARTIST:Sigma;
#BANNER:Nobody to Love-bn.png;
#BACKGROUND:Nobody to Love-bg.png;
#JACKET:Nobody to Love-jacket.png;
#MUSIC:Nobody to Love.ogg;
#SAMPLESTART:43.5;
#SAMPLELENGTH:20;
#DISPLAYBPM:88:175;
#BPMS:0=87.5,56=175;
#BGCHANGES:;

//---------------dance-single - ----------------
#NOTES:
     dance-single:
     :
     Beginner:
     3:
     :
0000
0000
0000
0000
,
0000
0000
0000
0000
,
0000
0000
0000
0000
,
0000
0000
0000
0000
,
0001
0000
0001
0000
,
0001
0000
0000
0000
,
1000
1000
0000
0000
,
0010
0010
0000
0000
,
1001
0000
0100
0000
,
0010
0000
0100
0000
,
0001
0001
0000
0000
,
1000
0000
0001
0000
,
1001
0000
0100
0000
,
0010
0000
0100
0000
,
0001
0000
0000
0000
,
1000
0000
0000
0000
,
0100
0000
0000
0000
,
0010
0010
0010
0000
,
1001
0000
0000
0000
,
1000
1000
0000
0000
,
0001
0001
0000
0000
,
0010
0000
0100
0000
,
1000
0000
0000
0001
,
0000
0000
0000
0000
,
0110
0000
0000
0000
,
1001
0000
0000
0000
,
0110
0000
0000
0000
,
0001
0000
0000
0000
,
0010
0000
0100
0000
,
1000
0000
0001
0000
,
1000
0000
0000
0010
,
0000
0000
0000
0000
,
1001
0000
0000
0000
,
0110
0000
0000
0000
,
1001
0000
0000
0000
,
0010
0000
0000
0000
,
0010
0000
1000
0000
,
0001
0001
0001
0000
,
0010
0000
0000
0100
,
0000
0000
0000
0000
,
1000
0000
0000
0010
,
0000
0000
0000
0000
,
0100
0000
0000
0000
,
0001
0000
0000
0000
,
0010
0000
0001
0000
,
1000
1000
1000
0000
,
0010
0000
0000
1000
,
0000
0000
0000
0000
,
0100
0000
0000
1000
,
0000
0000
0000
0000
,
0010
0010
0010
0010
,
0010
0000
1000
0000
,
0000
0002
0000
0000
,
0003
0000
0010
0020
,
0000
0000
0000
0030
,
0000
1000
1000
0000
,
0200
0000
0000
0000
,
0000
0000
0300
0000
,
0010
0000
0000
0000
,
0001
0002
0000
0000
,
0003
0000
0100
0200
,
0000
0000
0000
0300
,
0000
0010
0010
0000
,
2000
0000
3000
0000
,
0001
0000
0000
0000
,
1000
0000
0000
0000
,
1001
0000
0000
0000
;

//---------------dance-single - ----------------
#NOTES:
     dance-single:
     :
     Easy:
     7:
     :
0000
0000
0000
0000
,
0000
0000
0000
0000
,
0000
0000
0000
0000
,
0000
0000
0000
0000
,
0020
0000
0000
0000
2030
0000
0000
3002
,
0000
0100
0010
0103
,
0010
0000
0000
2020
0000
0000
3030
0000
,
0100
0000
0000
0202
0000
0000
0303
0000
,
1001
0000
0110
0000
,
1010
0000
0101
0000
,
0001
0010
0100
2000
0000
0000
3000
0000
,
1100
0000
0101
0000
,
0001
0010
1000
0100
,
1000
0010
0100
0001
,
0010
0001
0010
0100
,
1000
0010
1000
0001
,
0100
0010
0100
0001
,
1000
1000
1000
1001
,
0110
0000
0000
0010
,
1000
0001
0000
0010
,
0001
0100
0000
0001
,
0010
0100
1000
0001
,
0100
0010
1000
0002
,
0000
0000
0000
0013
,
0011
1100
0000
0010
,
1010
0101
0000
1000
,
1001
0000
0000
0010
,
1000
0100
0000
1000
,
0001
0010
0001
0100
,
1000
0000
0010
0010
,
1000
0001
0010
0200
,
0000
0000
0000
1300
,
1100
0011
0000
0100
,
0101
1010
0001
1000
,
1001
0000
0000
0010
,
1000
0000
0000
0100
0000
0000
0001
0000
,
0000
0000
0110
0000
,
0001
0001
1000
1000
,
0010
0000
0000
1000
0000
0000
0200
0000
,
0000
0001
0000
1300
,
0001
0000
0000
0100
0000
0000
0020
0000
,
0000
0001
0000
1030
,
0110
0000
0000
0001
,
0010
0000
0000
0100
0000
0000
1000
0000
,
0000
0000
1100
0000
,
0010
0010
0100
0100
,
0001
0000
0000
0010
0000
0000
2000
0000
,
0000
0100
0000
3010
,
0100
0000
0000
1000
0000
0000
0002
0000
,
0000
0100
0010
0013
,
1000
0001
1001
1001
,
0010
0000
0000
0100
0000
0000
0002
0000
,
0000
1003
1100
0000
,
0010
0010
0100
0100
,
0001
0000
0000
1000
0000
0000
2010
0000
,
0000
0001
0100
3010
,
1000
0000
0000
0100
0000
0000
0021
0000
,
0000
0100
0000
0031
,
1001
0010
1000
0100
,
0010
0000
0000
0001
0000
0000
0200
0000
,
0000
0310
0101
0000
,
1000
1000
0001
0001
,
0010
0000
0000
0001
0000
0000
1002
0000
,
0000
0100
0000
1003
,
0010
0000
0000
0010
0000
0000
0010
0000
,
0000
1000
0000
0001
,
1001
0000
0000
0000
;

//---------------dance-single - ----------------
#NOTES:
     dance-single:
     :
     Medium:
     9:
     :
0000
0000
0000
0000
,
0000
0000
0000
0000
,
0000
0000
0000
0000
,
0000
0000
0000
0000
,
0202
0000
0303
0000
2200
0000
3300
1001
,
0000
0000
0020
0000
1030
0100
0010
0001
,
0101
0000
0000
0101
0000
0000
0202
0000
0000
0000
0000
0000
0303
0000
0000
0000
,
1100
0000
0000
1100
0000
0000
2200
0000
0000
0000
0000
0000
3300
0000
0010
0000
,
2002
3003
0220
0330
,
1000
1001
0000
0000
0100
0010
1000
0000
,
1010
0000
0000
1010
0000
0000
2020
0000
0000
0000
0000
0000
3030
0000
0000
0000
,
0001
1100
0000
0000
1000
0101
0000
0000
,
1001
0000
0010
0000
1000
0100
0001
0000
,
0010
0001
0100
0010
1000
0000
0110
0000
,
0001
0100
0010
1000
,
0100
0010
0100
1000
,
0010
1000
0001
0100
,
0010
1000
0010
1000
0010
0000
1001
0000
,
1010
0000
0001
0000
0000
0100
0010
0000
,
1000
0000
0001
0000
0010
0001
0100
0000
,
1010
0101
0000
0010
,
0011
1100
0001
1000
,
0002
0023
0230
2300
,
0000
0000
3010
0000
1000
0001
0100
0000
,
1010
0101
1000
0100
,
0011
0000
1100
0000
0001
0100
0010
0000
,
1001
0010
1000
0100
,
0020
0000
0031
0000
0010
0100
1000
0000
,
0001
0100
1000
0010
,
1000
0100
0001
0000
1001
0000
0110
0000
,
2000
3020
0230
0302
,
0000
0000
0013
0100
1000
0000
0001
0000
,
0101
1100
0010
1000
,
0101
1100
0010
0100
,
2010
0001
0100
3010
,
1100
0000
0000
0110
0000
0000
0011
0000
,
0000
0000
1000
0001
0100
0000
0010
1000
,
0002
0023
0230
2300
,
3010
0000
0000
1100
0000
0000
0101
0000
,
0000
0000
1000
0100
1000
0000
0001
0100
,
0010
0000
0000
1010
0000
0000
0110
0000
,
0000
0000
0001
0100
0001
0000
1000
0000
,
0102
0010
0100
1003
,
0101
0000
0000
1010
0000
0000
1100
0000
,
0000
0000
0001
0010
0100
0000
1000
0001
,
0200
0320
2030
3002
,
0013
0000
0000
1001
0000
0000
1010
0000
,
0000
0000
0100
1000
0001
0000
0100
0010
,
1000
0000
0000
0101
0000
0000
1100
0000
,
0000
0000
0001
0000
0100
0010
0100
0010
,
1000
1000
1001
1001
,
0010
0000
1000
0100
0010
0000
0011
0000
,
0000
0100
0001
0000
0110
0000
1000
0001
,
2000
3200
0320
0032
,
0103
0000
0000
0101
0000
0000
1010
0000
,
0000
0000
1000
0100
0010
0000
0001
1000
,
0010
0000
0000
0110
0000
0000
1010
0000
,
0000
0000
1000
0000
0100
1000
0001
0000
,
0012
0010
1000
0103
,
1000
0001
0100
0000
0010
0000
1010
0000
,
0001
0000
0010
0000
1000
0001
0100
0000
,
0002
0023
0230
2300
,
3010
0000
1000
0001
0020
0000
0130
0000
,
1000
0010
1000
0000
0001
0100
0001
0000
,
0020
0000
0000
0032
0000
0000
2003
0000
,
3010
1010
0001
0100
,
0220
0000
0000
0000
,
0000
0000
0000
0000
,
0000
0000
0000
0000
,
0000
0000
0000
0330
;

//---------------dance-single - ----------------
#NOTES:
     dance-single:
     :
     Hard:
     12:
     :
0000
0000
0000
0000
,
0000
0000
0000
0000
,
0000
0000
0000
0000
,
0000
0000
0000
0000
,
2020
0000
0000
3030
0202
0000
0303
1100
,
0000
0001
0100
0010
1000
0100
1000
0001
,
0011
0000
0000
0101
0000
0000
2020
0000
0000
0000
0000
0000
0000
0000
3030
0000
,
1100
0000
0000
0110
0000
0000
0022
0000
0000
0000
0000
0000
0033
0000
1000
0000
,
2002
0000
3003
0100
0110
0010
0000
1000
,
1100
0001
0000
0100
0110
0010
1000
0001
,
0011
0000
0100
0000
1000
0000
1010
0000
0000
0000
0001
0100
0001
0000
1000
0000
,
0101
0010
0000
1000
1100
0001
0000
0010
,
1001
0100
1000
0001
0110
0010
1000
0001
,
1000
0100
0010
0001
0100
0010
1000
0001
,
0010
0001
0010
0100
1000
0010
1000
0000
,
0100
0010
0100
1000
0001
0100
0010
0000
,
1000
0100
1000
0100
0010
0001
0010
0001
,
0100
0010
0100
0010
0100
0000
1001
0000
,
0001
0100
0010
0000
1000
0100
0001
0000
,
0010
0001
0100
0010
1000
0100
0001
0000
,
0100
0001
0010
0001
0100
0010
1000
0000
,
0100
1000
0001
0000
0101
0000
0101
0000
,
1000
0010
0100
0001
0010
0100
2000
0000
,
0000
0000
3001
0100
0010
1000
0001
0000
,
0010
0001
0100
0010
0000
1000
0001
0000
,
1000
0010
0100
0001
0010
0100
1000
0000
,
0001
0010
1000
0000
0100
1000
0001
0000
,
0010
0001
0100
0010
1000
0100
0001
0000
,
1000
0001
1000
0010
0100
0001
1000
0000
,
0100
0010
0001
0000
1100
0000
1100
0000
,
0001
1000
0010
1000
0100
0010
0002
0000
,
0000
0000
0013
0001
0100
0010
1000
0000
,
0001
1000
0010
1000
0100
0010
0001
0000
,
0110
0000
1001
0000
0010
0100
0001
1000
,
0100
0000
0010
0001
0100
0001
1000
0000
,
1010
0000
0001
1000
0000
0001
0100
0000
,
0010
0000
1000
0100
1000
0000
0001
0100
,
0002
0023
0230
2300
,
3010
1000
0100
1000
0000
0001
0200
0000
,
0000
0000
0310
1000
0001
0000
0010
0100
,
1000
0000
0001
0010
0000
0001
0200
0000
,
0310
1000
0001
0000
0000
0100
0010
0000
,
0101
0000
1000
0100
0010
0001
0100
0000
,
0001
0010
0100
1000
0000
1000
0001
0000
,
0100
0000
0001
0010
0100
0000
1000
0001
,
2000
3020
0230
0302
,
0013
0001
0100
0010
0000
1000
0002
0000
,
0000
0000
0013
0001
1000
0010
0100
0000
,
0001
1000
0100
1000
0000
0010
0200
0000
,
0310
1000
0001
0000
0000
0100
0010
0100
,
0010
0010
1001
1001
,
1000
0100
1000
0001
1000
0100
0010
0000
,
0001
0100
0010
0000
1010
0000
1000
0001
,
0020
0230
2300
3002
,
0103
0001
0010
0100
1000
0001
0200
0000
,
0000
0000
0301
0010
2000
0000
3100
1000
,
0001
0100
0010
1000
0100
0000
0022
0000
,
0030
0000
1003
0001
0100
0000
0010
1000
,
0001
0000
0100
0001
1000
0001
0100
0000
,
0010
1000
0001
0010
0001
0100
2000
0000
,
0010
0000
3100
1000
0001
0010
0002
0000
,
0203
0302
2003
3020
,
1030
0100
0010
0001
0100
0010
2000
0000
,
0000
3001
1000
0001
0100
0010
1000
0001
,
0010
0000
0001
0100
0001
1000
0020
0000
,
0130
0000
0110
0000
1000
0010
0001
0000
,
0202
0000
0000
0000
,
0000
0000
0000
0000
,
0000
0000
0000
0000
,
0000
0000
0000
0303
;
