#TITLE:No. 13;
#ARTIST:TAKA respect for J.S.B.;
#BANNER:No. 13-bn.png;
#BACKGROUND:No. 13-bg.png;
#JACKET:No. 13-jacket.png;
#MUSIC:No. 13.ogg;
#SAMPLESTART:25.13;
#SAMPLELENGTH:20;
#DISPLAYBPM:172;
#BPMS:0=172;
#BGCHANGES:;

//---------------dance-single - ----------------
#NOTES:
     dance-single:
     :
     Beginner:
     4:
     :
0000
0000
0000
0000
,
0000
0000
0000
0000
,
0000
0000
0000
0000
,
0000
0000
0000
0000
,
0000
0000
0000
0000
,
0000
0000
0000
0000
,
0100
0000
0010
0000
,
0100
0000
1000
0000
,
0100
0000
0001
0000
,
0010
0000
0100
0000
,
0000
0100
0000
0100
,
0000
1000
0000
0010
,
0000
0001
0000
1000
,
0000
1000
0000
0001
,
0000
0010
0000
0100
,
0000
0001
0000
0010
,
0000
0100
0000
0001
,
0000
0000
0000
0000
,
0100
0000
0010
0000
,
1001
0000
1001
0000
,
0001
0000
0100
0000
,
0001
0000
0001
0000
,
0010
0000
0000
0100
,
0000
0010
0000
0100
,
0000
0100
0000
1000
,
0000
0100
0000
0100
,
0000
0000
0000
0010
,
0000
0010
0000
0010
,
0000
0100
0000
0010
,
0000
0100
0000
0100
,
0000
0000
0000
0000
,
0010
0000
0010
0000
,
1000
0000
0000
0001
,
0000
1001
0000
1001
,
0000
1000
0000
1000
,
0000
0001
0000
0001
,
0000
0100
0000
0100
,
0000
0010
0000
1000
,
0000
0001
0000
1000
,
0000
0100
0000
1000
,
0000
0000
0010
0000
,
0001
0000
0100
0100
,
0000
0000
0001
0000
,
0100
0000
1000
1000
,
0000
1000
0000
0100
,
0000
0100
0000
0010
,
0000
0001
0000
0010
,
0000
0010
0000
1000
,
0000
0000
0000
0000
,
0000
0000
0000
0010
,
0000
0001
0000
0100
,
0000
0010
0000
1000
,
0000
0000
0001
0000
,
1000
0000
0100
0000
,
0001
0000
0100
0000
,
0010
0000
0001
0000
,
0001
0000
1000
0000
,
0100
0000
0001
0000
,
0001
0000
0010
0000
,
0100
0000
0010
0000
,
0100
0000
0001
0000
,
0010
0000
0001
0000
,
0001
0000
0010
0000
,
0010
0000
1001
0000
,
0000
0000
0000
0000
;

//---------------dance-single - ----------------
#NOTES:
     dance-single:
     :
     Easy:
     5:
     :
0000
0000
0000
0000
,
0000
0000
0000
0000
,
0000
0000
0000
0000
,
0000
0000
0000
0000
,
0000
0000
0000
0000
,
0000
0000
0000
0000
,
0100
0001
0010
0000
,
0100
0010
1000
0000
,
0100
0010
0001
0000
,
0010
1000
0100
0000
,
0010
0100
1000
0100
,
0001
1000
0100
0010
,
0100
0001
0100
1000
,
0010
1000
0100
0001
,
0000
0010
1000
0100
,
0000
0001
1000
0010
,
0000
0110
0000
1001
,
0000
1000
0001
1000
,
0100
1000
0010
0100
,
0002
1000
1000
1003
,
0001
0010
1000
0100
,
2000
0001
0001
3001
,
0020
0000
0000
0130
,
1000
0010
0001
0100
,
1000
0100
0010
1000
,
0001
0100
1000
0100
,
2002
0000
3003
0010
,
1000
0010
0001
0000
,
1000
0100
0001
0000
,
1000
0100
0001
0000
,
0020
0000
0000
0030
,
1000
0001
1000
0001
,
2000
0000
0000
3001
,
0010
0100
0010
0100
,
0010
1000
0100
1000
,
0010
0001
0100
0001
,
1000
0100
0010
0100
,
0001
0010
0100
1000
,
0010
0001
0100
1000
,
0010
0100
0001
1000
,
2002
3003
0220
0330
,
2002
0000
0000
3003
,
0220
0330
2002
3003
,
0220
0000
0000
0330
,
0010
1000
0001
0000
,
1000
0100
0001
0000
,
1000
0001
1000
0010
,
0100
0010
0001
0000
,
0200
0000
0000
0000
,
0000
0000
0000
0310
,
0001
0001
0100
0100
,
0010
0010
1000
1000
,
0100
0000
0001
0000
,
1000
0000
0100
0000
,
0001
0000
0100
0000
,
0010
0000
1000
0000
,
0001
0100
1000
0010
,
0100
1000
0001
0010
,
0001
0100
0010
1000
,
0100
0001
0010
1000
,
0100
0010
0001
0000
,
0010
1000
0001
0000
,
0010
1000
0100
0001
,
0010
0100
1001
0000
,
0000
0000
0000
0000
;

//---------------dance-single - ----------------
#NOTES:
     dance-single:
     :
     Medium:
     9:
     :
0000
0000
0000
0000
,
0000
0000
0000
0000
,
0000
0000
0000
0000
,
0000
0000
0000
0000
,
0000
0000
0000
0000
,
0000
0000
0000
0000
,
0010
1000
0000
0001
0000
0010
0000
0100
,
1000
0010
0000
0100
0000
0001
1000
0100
,
0000
1000
0000
0010
0000
0100
0001
0010
,
0000
0100
0000
1000
0001
0100
0000
1100
,
0000
0001
0010
0000
1000
0010
0100
0000
,
0010
1000
0001
0000
0010
0001
0100
0000
,
0001
1000
0100
0000
1000
0010
0100
0000
,
0001
0010
0100
0000
1000
0100
0010
0001
,
0000
1000
0010
0000
0100
0001
1000
0100
,
0000
1000
0010
0000
1000
0001
0100
0010
,
0000
0001
0010
0100
0000
1000
0010
0100
,
0000
1010
0000
0101
0000
1001
0000
0100
,
0010
0000
0100
1000
0001
0100
0010
0000
,
1010
0101
1001
0110
,
1000
0000
0001
0100
0010
0100
0001
0000
,
0011
1100
0101
1010
,
2002
0000
3003
0110
,
0001
0010
0100
0000
1000
0010
0100
0000
,
0001
0100
0001
0000
1000
0100
1000
0000
,
0010
1000
0100
0000
0010
0001
0100
0000
,
2020
0000
3030
0101
,
0001
1100
0010
0101
,
1000
0010
0001
0000
1000
0100
0001
0000
,
0010
1001
0100
1010
,
0002
0000
0000
1003
,
0010
0001
0100
0000
0001
0010
0100
0000
,
2000
0000
3000
0101
,
1000
0010
0100
0000
0010
1000
0001
0000
,
1000
0100
0000
0001
0000
0010
0000
0001
,
0100
0010
0000
1000
0000
0100
0000
0010
,
0100
0001
0000
1000
0000
0100
0000
0010
,
0100
1000
0000
0100
0000
0010
0001
1000
,
0100
0001
0000
1000
0000
0010
0000
0100
,
0001
1000
0010
0000
1000
0100
0010
0000
,
1000
0011
1100
0110
,
2020
0000
3030
0000
0001
0010
0100
0000
,
0001
1010
0110
0101
,
2002
0000
3003
0000
1000
0010
0100
0000
,
0010
1000
0010
0000
0100
0001
0100
0000
,
0001
0010
0001
0000
1000
0100
1000
0000
,
0010
0100
0000
0001
0000
1000
0000
0100
,
0010
0001
0000
0100
0000
0010
1000
0100
,
0010
0001
0100
1000
,
0010
1000
0100
1001
,
0010
0100
1000
0000
0010
0100
0001
0000
,
1000
0100
0010
0000
0001
0100
0010
0000
,
1000
0011
1001
0101
,
0010
1100
0110
0101
,
1000
0011
0100
1010
,
0001
0000
1000
0001
0010
0000
1100
0000
,
0001
1000
0010
0000
1000
0010
0001
0000
,
0010
0000
0100
1000
0010
1000
0001
0000
,
1000
0100
0010
0000
0100
1000
0001
0000
,
0010
0000
0100
0001
1000
0100
1000
0000
,
0010
1000
0100
0000
0010
0001
0100
0000
,
0001
0000
0100
1000
0001
1000
0010
0000
,
0100
1000
0010
0000
1000
0001
0100
0000
,
0010
0100
0001
0000
1100
0000
0000
0000
,
0000
0000
0000
0000
;

//---------------dance-single - ----------------
#NOTES:
     dance-single:
     :
     Hard:
     13:
     :
0000
0000
0000
0000
,
0000
0000
0000
0000
,
0000
0000
0000
0000
,
0000
0000
0000
0000
,
0000
0000
0000
0000
,
0000
0000
0000
0000
,
0001
1000
0100
0001
0100
1000
0001
0100
,
0010
0100
0001
0010
1000
0010
0001
1000
,
0010
0100
0001
0010
0001
1000
0010
0001
,
1000
0100
0001
0010
0100
1000
0000
0101
,
0000
0010
1000
0100
1000
0001
0100
0010
,
0100
0001
0010
0100
0010
0001
1000
0010
,
0100
1000
0100
0001
1000
0010
0001
0010
,
0100
0001
0010
0001
1000
0100
0010
1001
,
0000
0010
0100
0001
0010
0001
0100
1100
,
0000
1000
0010
0100
0010
1000
0001
0110
,
0000
0001
0010
1100
0000
1000
0010
0101
,
0000
0010
0100
1001
0000
1000
0001
0100
,
0010
1000
0001
1000
0100
0010
0001
0100
,
0010
0100
0001
0010
1000
0010
0001
1000
,
0100
1000
0010
0100
0001
0100
1000
0100
,
0010
1000
0100
0001
0100
1000
0010
0100
,
0002
1000
0013
1100
,
0001
0010
0100
1000
0010
0100
0001
1000
,
0100
0010
0001
0100
0010
1000
0001
0100
,
0010
0100
0001
1000
0100
0010
0001
0020
,
0200
0000
0330
1001
,
0001
0000
0000
0001
0100
0000
0000
0100
1000
0000
0000
1000
0100
0000
0000
0100
,
0010
0000
0000
0010
1000
0000
0000
1000
0100
0000
0000
0100
0001
0000
0000
0001
,
0100
0000
0000
0100
1000
0000
0000
1000
0010
0000
0000
0010
1000
0000
0000
1000
,
0002
0100
0010
1003
,
0010
0001
0100
0001
1000
0010
0100
0001
,
2000
0001
3010
0101
,
1000
0010
0100
0001
0010
0100
1000
0010
,
0100
1000
0100
0001
0100
0010
0100
0001
,
0100
0010
0100
1000
0100
0010
0100
1000
,
0100
0001
0010
1000
0010
0001
0100
0001
,
1000
0100
0010
0100
1000
0010
0001
1000
,
0100
0001
0010
0001
0100
0010
1000
0100
,
0001
0100
1000
0010
0100
0001
0100
0010
,
2000
0000
0001
0000
0100
0000
0010
0010
,
0020
0000
3030
0000
0001
0010
0100
1000
,
0002
0000
1000
0000
0010
0000
0100
0100
,
0200
0000
0303
0000
1000
0001
0100
0001
,
0010
0000
0000
0010
0100
0000
0000
0100
1000
0000
0000
1000
0010
0000
0000
0010
,
0001
0000
0000
0001
1000
0000
0000
1000
0100
0000
0001
0000
0100
0000
0010
0000
,
1000
0000
0000
1000
0100
0000
0000
0100
0001
0000
0000
0001
0100
0000
0000
0100
,
1000
0000
0000
1000
0001
0000
0000
0001
0100
0000
0010
0000
1000
0000
0001
0000
,
1000
0100
1000
0100
1000
0010
1000
0010
,
0001
0010
0001
0010
0100
0001
1001
0000
,
0010
0100
1000
0010
0100
0001
0100
0010
,
1000
0100
0010
0001
1000
0100
0001
0100
,
1000
0000
0000
1000
0010
0000
0000
0010
0100
0000
0000
0100
0001
0000
0000
0001
,
0010
0000
0000
0010
0100
0000
0000
0100
1000
0000
0000
1000
0001
0000
0000
0001
,
0100
0000
0000
0100
0010
0000
0000
0010
0100
0000
0000
0100
0001
0000
0000
0001
,
0010
0000
0000
0010
1000
0000
0000
1000
0010
0000
0000
0000
0110
0000
0000
0000
,
0001
0100
0010
0100
0001
0010
1000
0001
,
0100
0010
0100
1000
0010
1000
0001
0100
,
0001
1000
0100
0010
0100
1000
0010
0100
,
0001
0010
0001
0100
0001
1000
0100
0010
,
0001
1000
0010
0100
0010
1000
0100
0010
,
0100
1000
0001
0100
0010
0100
0001
0010
,
0100
1000
0010
0100
0001
0010
0100
1000
,
0001
1000
0100
0010
1001
0000
0000
0000
,
0000
0000
0000
0000
;

//---------------dance-single - ----------------
#NOTES:
     dance-single:
     :
     Challenge:
     17:
     :
0000
0000
0000
0000
,
0000
0000
0000
0000
,
0000
0000
0000
0000
,
0000
0000
0000
0000
,
0000
0000
0000
0000
,
0000
0000
0000
0000
,
0010
1000
0010
1000
0010
1000
0100
0000
0010
0001
0010
0001
0010
0001
0100
0000
,
0001
0010
0000
0001
0100
0010
0000
1000
0001
1000
0000
0100
0010
0001
0000
1000
,
0001
0100
0001
0100
0001
0100
0010
0000
1000
0100
1000
0100
1000
0100
0010
0000
,
0001
0100
0001
0100
0001
0100
0001
0100
0001
0100
0001
0000
0000
0000
1001
0000
,
0000
0000
0110
0000
1000
0010
0100
0000
0001
0010
0100
0000
1000
0000
0001
0000
,
0000
0000
0100
0000
0001
0010
0001
0010
0100
1000
0001
0000
0100
0000
0010
0000
,
0000
0000
1000
0000
0001
0100
0001
0000
0010
0100
0010
0000
0001
1000
0001
0000
,
1000
0100
1000
0000
0010
0100
0001
0100
0010
1000
0001
0000
0011
0000
1100
0000
,
0000
0000
0010
0000
1000
0001
0010
0001
0010
0100
1000
0000
1010
0000
0101
0000
,
0000
0000
0001
0000
1000
0010
1000
0010
1000
0100
0010
0000
0110
0000
1001
0000
,
0000
0000
0010
1000
0100
1000
0010
0000
0000
0000
0100
0001
0010
0000
0100
0000
,
0000
1000
0100
0000
0010
0001
0000
0001
1000
0010
0100
0010
1000
0000
0001
0000
,
1000
0000
0010
0000
0100
0000
0001
0000
0000
0010
0000
0000
1000
0000
0000
0010
0000
0000
0001
0000
0000
0100
0000
0000
,
0010
0000
1000
0100
1000
0000
0001
0100
0001
0000
0010
0000
0001
0000
1000
0000
,
0001
0010
0100
0010
0001
0000
0100
0010
1000
0000
0001
0000
1000
0000
0100
0000
,
0010
0000
0001
1000
0001
0000
0010
0100
0010
0000
0100
1000
0001
0000
0100
0000
,
0010
1000
0010
0100
0001
0010
0100
1000
0001
0000
0100
0010
1000
0000
0001
0000
,
0010
0001
0010
0100
1000
0010
1000
0001
0100
0000
0001
0000
0010
0000
1000
0000
,
0010
0000
0001
0100
0001
0100
0010
0000
1000
0100
0010
0001
0100
0010
0100
0001
,
1000
0000
0001
0100
0010
0000
0100
0000
0001
0000
0010
0100
1000
0000
0001
0000
,
1001
0000
0000
0010
1000
0000
0100
0000
0010
0000
0000
0001
1000
0000
0001
0000
,
0110
0000
0000
0001
0100
0010
0000
0010
1000
0000
0000
0100
1000
0001
0000
0001
,
0100
0000
0000
0001
0010
0000
0100
0000
1000
0000
0000
0001
1000
0000
0010
0000
,
0100
0000
0000
0001
0010
0000
0000
0001
0100
0000
0000
0010
1000
0000
0000
0000
,
1100
0000
0001
0010
0001
0000
0010
0100
1000
0000
0001
1000
0010
0100
0001
0000
,
0010
0000
0001
0100
0010
0000
1000
0001
1000
0000
0100
0010
0001
0000
1000
0001
,
0100
0000
0010
1000
0010
0000
0100
0001
0010
0000
0001
1000
0001
0000
0100
0000
,
0001
0000
0010
0100
0010
0000
0001
1000
0010
0000
1000
0100
0010
0000
0001
1000
,
0001
0000
0100
0000
0010
0000
1000
0000
0100
0000
0010
0001
0100
0000
0010
1000
,
0100
0000
0010
0000
0001
0000
1000
0000
0010
0000
1000
0001
0100
0000
0010
0000
,
1000
0000
0100
0000
0001
0000
0010
0000
0001
1000
0001
1000
0010
0000
0100
0000
,
0001
0010
0001
0000
1000
0000
0010
0000
0100
0000
0001
1000
0100
0000
0010
0000
,
0001
0100
0010
0000
1000
0000
0001
0000
1000
0010
0000
0100
0001
0000
0010
0000
,
0100
1000
0000
1000
0001
0000
0100
0000
0010
1000
0000
1000
0001
0000
0010
0000
,
0100
0000
1000
0001
1000
0000
0001
0010
0001
0000
0010
0100
0010
0000
0001
1000
,
0100
0010
0001
0010
0100
1000
0001
0000
0011
0000
0110
0000
1100
0000
0110
0000
,
0011
0000
1000
0010
1000
0000
0001
0010
0001
0000
0100
0010
1000
0000
0001
0010
,
0100
1000
0100
0010
0001
0000
0000
0000
0101
0000
0110
0000
1010
0000
0110
0000
,
0101
0000
0010
0001
0010
0000
0010
0001
0010
0000
0010
0001
0010
0000
0100
0000
,
1000
0001
0100
0010
0100
0001
1000
0001
0020
0000
0230
0000
2300
0000
3002
0000
,
1003
0010
0100
0010
1000
0000
0001
0010
0100
0000
1000
0001
0100
0000
0010
1000
,
0001
0100
0001
0010
0100
1000
0010
0100
0002
0000
0023
0000
0230
0000
2300
0000
,
3001
0000
0001
0100
1000
0000
1000
0010
,
0100
0001
0010
0001
0100
0010
1000
0001
,
0010
0001
0010
0000
0010
0000
0010
1000
0010
0000
0010
0100
0010
0000
0010
0000
,
0010
0100
0010
0000
0010
0000
0010
0001
0010
0000
0010
1000
0010
0001
0010
0100
,
1000
0001
0100
0010
0100
1000
0100
0001
,
0010
0100
0001
0100
1000
0010
0001
1000
,
0001
0000
0100
0001
0010
0100
1000
0010
1000
0001
0010
0001
0100
0010
1000
0001
,
0010
0001
0100
0001
1000
0010
0001
0100
,
0010
0000
1000
0100
1000
0000
0001
0100
0001
0000
0010
0100
1000
0000
0001
0000
,
0100
0001
0010
1000
0001
0010
1000
0100
,
0010
0001
0100
0000
0010
1000
0100
0000
1000
0010
0100
0000
0001
0010
0100
0000
,
1000
0000
0010
0000
1000
0001
0100
0010
1000
0100
0010
0100
0010
0100
1000
0001
,
0100
0010
0100
0001
1000
0100
0010
0001
0100
0000
0010
0000
1000
0000
0001
0000
,
0010
0000
0100
0000
1000
0000
0001
0100
0000
0100
0010
0000
1000
0000
0001
0000
,
1000
0100
0010
0001
0100
0000
0001
0010
0001
0000
1000
0100
0010
0000
0001
0000
,
0101
1010
1100
0011
1001
0000
0000
0000
;

//---------------dance-double - ----------------
#NOTES:
     dance-double:
     :
     Easy:
     5:
     :
00000000
00000000
00000000
00000000
,
00000000
00000000
00000000
00000000
,
00000000
00000000
00000000
00000000
,
00000000
00000000
00000000
00000000
,
00000000
00000000
00000000
00000000
,
00000000
00000000
00000000
00000000
,
00100000
00010000
01000000
00000000
,
00100000
10000000
01000000
00000000
,
00010000
00001000
00000010
00000000
,
00000001
00000000
00001000
00000000
00000100
00000000
00000000
00001000
,
00000000
00000010
00000100
00000000
,
00000001
00001000
00000010
00000000
,
00000100
00001000
00010000
00000000
,
00100000
00000000
10000000
00000000
01000000
00000000
00000000
00100000
,
00000000
00000000
00010000
00000000
10000000
00000000
00000000
01000000
,
00000000
00000000
00010000
00000000
00001000
00000000
00000000
00000010
,
00000000
00000000
00000000
00000100
00000000
00000000
00000000
00001000
,
00000000
00000001
00000000
00001000
00000000
00000001
00000000
00000000
,
00000100
00001000
00010000
00000000
,
00100000
10000000
00100000
10000000
,
01000000
00100000
00001000
00000000
,
00010000
00001000
00010000
00001000
,
00010000
01000000
10000000
00000000
,
10000000
00100000
01000000
00000000
,
00010000
00100000
01000000
00000000
,
00010000
00000000
00001000
00000000
,
00000100
00000000
00000001
00000000
,
00000010
00000010
00000100
00000100
,
00000010
00000001
00000100
00001000
,
00000010
00000010
00000100
00000100
,
00001001
00000000
00000000
00000000
,
00000001
00000100
00001000
00010000
,
00011000
00000000
00000000
00001000
,
00010000
01000000
10000000
00100000
,
01000000
01000000
00100000
00100000
,
00010000
10000000
00100000
01000000
,
00010000
00010000
10000000
10000000
,
01000000
00010000
00001000
00000100
,
00000001
00000001
00001000
00001000
,
00000001
00001000
00000001
00001000
,
00000002
00000000
00000000
00000000
,
00000000
00000000
00001000
00001003
,
00000020
00000000
00000000
00000000
,
00000000
00000000
00000100
00000130
,
00000001
00000000
00000100
00000000
,
00001000
00000000
00010000
00100000
,
10000000
00000000
01000000
00000000
,
00010000
00000000
00001000
00000010
,
00000002
00000000
00000000
00000000
,
00000000
00000000
00000003
00000110
,
00001000
00001000
00000100
00000100
,
00000010
00000010
00000001
00000001
,
00000100
00000000
00001000
00000000
,
00010000
00000000
01000000
00000000
,
10000000
00000000
00010000
00000000
,
01000000
00000000
10010000
00000000
,
00100000
00100000
01000000
01000000
,
00100000
10000000
00010000
01000000
,
00010000
00010000
00001000
00001000
,
00000100
00001000
00000010
00000100
,
00000001
00000001
00001000
00001000
,
00000001
00001000
00000001
00001000
,
00000010
00000100
00000001
00000100
,
00001000
00010000
00011000
00000000
,
00000000
00000000
00000000
00000000
;

//---------------dance-double - ----------------
#NOTES:
     dance-double:
     :
     Medium:
     9:
     :
00000000
00000000
00000000
00000000
,
00000000
00000000
00000000
00000000
,
00000000
00000000
00000000
00000000
,
00000000
00000000
00000000
00000000
,
00000000
00000000
00000000
00000000
,
00000000
00000000
00000000
00000000
,
00010000
00001000
00000000
00000100
00000000
00000001
00000000
00000010
,
00000000
00000100
00000000
00001000
00000000
00000001
00000100
00000000
,
00000100
00000010
00000000
00001000
00000000
00000100
00000000
00001000
,
00000000
00000010
00000000
00010000
00001000
00100000
00000000
00011000
,
00000000
00100000
10000000
00000000
00010000
00100000
00010000
00000000
,
10000000
00100000
10000000
00000000
01000000
10000000
01000000
00000000
,
00010000
01000000
00010000
00000000
00001000
00010000
00001000
00000000
,
00000010
00001000
00000010
00000000
00000001
00000010
00000001
00000100
,
00000000
00001000
00000100
00000000
00000001
00000010
00000100
00001000
,
00000000
00000010
00001000
00000000
00000001
00000100
00000010
00001000
,
00000000
00000100
00010000
00001000
00000000
00010000
00001000
00100000
,
00000000
01000000
00000000
10000000
00000000
00100000
00000000
01000000
,
00010000
00000000
10000000
00000000
01000000
10000000
00100000
00000000
,
01010000
00110000
10100000
11000000
,
00010000
00000000
00001000
00000000
00000010
00000100
00001000
00000000
,
00000011
00001100
00000101
00001010
,
00002002
00000000
00003003
00000110
,
00000001
00000010
00000001
00000000
00001000
00000010
00001000
00000000
,
00000001
00000100
00000001
00000000
00001000
00000100
00001000
00000000
,
00000001
00000100
00000010
00000000
00010000
00000000
00001000
00000000
,
00022000
00000000
00033000
00011000
,
01000000
10000000
00100000
00010000
,
00100000
10000000
01000000
00000000
00100000
00010000
01000000
00000000
,
00010000
00001000
00000100
00000010
,
00000001
00000000
00000000
00001000
,
00000010
00000001
00000100
00000000
00000001
00000010
00000100
00000000
,
00001000
00000000
00000000
00000101
,
00000001
00000010
00001000
00000000
00010000
00100000
10000000
00000000
,
00100000
01000000
00000000
00010000
00000000
10000000
00000000
01000000
,
00000000
00100000
00000000
01000000
00000000
10000000
00000000
00100000
,
00000000
00010000
00000000
00001000
00000000
00000010
00000000
00000001
,
00000000
00000100
00000000
00001000
00000000
00000100
00000000
00000010
,
00000000
00001000
00000000
00000100
00000000
00000010
00000000
00000001
,
00000000
00000100
00000000
00000010
00000000
00010000
00001000
00000000
,
01000000
10010000
00110000
11000000
,
01100000
00000000
00000000
00000000
10000000
00100000
10000000
00000000
,
01000000
01010000
00011000
00001010
,
00000101
00000000
00000000
00000000
00000001
00000010
00000001
00000000
,
00000010
00001000
00000100
00000001
,
00000010
00000001
00000100
00000000
00000010
00001000
00000100
00000000
,
00010000
00001000
00010000
00100000
,
10000000
00010000
01000000
00000000
00100000
10000000
01000000
00000000
,
00100000
01000000
10000000
00100000
,
00010000
00001000
00000010
00001001
,
00000100
00001000
00000010
00000000
00000100
00000001
00000010
00000000
,
00000001
00000100
00001000
00000000
00010000
01000000
10000000
00000000
,
00010000
00100000
01000000
10000000
,
00100000
01000000
00010000
10000000
,
01000000
00010000
00001000
00000010
,
00000001
00000000
00001000
00000001
00000010
00000000
00001100
00000000
,
00000010
00000001
00001000
00000000
00000010
00001000
00000100
00000000
,
00010000
00000000
00001000
00000000
00100000
00010000
01000000
00000000
,
00010000
10000000
01000000
00000000
00100000
00010000
01000000
00000000
,
00001000
00000000
00100000
00000000
01000000
00010000
00001000
00000000
,
00000010
00000001
00000100
00000000
00000001
00001000
00000010
00000000
,
00000100
00000000
00000001
00000000
00000010
00001000
00010000
00000000
,
00100000
01000000
00010000
00000000
00100000
01000000
10000000
00000000
,
01000000
00010000
00001000
00000000
00011000
00000000
00000000
00000000
,
00000000
00000000
00000000
00000000
;

//---------------dance-double - ----------------
#NOTES:
     dance-double:
     :
     Hard:
     12:
     :
00000000
00000000
00000000
00000000
,
00000000
00000000
00000000
00000000
,
00000000
00000000
00000000
00000000
,
00000000
00000000
00000000
00000000
,
00000000
00000000
00000000
00000000
,
00000000
00000000
00000000
00000000
,
00000001
00001000
00000010
00000100
00000001
00001000
00000100
00000000
,
00000010
00000001
00000100
00000010
00001000
00000010
00000001
00000000
,
00000010
00000100
00001000
00010000
01000000
10000000
00100000
00000000
,
01000000
00010000
10000000
01000000
00100000
01000000
00000000
10010000
,
00000000
00100000
01000000
10000000
01000000
00010000
00000000
00001000
,
00000000
00000010
00000001
00000100
00000010
00001000
00000000
00000001
,
00000000
00000100
00000010
00000100
00000001
00000010
00000000
00000100
,
00000000
00001000
00000010
00000100
00000010
00001000
00000000
00000101
,
00000000
00000010
00001000
00010000
01000000
10000000
00000000
01010000
,
00000000
00100000
10000000
01000000
00100000
00010000
00000000
00011000
,
00000000
00000010
00000100
00001000
00000000
00000010
00000100
00000001
,
00000000
00001000
00000010
00000100
00000000
00000001
00000100
00001000
,
00010000
00001000
00000100
00000001
00001000
00000100
00000010
00000000
,
00000001
00000010
00000000
00000000
00000100
00001000
00000000
00000000
00000010
00001000
00000000
00000000
00000001
00000100
00000000
00000000
,
00000010
00000100
00001000
00010000
00100000
10000000
00010000
00000000
,
01000000
00010000
00000000
00000000
10000000
01000000
00000000
00000000
00100000
00010000
00000000
00000000
10000000
00100000
00000000
00000000
,
02000000
10000000
03100000
10010000
,
00100000
00010000
01000000
00010000
10000000
01000000
00100000
00000000
,
01000000
10000000
00100000
00010000
00001000
00000010
00000001
00000000
,
00000010
00000100
00001000
00000001
00000100
00000010
00001000
00000020
,
00000200
00000000
00000330
00001001
,
00000001
00000000
00000000
00000001
00000010
00000000
00000000
00000010
00000100
00000000
00000000
00000100
00001000
00000000
00000000
00001000
,
00000100
00000000
00000000
00000100
00010000
00000000
00000000
00010000
00001000
00000000
00000000
00001000
00100000
00000000
00000000
00100000
,
00010000
00000000
00000000
00010000
01000000
00000000
00000000
01000000
00100000
00000000
00000000
00100000
10000000
00000000
00000000
10000000
,
02000000
10000000
00100000
03010000
,
00001000
00000100
00001000
00010000
01000000
10000000
00100000
01000000
,
00020000
10000000
00130000
11000000
,
00010000
00001000
00000010
00000001
00000100
00000010
00001000
00000000
,
00000001
00000100
00001000
00000100
00000001
00000100
00001000
00010000
,
01000000
10000000
01000000
00100000
01000000
00010000
01000000
10000000
,
00100000
00010000
00100000
01000000
00100000
10000000
00100000
00010000
,
00001000
00000010
00000001
00000010
00000100
00000010
00001000
00000010
,
00000001
00000100
00000010
00001000
00000100
00010000
00001000
00100000
,
00010000
01000000
00100000
10000000
01000000
00010000
00001000
00000010
,
00000001
00000000
00001000
00000000
00000010
00000000
00000100
00000001
,
00000010
00000000
00000000
00000000
00000001
00000100
00000010
00001000
,
00000001
00000000
00000010
00000000
00000100
00000000
00000010
00000001
,
00000100
00000000
00000000
00000000
00001000
00010000
01000000
10000000
,
00100000
00000000
01000000
00010000
10000000
01000000
00100000
01000000
,
10000000
00000000
00100000
00000000
10000000
01000000
10000000
00100000
,
01000000
00000000
10000000
01000000
00010000
00001000
00000100
00000001
,
00000010
00000000
00000100
00000000
00001000
00000010
00000100
00000001
,
00001010
00001100
00000101
00000011
,
00001001
00001100
00000110
00000101
,
00000010
00000100
00001000
00000010
00000100
00000001
00000100
00000000
,
00000001
00000010
00001000
00010000
01000000
10000000
01000000
00000000
,
00100000
00000000
00000000
00100000
00010000
00000000
00000000
00010000
01000000
00000000
00000000
01000000
00100000
00000000
00000000
00100000
,
10000000
00000000
00000000
10000000
01000000
00000000
00000000
01000000
00010000
00000000
00000000
00010000
00001000
00000000
00000000
00001000
,
00000010
00000000
00000000
00000010
00000001
00000000
00000000
00000001
00000100
00000000
00000000
00000100
00000010
00000000
00000000
00000010
,
00010000
00000000
00000000
00010000
00001000
00000000
00000000
00001000
00000010
00000000
00000000
00000000
00000110
00000000
00000000
00000000
,
00000001
00000100
00000010
00000100
00000001
00000010
00001000
00000000
,
00010000
00100000
01000000
00010000
00100000
01000000
10000000
00000000
,
00100000
10000000
01000000
00100000
00001000
00010000
01000000
00000000
,
10000000
00100000
00010000
00001000
00010000
00001000
00000100
00000000
,
00000001
00001000
00000010
00000100
00000010
00001000
00000100
00000010
,
00000001
00000100
00001000
00010000
00100000
10000000
01000000
00000000
,
00010000
00001000
00000100
00001000
00100000
00010000
01000000
00001000
,
00010000
00000010
00000100
00001000
00011000
00000000
00000000
00000000
,
00000000
00000000
00000000
00000000
;
