#TITLE:No Tears Left to Cry;
#ARTIST:Ariana Grande;
#BANNER:No Tears Left to Cry.png;
#BACKGROUND:No Tears Left to Cry-bg.png;
#JACKET:No Tears Left to Cry-jacket.png;
#MUSIC:No Tears Left to Cry.ogg;
#SAMPLESTART:63.623;
#SAMPLELENGTH:20;
#DISPLAYBPM:97:127;
#BPMS:0=103,12=96.97,16=100,20=98.039,24=100.968,28=127.051,32=125,40=122.888,44=122;
#BGCHANGES:0=No Tears Left to Cry.avi=1=0=0=0,
;

//---------------dance-single - ----------------
#NOTES:
     dance-single:
     :
     Beginner:
     2:
     :
0000
0000
0000
0000
,
0000
0000
0000
0000
,
0000
0000
0000
0000
,
0000
0000
0000
0000
,
0000
0000
0000
0000
,
0001
0000
0000
0000
,
1000
0000
0000
0000
,
0001
0000
0001
0000
,
1000
0000
1000
0000
,
0010
0000
0010
0000
,
0100
0000
0100
0000
,
0010
0000
0000
0000
,
0010
0000
0000
0000
,
0100
0000
0000
0000
,
0100
0000
0000
0000
,
0001
0000
0000
0000
,
1000
0000
0000
0000
,
0001
0001
0000
0000
,
1000
0000
0000
0000
,
0010
0000
0000
0000
,
0100
0000
0000
0000
,
0010
0010
0000
0000
,
0100
0000
0000
0000
,
0001
0000
0001
0000
,
0001
0000
0000
0000
,
1000
0000
1000
0000
,
1000
0000
0000
0000
,
0010
0000
0010
0000
,
0010
0000
0000
0000
,
0100
0000
0100
0000
,
0100
0000
0000
0000
,
0001
0000
0001
0000
,
0010
0000
0000
0000
,
0100
0000
0100
0000
,
1000
0000
0000
0000
,
1000
0000
1000
0000
,
0010
0000
0000
0000
,
1001
0000
0000
0000
,
1001
0000
0000
0000
,
0010
0000
0010
0000
,
1000
0000
0000
0000
,
0001
0000
0001
0000
,
0100
0000
0000
0000
,
0010
0000
0010
0000
,
0100
0000
0000
0000
,
1001
0000
0000
0000
,
1001
0000
0000
0000
,
0020
0000
0000
0000
,
0030
0000
0000
0000
,
0200
0000
0000
0000
,
0300
0000
0000
0000
,
0000
0000
0000
0000
;

//---------------dance-single - ----------------
#NOTES:
     dance-single:
     :
     Easy:
     5:
     :
0000
0000
0000
0000
,
0000
0000
0000
0000
,
0000
0000
0000
0000
,
0000
0000
0000
0000
,
0000
0000
0000
0000
,
0010
0000
0010
0000
,
0100
0000
0100
0000
,
0001
0000
1000
0000
,
0001
1000
0001
1000
,
0010
0000
0010
0000
,
0100
0010
0100
0010
,
0100
0010
1000
0001
,
0100
0000
0100
0000
,
0100
0010
1000
0001
,
0010
0000
0010
0000
,
0001
0010
0100
1000
,
1000
0100
0010
0001
,
1001
0000
0110
0000
,
1001
0000
0100
0100
,
0010
1000
0001
0100
,
0100
0010
1000
0001
,
0110
0000
1001
0000
,
0110
0000
0010
0010
,
1000
0000
0010
0000
,
0100
0000
0100
0100
,
0010
0000
0001
0000
,
0010
0000
0100
0100
,
1000
0000
0001
0000
,
1000
0000
0001
0001
,
0010
1001
0000
0000
,
0100
1001
0000
0000
,
0001
0010
0001
0001
,
1000
0200
0300
1000
,
0100
1000
0010
0100
,
0001
0020
0030
0100
,
0010
0010
0001
0100
,
0010
2000
3000
0001
,
0010
0000
0010
0000
,
0100
0010
0100
1001
,
1000
0100
1000
1000
,
0001
0020
0030
0001
,
1000
0001
0100
0010
,
1000
0200
0300
0010
,
0100
0100
1000
0010
,
0100
0002
0003
1000
,
0100
0000
0100
0000
,
0010
0100
0010
1001
,
0010
0000
0100
0000
,
0010
0000
0000
0000
,
1000
0000
0001
0000
,
1000
0000
0000
0000
,
0000
0000
0000
0000
;

//---------------dance-single - ----------------
#NOTES:
     dance-single:
     :
     Medium:
     7:
     :
0000
0000
0000
0000
,
0000
0000
0000
0000
,
0000
0000
0000
0000
,
0000
0000
0000
0000
,
0000
0000
0000
0000
,
2000
0000
0000
0000
,
3002
0000
0000
0000
,
1003
1000
0001
0001
,
0010
0100
0010
0100
,
0010
1001
0100
1001
,
0010
0100
0010
1001
,
2010
0000
0100
0000
0001
0000
3100
1000
,
0000
1000
0100
0010
,
0012
0000
0100
0000
1000
0000
0103
0001
,
0000
0100
0010
0100
,
0010
0000
1000
0000
0010
0100
0001
0000
,
0100
0000
0010
0000
0100
0010
1000
0000
,
1010
0101
0000
0011
,
1100
0000
0000
0000
0001
0100
0010
0000
,
0100
0000
0010
0000
1000
0001
0100
0000
,
0010
0000
0100
0000
0001
1000
0100
0000
,
1100
0101
0000
1010
,
0011
0000
0000
0000
1000
0001
1000
0000
,
0110
0000
0010
0000
1001
0000
0001
0010
,
0000
0100
1000
0001
,
0011
0000
0001
0000
1010
0000
1000
0010
,
0000
0000
0100
0000
0010
0100
0010
0000
,
1010
0000
0100
0000
0011
0000
0100
0010
,
0000
0000
1000
0000
0001
0100
0010
0000
,
2000
0000
3100
0000
0002
0000
0103
0020
,
0000
0100
0000
0130
,
0010
0000
0010
0000
1000
0100
1000
0000
,
0010
0000
0110
0000
0100
0000
0001
0010
,
0000
0000
0100
0000
0010
0001
0010
0000
,
0100
0000
0110
0000
0100
0000
1000
0100
,
0000
0000
1001
0000
0100
0010
1000
0000
,
0010
1000
0001
0100
,
0110
0000
0110
0000
,
1001
0110
1100
0101
,
0100
0000
0100
0000
0001
0010
0001
0000
,
0100
0000
0110
0000
0010
0000
1000
0100
,
0000
0000
0010
0000
0100
1000
0100
0000
,
0010
0000
0110
0000
0010
0000
0001
0010
,
0000
0000
1001
0000
0010
0100
0001
0000
,
0100
0001
1000
0010
,
0110
0000
0110
0000
,
1001
0110
0011
1010
,
2000
0000
0000
0000
3002
0000
0000
0103
,
0000
0000
0000
0000
,
0002
0000
0000
0000
2003
0000
0000
3100
,
0000
0000
0000
0000
;

//---------------dance-single - ----------------
#NOTES:
     dance-single:
     :
     Hard:
     10:
     :
0000
0000
0000
0000
,
0000
0000
0000
0000
,
0000
0000
0000
0000
,
0000
0000
0000
0000
,
0000
0000
0000
0000
,
2000
0000
3002
0000
,
0023
0000
0230
0000
,
0310
0011
1000
1100
,
0011
0101
1010
1100
,
0002
0103
2000
3100
,
0010
0000
0001
0100
0000
0010
1000
0000
0100
0010
0000
0000
,
2100
0000
3010
0000
0102
0000
0013
0100
,
0000
0000
0000
1000
0000
0000
0001
0000
0000
0000
0000
0000
1000
0000
0010
0000
0100
0000
0001
0000
0000
0000
0000
0000
,
0012
0000
0103
0000
2010
0000
3100
0010
,
0000
0001
0100
0000
0010
1000
0100
0000
,
0000
0100
0010
0001
0100
0010
1000
0001
,
0000
1000
0000
0001
0010
0100
1000
0010
,
0200
0000
0320
0000
0030
1000
0002
0000
,
2003
0000
0000
3001
0100
0010
1000
0000
,
0000
1000
0100
0010
0100
1000
0000
0001
,
0000
0010
0000
0001
0100
0010
1000
0100
,
0020
0000
0230
0000
0300
1000
0002
0000
,
2003
0000
3000
0100
0010
0100
1000
0000
,
1020
0000
0130
0000
0021
0000
0130
1000
,
0000
0000
0010
0100
0010
0000
0100
0000
0001
0000
0010
0000
0100
0000
0000
0000
,
1200
0000
0310
0000
0201
0000
0310
1000
,
0000
0001
1000
0100
0010
0010
0100
0100
,
0020
0000
0130
0000
2000
0000
3001
0010
,
0000
0000
0100
1000
0100
0000
0010
0000
0001
0000
0100
0000
0010
0000
1000
0000
,
0020
0000
1030
0000
0200
0000
0310
0001
,
0000
0000
1000
0000
0100
1000
0001
0000
,
0011
0000
0101
0000
0001
1000
0100
1000
,
0000
0010
0200
0000
0000
0000
0010
0310
,
0000
1000
0100
0010
0001
0100
0010
2000
,
0000
0001
3002
0000
0000
0000
1003
0000
,
0000
0000
0100
0000
0010
0000
1000
0000
0001
0000
0000
0010
0100
0000
0010
0000
,
0000
0001
1000
0000
0000
0000
1001
0000
,
0001
0010
0001
0010
0000
0000
0100
1000
0100
1000
0000
0000
,
0001
0010
0001
0010
0100
0010
0100
1000
0100
1000
0000
0000
,
1000
0010
1000
0000
0001
0100
1000
0100
,
0000
0010
0200
0000
0000
0000
0010
0310
,
0000
1000
0100
0001
0100
1000
0010
2000
,
0000
0001
3002
0000
0000
0000
1003
0100
,
0000
0000
0100
0000
0010
0000
0001
0000
1000
0000
0000
0010
0100
0000
0010
0000
,
0000
1000
0001
0000
0000
0000
1001
0000
,
1000
0010
1000
0010
0000
0000
0100
0001
0100
0001
0000
0000
,
1000
0010
1000
0010
0100
0010
0100
0001
0100
0001
0000
0000
,
2000
0000
3001
0000
0200
0000
0310
0110
,
0000
0000
0000
0000
,
0002
0000
1003
0000
0020
0000
0130
0110
;

//---------------dance-single - ----------------
#NOTES:
     dance-single:
     :
     Challenge:
     13:
     :
0000
0000
0000
0000
,
0000
0000
0000
0000
,
0000
0000
0000
0000
,
0000
0000
0000
0000
,
0000
0000
0000
0000
,
0000
0000
0001
0000
0100
0000
0010
0000
1000
0000
0000
1000
0100
0000
0020
0000
,
0000
0000
0000
0000
0000
0000
0000
0000
0000
0001
0000
0000
0000
0000
0000
0031
0000
0000
0000
0000
0000
0100
0000
0000
0000
0000
0000
0000
0000
0000
0000
0000
0000
0000
0000
0000
0110
0000
0000
0000
0000
0000
0000
0000
0010
0000
0000
0000
,
1000
0001
1000
0010
0000
1000
0100
0010
0001
0010
0000
0001
,
0100
0010
0100
0001
0010
0100
1000
0001
1000
0010
0000
0100
,
0001
1000
0100
0010
0000
0000
0001
1000
0100
0010
0000
0001
,
0100
0000
0010
0000
0100
0000
0001
0000
0010
0000
0100
0000
1000
0000
0001
0000
1000
0000
0010
0000
0000
0100
0000
0000
,
0001
0000
1000
0000
0001
0000
0010
0000
0000
0000
0000
0000
1000
0000
0100
0000
1000
0000
0010
0000
0000
0001
0000
0000
,
0100
0000
0000
0000
0010
0000
0000
0000
1000
0000
0000
0000
0100
0000
0000
0000
1000
0000
0000
0000
0010
0000
0000
0000
0100
0000
0000
0000
0001
0000
0000
0000
1000
0000
0000
0000
0010
0000
0000
0000
0000
0000
0100
0000
0000
0001
0000
0000
,
1000
0000
0000
0000
0000
0000
0100
0000
0000
0000
0000
0000
0010
0000
0000
0000
0000
0000
0001
0000
0000
0100
0000
0000
0001
0000
0000
0000
0000
0000
0000
0000
0000
0010
0000
0000
0001
0000
0000
0000
1000
0000
0000
0000
0100
0000
0000
0000
,
0010
0000
0001
0000
1000
0000
0010
0100
0010
0100
0010
0000
0110
0000
0000
0000
,
1001
0000
0010
0000
1000
0000
0100
0000
1000
0000
0010
0000
0100
0000
0001
0010
,
0001
0100
1000
0100
0010
1000
0001
1000
,
0100
0000
0010
0001
1000
0000
0000
0001
0100
0000
0010
0000
1000
0000
0100
0000
,
0001
0000
0010
0000
0100
0000
1000
0001
1000
0000
0010
0000
1000
0000
0001
0000
,
0100
0000
0010
0000
1000
0000
0010
0000
0001
0000
0010
0000
0100
0000
0010
1000
,
0010
0100
0001
0010
1000
0010
0001
0100
,
1000
0000
0001
0100
0001
0000
1000
0100
1000
0000
0010
0000
0100
0000
0001
0000
,
0010
0000
0100
0000
1000
0000
0001
0000
1000
0000
0010
0100
0001
0000
1000
0000
,
0110
1000
0001
0000
1010
0100
0001
0011
,
0000
0000
0001
0100
0001
0000
0010
0000
1000
0000
0001
0000
0100
0010
0100
0000
,
0110
0001
1000
0000
1100
0010
0001
0101
,
0000
0010
1000
0001
0011
0110
1100
0001
,
1001
0100
0010
0000
1010
1000
0100
0110
,
0000
0000
0001
0010
0001
0000
0100
0000
1000
0000
0010
0000
1000
0000
0001
0000
,
0100
0000
0010
0000
1000
0000
0001
0010
0001
0000
0100
0000
0010
0000
1000
0000
,
0100
0000
0001
0000
0100
0000
1000
0010
1000
0000
0001
0000
1100
0000
0000
0000
,
0001
0100
0010
0100
1000
0100
0001
0010
,
1000
0000
0010
0000
0100
0000
0010
0001
0100
0000
0010
0000
1000
0000
0001
0000
,
0100
0010
0100
0001
1000
0010
0001
1000
,
0100
0000
0010
0000
1000
0000
0010
0001
0100
0000
0001
0000
1000
0000
0010
0000
,
0100
0000
0001
0000
0010
0000
0001
0000
0100
0000
0010
1000
0010
0000
0100
0000
,
0001
0000
0010
0000
1000
0000
0100
0010
0100
0000
1000
0000
0001
0000
0000
0100
,
0001
0000
0000
0000
0010
0000
0000
0000
0001
0000
0000
0000
0010
0000
0000
0000
0000
0000
0000
0000
0100
0000
0000
0000
1000
0000
0000
0000
0001
0000
0000
0000
0100
0000
0000
0000
0010
0000
0000
0000
0000
0000
1000
0000
0000
0001
0000
0000
,
1000
0000
0100
0000
0010
0000
0100
0000
1000
0000
0010
0000
0100
0000
0001
0000
1000
0000
0010
0000
0000
0100
0000
0000
,
0010
0000
1000
0000
0100
0000
0001
0000
0100
0000
1000
0000
0010
0000
0100
0001
,
1000
0000
0001
0000
0100
0000
0010
1000
0010
0000
0100
0000
0001
0000
1000
0000
,
0100
0010
0100
0001
0100
1000
0010
0001
,
0100
0000
0010
0000
1000
0000
0001
0010
0100
0000
1000
0000
0010
0000
0001
0000
,
0010
0000
1000
0000
0001
0000
1000
0000
0010
0000
0100
1000
0100
0000
0001
0000
,
0010
0000
0100
0000
1000
0000
0010
1000
0001
0000
0100
0000
0010
0000
0000
1000
,
0100
0000
0000
0000
0010
0000
0000
0000
0001
0000
0000
0000
0010
0000
0000
0000
0000
0000
0000
0000
0000
0000
0000
0000
0001
0000
0000
0000
1000
0000
0000
0000
0100
0000
0000
0000
0010
0000
0000
0000
0000
0000
0001
0000
0000
0100
0000
0000
,
0001
1000
0010
1000
0100
0010
0001
0100
0001
0010
0000
0000
,
0100
0000
1000
0000
0001
0000
0010
0000
0000
0000
0000
0000
0001
0000
1000
0000
0100
0000
0010
0000
0000
0001
0000
0000
,
0100
0000
0000
0000
0010
0000
0000
0000
0100
0000
0000
0000
0001
0000
0000
0000
1000
0000
0000
0000
0100
0000
0000
0000
1000
0000
0000
0000
0001
0000
0000
0000
0100
0000
0000
0000
0010
0000
0000
0000
0000
0000
1000
0000
0000
0100
0000
0000
,
1000
0000
0000
0011
0000
0000
1100
0000
0001
1000
0001
0100
,
0020
0030
0000
0000
;

//---------------dance-double - ----------------
#NOTES:
     dance-double:
     :
     Easy:
     5:
     :
00000000
00000000
00000000
00000000
,
00000000
00000000
00000000
00000000
,
00000000
00000000
00000000
00000000
,
00000000
00000000
00000000
00000000
,
00000000
00000000
00000000
00000000
,
10000000
00000000
00100000
00000000
,
00010000
00000000
00001000
00000000
,
00000010
00000000
00000010
00000000
,
00000100
00000010
00000001
00001000
,
00000010
00000000
00000100
00000000
,
00001000
00010000
00001000
00010000
,
00001000
00100000
00010000
01000000
,
00100000
00000000
10000000
00010000
,
00100000
00001000
00010000
00000100
,
00000010
00000000
00000001
00000100
,
00000010
00000100
00000010
00001000
,
00001000
00000100
00010000
00001000
,
00011000
00011000
00000000
01100000
,
01100000
00000000
00100000
00100000
,
01000000
00100000
01000000
00010000
,
00010000
00100000
00001000
00010000
,
00011000
00011000
00000000
00000110
,
00000110
00000000
00000100
00000100
,
00001000
00000000
00000100
00000000
,
00010000
00000000
00001000
00010000
,
00001000
00000000
00100000
00000000
,
01000000
00000000
00100000
00100000
,
00010000
00000000
00100000
00000000
,
00001000
00000000
00010000
00010000
,
00001000
00011000
00000000
00000000
,
00000100
00001001
00000000
00000000
,
00000001
00000010
00001000
00010000
,
00001000
00020000
00030000
00001000
,
00010000
00001000
00010000
00100000
,
10000000
02000000
03000000
00100000
,
00000000
00010000
00100000
00001000
,
00010000
00000200
00000300
00001000
,
00000010
00000000
00001000
00000000
,
00010000
01000000
00100000
01100000
,
10000000
01000000
00010000
00001000
,
00010000
00002000
00003000
00010000
,
00000000
00010000
00001000
00000100
,
00000001
00000020
00000030
00000100
,
00000000
00001000
00000100
00010000
,
00001000
00200000
00300000
00010000
,
01000000
00000000
00010000
00000000
,
00100000
00001000
00010000
00011000
,
00001000
00000000
00000100
00000000
,
00000010
00000000
00000000
00000000
,
00001000
00000000
00000100
00000000
,
00010000
00000000
00000000
00000000
,
00000000
00000000
00000000
00000000
;

//---------------dance-double - ----------------
#NOTES:
     dance-double:
     :
     Medium:
     7:
     :
00000000
00000000
00000000
00000000
,
00000000
00000000
00000000
00000000
,
00000000
00000000
00000000
00000000
,
00000000
00000000
00000000
00000000
,
00000000
00000000
00000000
00000000
,
00002000
00000000
00000000
00000000
,
00023000
00000000
00000000
00000000
,
00031000
00001000
00010000
00010000
,
00001000
00000100
00000001
00000010
,
00000100
00000110
00001000
00011000
,
00010000
01000000
10000000
10010000
,
20100000
00000000
00010000
00000000
31000000
00000000
00100000
00001000
,
00000000
00010000
00001000
00000100
,
00000012
00000000
00001000
00000000
00000103
00000000
00000010
00010000
,
00000000
00001000
00010000
01000000
,
10000000
00000000
00100000
00000000
01000000
00001000
00010000
00000000
,
00001000
00000000
00000100
00000000
00000010
00000100
00000001
00000000
,
00000110
00001001
00000000
00001100
,
00010100
00000000
00000000
00000000
00001000
00000100
00000010
00000000
,
00000001
00000000
00000010
00000000
00000100
00010000
00001000
00000000
,
00010000
00000000
01000000
00000000
00100000
01000000
10000000
00000000
,
01100000
10010000
00000000
01010000
,
01001000
00000000
00000000
00000000
00010000
00001000
00010000
00000000
,
00010000
00001000
00000100
00000000
00000110
00000000
00000001
00000010
,
00000000
00000100
00010000
00001000
,
00001000
00010000
01000000
00000000
01100000
00000000
10000000
00100000
,
00000000
00000000
01000000
00000000
00010000
00100000
00010000
00000000
,
00011000
00000000
00000100
00000000
00001100
00000000
00000010
00000100
,
00000000
00000000
00000001
00000000
00000100
00000010
00001000
00000000
,
00000200
00000000
00010300
00000000
00002000
00000000
00013000
00200000
,
00000000
01000000
00000000
01300000
,
01000000
00000000
00010000
00000000
00100000
00010000
00001000
00000000
,
00000100
00000000
00000110
00000000
00000010
00000000
00000001
00000100
,
00000000
00000000
00000010
00000000
00000100
00000001
00000100
00000000
,
00000010
00000000
00000110
00000000
00001000
00000000
00000100
00010000
,
00000000
00000000
00011000
00000000
00010000
01000000
10000000
00000000
,
00100000
01000000
00001000
00010000
,
00011000
00000000
00110000
00000000
,
10010000
01100000
11000000
01010000
,
00100000
00000000
00100000
00000000
00001000
00010000
00001000
00000000
,
00010000
00000000
00001100
00000000
00000100
00000000
00000010
00000001
,
00000000
00000000
00000100
00000000
00000010
00001000
00000010
00000000
,
00001000
00000000
00010100
00000000
00001000
00000000
00100000
00010000
,
00000000
00000000
10010000
00000000
00100000
00010000
00001000
00000000
,
00010000
00001000
00000100
00000010
,
00000110
00000000
00011000
00000000
,
00110000
01010000
10100000
11000000
,
20000000
00000000
00000000
00000000
30020000
00000000
00000000
00130000
,
00000000
00000000
00000000
00000000
,
00002000
00000000
00000000
00000000
00003200
00000000
00000000
00000310
,
00000000
00000000
00000000
00000000
;

//---------------dance-double - ----------------
#NOTES:
     dance-double:
     :
     Hard:
     10:
     :
00000000
00000000
00000000
00000000
,
00000000
00000000
00000000
00000000
,
00000000
00000000
00000000
00000000
,
00000000
00000000
00000000
00000000
,
00000000
00000000
00000000
00000000
,
20000000
00000000
30020000
00000000
,
00230000
00000000
00302000
00000000
,
00013000
00011000
00000100
00000110
,
00001100
00011000
00110000
01100000
,
20000000
30100000
02000000
03010000
,
00100000
00000000
00001000
00010000
00000000
00001000
00000100
00000000
00000010
00000100
00000000
00000000
,
00000120
00000000
00001030
00000000
00001200
00000000
00010300
00001000
,
00000000
00000000
00000000
00011000
00000000
00000000
00010000
01000000
10000000
01000000
00000000
00000000
,
00120000
00000000
01030000
00000000
02010000
00000000
03100000
01000000
,
00000000
00000000
00110000
00000000
00001000
00010000
00001000
00000000
,
00000000
00000100
00000010
00001000
00000001
00000010
00000100
00001000
,
00000000
00001100
00000000
00010000
00001000
00100000
00010000
01000000
,
00200000
00000000
02300000
00000000
03000000
00010000
20000000
00000000
,
30020000
00000000
00000000
01030000
00100000
00010000
00001000
00000000
,
00000000
00010000
00001000
00000100
00000010
00000100
00000000
00000010
,
00000000
00001000
00000000
00000001
00000010
00000100
00001000
00000100
,
00020000
00000000
00032000
00000000
00003000
00100000
00020000
00000000
,
02030000
00000000
03000000
00100000
10000000
01000000
00100000
00000000
,
00120000
00000000
01030000
00000000
00012000
00000000
00003100
00000010
,
00000000
00000000
00000001
00000010
00000001
00000000
00000010
00000000
00000100
00000000
00001000
00000000
00000010
00000000
00000000
00000000
,
00001200
00000000
00010300
00000000
00021000
00000000
01030000
00100000
,
00000000
00010000
01000000
00100000
10000000
10000000
00010000
00010000
,
02000000
00000000
03100000
00000000
00020000
00000000
00031000
00010000
,
00000000
00000000
00000100
00000010
00000100
00000000
00000010
00000000
00000001
00000000
00001000
00000000
00000010
00000000
00010000
00000000
,
00000200
00000000
00010300
00000000
00002000
00000000
00013000
00100000
,
00000000
00000000
01000000
00000000
00100000
10000000
00010000
00000000
,
00110000
00000000
11000000
00000000
10000000
01000000
00010000
01000000
,
00000000
00010000
00002000
00000000
00000000
00000000
00010000
00013000
,
00000000
00001000
00000100
00000010
00001000
00000001
00000100
00000020
,
00000000
00000100
00000230
00000000
00000000
00000000
00000310
00000000
,
00000000
00000000
00001000
00000000
00000100
00000000
00010000
00000000
00001000
00000000
00000000
00010000
00001000
00000000
01000000
00000000
,
00000000
00100000
01000000
00000000
00000000
00000000
10010000
00000000
,
00010000
00100000
00010000
00100000
00000000
00000000
00001000
00010000
00001000
00010000
00000000
00000000
,
00000010
00001000
00000010
00000100
00000010
00000100
00000001
00000100
00000010
00001000
00000000
00000000
,
00001000
00000001
00001000
00000000
00000001
00000100
00001000
00000100
,
00000000
00001000
00020000
00000000
00000000
00000000
00001000
00031000
,
00000000
00010000
01000000
10000000
01000000
00010000
00001000
00020000
,
00000000
00001000
00032000
00000000
00000000
00000000
00013000
00000100
,
00000000
00000000
00000010
00000000
00000001
00000000
00000100
00000000
00001000
00000000
00000000
00010000
00001000
00000000
01000000
00000000
,
00000000
00100000
01000000
00000000
00000000
00000000
10010000
00000000
,
00010000
00100000
00010000
00100000
00000000
00000000
00001000
00010000
00001000
00010000
00000000
00000000
,
00000100
00000010
00000100
00000010
00000001
00000010
00000001
00000100
00000010
00001000
00000000
00000000
,
00000020
00000000
00000130
00000000
00000002
00000000
00000013
00000110
,
00000000
00000000
00000000
00000000
,
00000200
00000000
00010300
00000000
00002000
00000000
00103000
00110000
,
00000000
00000000
00000000
00000000
;
