#TITLE:Neutrino;
#SUBTITLE:;
#ARTIST:HuΣeR;
#TITLETRANSLIT:;
#SUBTITLETRANSLIT:;
#ARTISTTRANSLIT:;
#GENRE:;
#CREDIT:;
#BANNER:Neutrino-bn.png;
#BACKGROUND:Neutrino-bg.png;
#LYRICSPATH:;
#CDTITLE:;
#MUSIC:Neutrino.ogg;
#OFFSET:0.000000;
#SAMPLESTART:71.542000;
#SAMPLELENGTH:20.000000;
#SELECTABLE:YES;
#DISPLAYBPM:150.000000:205.000000;
#BPMS:0.000000=150.000000
,131.000000=205.000000
;
#STOPS:66.000000=0.400000,
161.000000=0.293000,
192.000000=0.293000
;
#BGCHANGES:;
#KEYSOUNDS:;
#ATTACKS:;

//---------------dance-single - ----------------
#NOTES:
     dance-single:
     :
     Hard:
     15:
     0.643109,0.941440,0.309134,0.502343,0.410569,466.000000,434.000000,32.000000,52.000000,0.000000,0.000000,0.643109,0.941440,0.309134,0.502343,0.410569,466.000000,434.000000,32.000000,52.000000,0.000000,0.000000:
0000
0000
0000
0000
,
0000
0000
0000
0000
,
0000
0000
0000
0000
,
0000
0000
0000
0000
,
0000
0000
0000
0000
,
0000
0000
0000
0000
,
0000
0000
0000
0000
,
0000
0000
0000
0000
,
0100
0000
0000
0001
0010
0001
0010
0100
1000
0010
1000
0010
1000
0000
0001
0100
,
0020
0000
2000
0030
,
0002
0000
0000
0000
3000
0000
1003
0100
,
0002
0000
0000
0000
0000
0000
0023
0000
0000
0000
0000
0000
0032
1000
0000
0000
0000
0000
0203
0000
0000
0000
0000
0000
,
0320
0000
2030
0000
3002
0000
0013
0100
,
2000
0000
0020
3000
,
0200
0000
0000
0000
0030
0000
0301
0010
,
0002
2003
3002
0203
,
0320
2030
3100
1001
,
1000
0010
1000
0010
2000
0000
0000
0000
0000
0000
0000
0000
3001
1000
0001
1000
,
0200
0000
0000
0000
0310
0000
0001
0100
0010
0100
0001
1000
0100
0000
1000
0010
,
0000
1000
0001
0000
0100
0010
0100
0001
0000
1000
0001
0000
0010
0100
0010
0001
,
0000
1000
0001
0000
0200
0000
0000
0000
0320
0000
0000
0000
0130
0000
0000
0001
,
0000
0000
1000
0000
0201
0000
0000
0000
0310
0100
0010
0100
0002
0000
0000
0000
,
1003
0000
1100
0101
1100
0000
0020
0000
,
2030
3200
0320
0032
,
2003
0000
0000
0000
3002
0000
0000
0000
0013
0000
0100
0000
1000
0000
0010
0100
,
0001
1000
0100
0010
0002
0000
0000
0000
0000
0000
0000
0000
1003
0001
0100
0001
,
2000
0000
0000
0000
3010
0100
0001
1000
0010
0100
0001
1000
0100
0000
1001
0000
,
0100
1010
0001
1100
0010
0101
1000
0011
,
0100
0000
1001
0000
0010
1000
0010
0100
0001
0000
0001
0000
0001
0000
1000
0010
,
1000
0100
0010
0001
0200
0000
0000
0000
0310
1000
0010
1000
0002
0000
0000
0000
,
1003
0000
0101
1100
0101
0000
0020
0000
,
2030
3002
0023
0230
,
2300
0000
3020
0000
0130
0001
0020
0000
,
0130
0000
1000
0010
0100
0001
0000
0010
,
0100
0000
0010
0001
1000
0001
0000
0100
,
0010
0000
1000
0010
0100
0001
0000
0000
,
0010
0001
1000
0001
0100
0010
1001
0000
,
0011
1100
0101
0011
,
1001
0000
0110
0000
1001
0000
1000
1000
,
0001
0001
0010
0010
0100
0100
1000
1000
,
0001
0001
0200
0000
0310
1000
0101
0000
,
0001
1010
0000
0100
0001
0010
1000
0010
,
0001
0100
1000
0010
0100
0001
0110
0000
,
1000
0101
0000
0010
1000
0100
0001
0100
,
0010
0000
0100
0000
1000
0000
0001
0100
0001
0000
0010
0000
1100
0000
0000
0000
,
0010
1001
0000
0100
0010
0100
1000
0100
,
0001
0010
0001
1000
0100
0010
1100
0000
,
0001
1010
0000
0100
0001
0010
0100
0001
,
2000
0000
0000
0000
3001
0000
0000
1000
0000
0000
0010
0000
1000
0100
0000
0100
,
0010
0000
0001
0000
0100
0000
0000
0010
0000
0000
1000
0000
0010
1000
0000
1000
,
0001
0000
0100
0000
0010
0000
1000
0010
0000
0000
0100
0000
0001
1000
0000
0000
,
0100
0000
0010
0000
0001
0000
1000
0001
0000
1000
0100
0000
0020
0000
0000
0000
,
0032
0000
0000
0000
0103
0000
0000
0010
0000
0000
1000
0000
0001
0000
0000
0010
,
0000
0000
1000
0000
0100
0000
0010
0001
0000
0010
0001
0000
1000
0000
0000
0100
,
0000
0000
0001
0000
0010
0000
0010
0000
0010
0000
0000
0000
0001
0000
1000
0100
,
0000
1000
0100
0000
0010
0000
1000
0000
0010
0000
0001
0000
0200
0000
0000
0000
,
0310
0000
1000
0000
0001
0000
0001
0000
0001
0000
0100
0000
0010
1000
0000
0100
,
1000
0000
0001
0000
0010
0000
0001
1000
0000
0001
1000
0000
0100
0010
0000
0010
,
0001
0000
0100
0000
0010
0000
0000
1000
0000
0000
0001
0000
1000
0100
0000
0000
,
1000
0001
1000
0000
0010
0000
0100
0001
0000
0100
0001
0000
2000
0000
0000
0000
,
3200
0000
0310
0001
0100
0010
1000
0100
,
1001
0000
0010
0000
0100
0000
0001
0010
0000
0010
0100
0000
1000
0000
0001
0100
,
0000
0100
0010
0000
1000
0000
0000
0001
0000
0000
0010
0000
0001
0000
0100
0000
,
0110
0000
1000
0001
0000
0010
0002
0000
,
0103
0010
1000
0000
0000
0000
0100
0010
,
0001
1000
0000
0000
0000
0000
0001
1000
,
0010
0100
0000
0000
0000
0000
0010
1000
,
0001
0000
0100
0000
0000
0000
0000
0000
0000
0000
0000
0001
1000
0000
0010
0000
,
1000
0100
0000
0000
0000
0000
0010
0001
,
1000
0000
0100
0000
0000
0000
0000
0000
0000
0000
0000
1000
0010
0000
0100
0000
,
0001
1000
0000
0000
0000
0000
0100
0010
,
0100
0000
1000
0000
0001
0010
0001
0010
0100
1000
0100
1000
0001
1000
0001
1000
,
0010
0100
0010
0100
0000
0000
0000
0000
0000
0000
0000
0000
0000
0000
0000
0000
;

//---------------dance-single - ----------------
#NOTES:
     dance-single:
     :
     Medium:
     11:
     0.465081,0.592245,0.173888,0.386417,0.028981,337.000000,319.000000,18.000000,40.000000,0.000000,0.000000,0.465081,0.592245,0.173888,0.386417,0.028981,337.000000,319.000000,18.000000,40.000000,0.000000,0.000000:
0000
0000
0000
0000
,
0000
0000
0000
0000
,
0000
0000
0000
0000
,
0000
0000
0000
0000
,
0000
0000
0000
0000
,
0000
0000
0000
0000
,
0000
0000
0000
0000
,
0000
0000
0000
0000
,
0100
0000
0000
0001
0010
0000
0001
0000
0100
0000
0010
0000
1000
0000
0001
0000
,
0020
0000
0230
0000
,
2300
0000
0000
0000
0000
0000
3010
1000
,
0001
0010
0001
0100
,
0010
0000
1000
0000
0001
0000
1000
0100
,
0020
0000
0032
0000
,
0203
0000
0000
0000
0000
0000
0310
1000
,
0001
0010
0100
0010
,
0001
1000
0010
1001
,
1000
0100
0002
0000
0000
0000
0013
0001
,
0200
0000
0000
0000
0310
0000
0000
0000
1000
0000
0001
0000
0010
0000
0000
0001
,
0000
0000
0100
0000
0010
0000
0000
1000
0000
0000
0100
0000
1000
0000
0000
0001
,
0000
0000
0100
0000
0020
0000
0000
0000
2030
0000
0000
0000
3001
0000
0000
1000
,
0000
0010
0200
0000
0300
0001
2000
0000
,
3002
0000
0103
0100
1001
0000
0020
0000
,
1030
0002
0013
0002
,
0103
0000
2000
0000
3010
1000
0100
0010
,
0001
1000
0002
0000
0000
0000
0013
0001
,
2000
0000
3001
0010
0100
1000
0010
1010
,
0000
0101
0000
0011
0000
1100
0000
0101
,
0000
0000
1100
0000
0000
0000
0001
0000
1000
0000
1000
0000
0010
0000
0000
1000
,
0000
0100
2000
0000
3000
0001
0020
0000
,
0230
0000
1300
1000
1001
0000
0002
0000
,
0013
0002
1003
0200
,
0310
0000
0002
0000
1003
0001
0100
0000
,
0000
0000
0001
0010
0001
0010
0000
0000
,
0000
0000
0100
1000
0100
1000
0000
0000
,
0000
0000
0001
1000
0001
1000
0000
0000
,
0000
0000
0010
0100
0010
0000
1010
0000
,
0101
0011
1100
0101
,
1100
0000
1001
0000
0110
0000
1000
0001
,
1000
0001
1000
0001
1000
0001
0100
0010
,
0100
0010
0100
0000
0001
0010
0001
0000
,
0100
0010
0000
0010
1000
0000
0001
1000
,
0000
0010
0000
1000
0000
0100
0010
0000
,
0001
0010
0000
0001
1000
0000
0001
0100
,
0000
0010
0000
1000
0100
1000
0001
0000
,
0100
0001
0000
0001
0010
0000
0001
1000
,
0000
0010
0000
0100
0000
0010
1000
0000
,
1000
0100
0000
1000
0001
0000
0100
0010
,
1000
0000
0001
0000
0001
0000
1000
0010
,
1000
0001
0100
0000
0010
0000
0100
0000
,
0001
1000
0100
0000
0010
0000
0001
0000
,
1000
0001
0100
0000
0010
1000
0002
0000
,
2003
3020
0130
0002
,
1003
0100
0020
0000
0031
0000
0200
0000
,
0310
1000
0100
1000
0001
0000
0020
0000
,
0031
1000
0001
0100
0010
0000
2000
0000
,
3001
1000
0100
0000
0010
0001
0100
0000
,
0001
1000
0010
0000
1000
0000
0001
1000
,
0001
0010
0100
0000
1000
0001
1000
0000
,
0010
0100
0001
0000
0010
0100
2000
0000
,
3002
0000
0203
0000
0310
0000
1000
0001
,
1000
0100
0010
0000
0001
1000
0001
0000
,
0110
0000
2000
0000
3010
1000
0002
0000
,
0013
0100
0010
0001
0000
1000
0002
0000
,
0103
0010
1000
0000
0000
0000
0001
0100
,
0001
0100
0000
0000
0000
0000
0010
1000
,
0010
1000
0000
0000
0000
0000
0001
0010
,
0001
0010
0000
0000
0000
0000
0100
1000
,
0100
1000
0000
0000
0000
0000
0001
1000
,
0001
1000
0000
0000
0000
0000
0010
0100
,
0010
0100
0000
0000
0000
0000
0001
0010
,
0100
1000
0010
0100
0010
0100
0010
0100
,
0010
0100
0000
0000
0000
0000
0000
0000
;

//---------------dance-single - ----------------
#NOTES:
     dance-single:
     :
     Easy:
     7:
     0.289813,0.556441,0.135246,0.289813,0.000000,210.000000,196.000000,14.000000,30.000000,0.000000,0.000000,0.289813,0.556441,0.135246,0.289813,0.000000,210.000000,196.000000,14.000000,30.000000,0.000000,0.000000:
0000
0000
0000
0000
,
0000
0000
0000
0000
,
0000
0000
0000
0000
,
0000
0000
0000
0000
,
0000
0000
0000
0000
,
0000
0000
0000
0000
,
0000
0000
0000
0000
,
0000
0000
0000
0000
,
0100
1000
0001
1000
,
0020
0030
0200
0300
,
0002
0000
0000
0003
,
1000
1000
0001
0001
,
0010
0001
0010
0100
,
2000
3000
0020
0030
,
0200
0000
0000
0300
,
0010
0010
0100
0100
,
0001
1000
0100
1001
,
0100
0020
0000
1000
,
1030
0001
0000
0101
,
0000
1100
0000
0101
,
0000
0020
0230
0310
,
1000
0002
0000
0013
,
0001
0100
1001
0010
,
1000
0010
1000
0001
,
0100
0020
0030
0110
,
0001
2000
0000
3010
,
1000
0001
0000
0101
,
0101
1100
1100
0101
,
1100
0101
0010
1000
,
0100
2000
0000
3001
,
2000
3010
0110
1000
,
0010
1000
0100
0010
,
0001
0100
0010
1000
,
0000
0001
0001
0000
,
0000
1000
1000
0000
,
0000
0010
0010
0000
,
0000
1000
1000
0001
,
0001
0001
0001
1000
,
1000
1000
1000
0001
,
1000
0001
1000
0010
,
0010
0010
1000
0100
,
0001
0000
0010
0001
,
0010
0100
1000
0010
,
1000
0001
0100
0100
,
0100
0000
0010
0100
,
0001
0000
0010
0001
,
1000
0001
1000
0100
,
0010
0001
0100
0100
,
0100
0010
1000
0010
,
0100
0001
0010
0001
,
0100
0010
1000
0001
,
1000
0100
0000
1000
,
0001
2000
3000
0020
,
0030
0200
0300
0002
,
0003
0020
0030
0200
,
0300
2000
3000
0002
,
0003
0100
0001
0010
,
0100
1000
0010
1000
,
0100
0010
0100
1000
,
0010
0100
0000
0001
,
1000
0002
0003
0020
,
0030
0002
0003
0200
,
0300
0020
0030
2000
,
3000
0200
0300
0020
,
0030
0001
0000
1000
,
1000
0000
0000
0001
,
0001
0000
0000
0010
,
0010
0000
0000
0100
,
0100
0000
0000
1000
,
0001
0000
0000
0010
,
0100
0000
0000
0010
,
0001
0100
0100
0100
,
0100
0000
0000
0000
;

//---------------dance-single - ----------------
#NOTES:
     dance-single:
     :
     Beginner:
     4:
     0.161467,0.278221,0.038642,0.077283,0.000000,117.000000,113.000000,4.000000,8.000000,0.000000,0.000000,0.161467,0.278221,0.038642,0.077283,0.000000,117.000000,113.000000,4.000000,8.000000,0.000000,0.000000:
// measure 0
0000
0000
0000
0000
,  // measure 1
0000
0000
0000
0000
,  // measure 2
0000
0000
0000
0000
,  // measure 3
0000
0000
0000
0000
,  // measure 4
0000
0000
0000
0000
,  // measure 5
0000
0000
0000
0000
,  // measure 6
0000
0000
0000
0000
,  // measure 7
0000
0000
0000
0000
,  // measure 8
0100
0100
0100
0000
,  // measure 9
1000
0000
0001
0000
,  // measure 10
1000
0000
0000
0010
,  // measure 11
0010
0000
0100
0000
,  // measure 12
0010
0000
1000
0000
,  // measure 13
0001
0000
0010
0000
,  // measure 14
0001
0000
0000
0100
,  // measure 15
0100
0000
0010
0000
,  // measure 16
1000
1000
0000
1001
,  // measure 17
0000
0200
0000
0300
,  // measure 18
0000
0010
0000
1000
,  // measure 19
0000
1000
0000
0001
,  // measure 20
0000
0001
0000
0010
,  // measure 21
0000
0100
0000
1000
,  // measure 22
0000
1001
0000
0010
,  // measure 23
0000
1000
0000
0001
,  // measure 24
0001
0001
0000
0110
,  // measure 25
0000
2000
0000
3000
,  // measure 26
0000
0001
0000
0010
,  // measure 27
0010
0010
0010
0010
,  // measure 28
0010
0010
0000
0001
,  // measure 29
0000
0100
0000
0010
,  // measure 30
0000
0110
0000
1000
,  // measure 31
0000
0001
0000
0010
,  // measure 32
0010
0010
0000
0001
,  // measure 33
0000
0000
0000
0000
,  // measure 34
0000
0000
0000
0000
,  // measure 35
0000
0000
0000
0000
,  // measure 36
0000
0000
0000
1000
,  // measure 37
0000
1000
0000
0010
,  // measure 38
0000
0010
0000
1000
,  // measure 39
0000
0001
0000
0100
,  // measure 40
0100
0100
0000
0000
,  // measure 41
0010
0000
1000
0000
,  // measure 42
0001
0000
0010
0000
,  // measure 43
0001
0000
0100
0100
,  // measure 44
0000
0010
0000
1000
,  // measure 45
1000
0000
0001
0000
,  // measure 46
0010
0000
0001
0000
,  // measure 47
0100
0000
0010
0010
,  // measure 48
0000
0020
0000
0030
,  // measure 49
0000
2000
0000
3000
,  // measure 50
0000
0002
0000
0000
,  // measure 51
0000
0003
0000
1000
,  // measure 52
1000
1000
0000
0010
,  // measure 53
0000
1000
0000
0100
,  // measure 54
0000
0010
0000
0010
,  // measure 55
0000
0010
0000
0001
,  // measure 56
0000
0200
0000
0300
,  // measure 57
0000
0020
0000
0030
,  // measure 58
0000
2000
0000
0000
,  // measure 59
0000
3000
0000
0001
,  // measure 60
0001
0001
0000
0010
,  // measure 61
0000
0001
0000
0100
,  // measure 62
0000
0010
0000
0010
,  // measure 63
0000
0010
0000
1000
,  // measure 64
0000
0100
0000
0000
,  // measure 65
0000
0000
0000
0000
,  // measure 66
0000
1000
0000
0000
,  // measure 67
0000
0000
0000
0000
,  // measure 68
0000
0001
0000
0000
,  // measure 69
0000
0000
0000
0000
,  // measure 70
0000
0000
0000
0000
,  // measure 71
0000
0100
0100
0100
,  // measure 72
0100
0000
0000
0000
;
