#VERSION:0.83;
#TITLE:Neutrino;
#SUBTITLE:(25th Anniversary Special);
#ARTIST:Hu?eR;
#TITLETRANSLIT:;
#SUBTITLETRANSLIT:;
#ARTISTTRANSLIT:;
#GENRE:;
#ORIGIN:;
#CREDIT:;
#BANNER:Neutrino (25th Anniversary Special)-bn.png;
#BACKGROUND:Neutrino (25th Anniversary Special)-bg.png;
#PREVIEWVID:;
#JACKET:Neutrino (25th Anniversary Special)-jacket.png;
#CDIMAGE:;
#DISCIMAGE:;
#LYRICSPATH:;
#CDTITLE:;
#MUSIC:Neutrino (25th Anniversary Special).ogg;
#OFFSET:0.000000;
#SAMPLESTART:25.600000;
#SAMPLELENGTH:20.000000;
#SELECTABLE:YES;
#DISPLAYBPM:75.000000:410.000000;
#BPMS:0.000=75.000,
14.000=150.000,
49.000=75.000,
53.000=300.000,
65.000=150.000,
67.000=75.000,
70.000=150.000,
78.000=75.000,
83.000=300.000,
99.000=75.000,
102.000=150.000,
110.000=75.000,
111.000=102.500,
119.000=205.000,
135.000=102.500,
135.500=205.000,
136.000=102.500,
136.500=205.000,
140.500=102.500,
141.000=205.000,
141.500=102.500,
142.000=205.000,
142.500=102.500,
143.000=205.000,
148.500=102.500,
149.000=205.000,
149.500=102.500,
150.000=205.000,
154.000=102.500,
154.500=205.000,
155.000=102.500,
155.500=205.000,
156.000=102.500,
156.500=205.000,
161.000=410.000,
221.000=102.500,
222.000=410.000,
282.000=102.500,
297.000=410.000;
#STOPS:48.000=0.400,
133.000=0.037,
133.125=0.037,
133.250=0.037,
133.375=0.037,
133.500=0.037,
133.625=0.037,
133.750=0.037,
133.875=0.037;
#DELAYS:;
#WARPS:;
#TIMESIGNATURES:0.000=4=4;
#TICKCOUNTS:0.000=4;
#COMBOS:0.000=1;
#SPEEDS:0.000=1.000=0.000=0;
#SCROLLS:0.000=1.000;
#FAKES:;
#LABELS:0.000=Song Start;
#BGCHANGES:;
#KEYSOUNDS:;
#ATTACKS:
;

//---------------dance-single - ----------------
#NOTEDATA:;
#CHARTNAME:;
#STEPSTYPE:dance-single;
#DESCRIPTION:;
#CHARTSTYLE:;
#DIFFICULTY:Challenge;
#METER:18;
#RADARVALUES:1.028289,1.771225,0.514852,0.376238,0.945545,727.000000,675.000000,52.000000,38.000000,0.000000,0.000000,0.000000,0.000000,0.000000,1.028289,1.771225,0.514852,0.376238,0.945545,727.000000,675.000000,52.000000,38.000000,0.000000,0.000000,0.000000,0.000000,0.000000;
#CREDIT:;
#DISPLAYBPM:75.000000:410.000000;
#NOTES:
// measure 0
0000
0000
0000
0000
,  // measure 1
0000
0000
0000
0000
,  // measure 2
1010
0000
0000
0000
0101
0000
0000
0000
2200
0000
0000
0000
0300
0000
0001
0001
,  // measure 3
3001
0000
0100
0000
0010
0000
1000
0000
1001
0000
0000
0010
0100
0001
1000
0001
,  // measure 4
0010
0100
1000
0010
0100
0001
1000
0001
0020
0000
0000
0001
0000
0000
0100
0000
,  // measure 5
0230
0000
0000
0010
0000
0000
1000
0000
2300
0000
0000
0010
0000
0000
0001
0000
,  // measure 6
3001
0000
0000
0000
0001
0100
0010
0000
2000
0010
3000
0000
0200
0001
0300
0000
,  // measure 7
0020
0001
0030
0000
0200
1000
0300
0000
0020
1000
0030
0000
0200
0001
0300
0000
,  // measure 8
2000
0001
3000
0000
0001
0010
0100
0000
2000
0000
0000
0001
0000
0000
0100
0000
,  // measure 9
3200
0000
0000
0001
0000
0000
0010
0000
0320
0000
0000
1000
0000
0000
0001
0000
,  // measure 10
0031
0000
0000
0000
0010
0001
0100
0000
0020
1000
0030
0000
0002
1000
0003
0000
,  // measure 11
0020
0001
0030
0000
0200
1000
0300
0000
0010
0001
1000
0001
0010
0100
1000
0010
,  // measure 12
0100
0000
0000
0000
0000
0000
0000
0000
0000
0000
0000
0000
0000
0000
0000
0000
0000
0000
0000
0000
0000
0000
0000
0000
0000
0000
0000
0000
0000
0000
0000
0000
0000
0000
0000
0000
0000
0000
0000
0000
0000
0000
0000
0000
0000
0000
0000
0000
0110
0000
0000
0000
0000
0000
0000
0000
0000
0000
0000
0000
0000
0000
0000
0000
0000
0000
0000
0000
0000
0000
0000
0000
0100
0000
0000
0000
0000
0000
0001
0000
0000
0000
0000
0000
0010
0000
0000
0000
0000
0000
0001
0000
0000
0000
0000
0000
1000
0000
0000
0000
0100
0000
0000
0000
0010
0000
0000
0000
0001
0000
0000
0000
0010
0000
0000
0000
0100
0000
0000
0000
1000
0000
0000
0000
0100
0000
0000
0000
0010
0000
0000
0000
0001
0000
0000
0000
0010
0000
0000
0000
0100
0000
0000
0000
1000
0000
0000
0000
0000
0000
0010
0000
0000
0000
0000
0000
0001
0000
0000
0000
0000
0000
0010
0000
0000
0000
0000
0000
2000
0000
0000
0000
0000
0000
0000
0000
0000
0000
0000
0000
0000
0000
0000
0000
0000
0000
0000
0000
0000
0000
0000
0000
,  // measure 13
3100
0000
1000
0010
0100
0001
0010
0100
1000
0000
0000
0000
0010
0000
0000
0000
0100
0000
0000
0000
0101
0000
0000
0000
0000
0000
0000
0000
0010
0000
0000
0000
,  // measure 14
1010
0000
0001
0010
0100
1100
0000
0010
,  // measure 15
0110
0000
0100
0001
1000
1010
0000
0001
,  // measure 16
0011
0000
0000
0000
0000
0000
0000
0000
0000
0000
0000
0000
0000
0000
0000
0000
0000
0000
0000
0000
0000
0000
0000
0000
0000
0000
0000
0000
0000
0000
0000
0000
0000
0000
0000
0000
0000
0000
0000
0000
0000
0000
0000
0000
0000
0000
0000
0000
2000
0000
0000
0000
0000
0000
0000
0000
0000
0000
0000
0000
0000
0000
0000
0000
0000
0000
0000
0000
0000
0000
0000
0000
0000
0000
0000
0000
0000
0000
0000
0000
0000
0000
0000
0000
0000
0000
0000
0000
0000
0000
0000
0000
0000
0000
0000
0000
3001
0000
0000
0000
0000
0000
0000
0000
1000
0000
0000
0000
0000
0000
0000
0000
0010
0000
0000
0000
0000
0000
0000
0000
0100
0000
0000
0000
0000
0000
0000
0000
0000
0000
0000
0000
0000
0000
0000
0000
0000
0000
0000
0000
0000
0000
0000
0000
1001
0000
0000
0000
0000
0000
0000
0000
0000
0000
0000
0000
0010
0000
0000
0000
0000
0000
0100
0000
0000
0000
0000
0000
0010
0000
0000
0000
0000
0000
0000
0000
0000
0000
0000
0000
1000
0000
0000
0000
0000
0000
0000
0000
0000
0000
0000
0000
,  // measure 17
0101
0000
0000
0000
0000
0000
0001
0010
0100
1000
0100
0010
0002
0000
0000
0000
0000
0000
0103
0000
0000
0000
0000
0000
0110
0000
0000
0000
0000
0000
0110
0000
0000
0000
0000
0000
1001
0000
0000
0000
0000
0000
0000
0000
0000
0000
0000
0000
,  // measure 18
2000
0100
3000
0000
0020
0001
0030
0000
0200
0001
0300
0000
0020
1000
0030
0000
,  // measure 19
0001
0000
0010
0000
0100
0000
1000
0000
0010
0000
1000
0000
0001
0000
0100
0000
0020
0000
0000
0000
1000
0000
1030
0000
0110
0000
1000
0010
1000
0001
0100
0010
,  // measure 20
1000
0000
0000
0000
0100
0000
0000
0000
0010
0000
0000
0000
0001
0000
0000
0000
0010
0000
0000
0000
0100
0000
0000
0000
1000
0000
0000
0000
0100
0000
0000
0000
0010
0000
0000
0000
0001
0000
0000
0000
0010
0000
0000
0000
0100
0000
0000
0000
1000
0000
0000
0000
0000
0000
0010
0000
0000
0000
0000
0000
0001
0000
0000
0000
0000
0000
0010
0000
0000
0000
0000
0000
2000
0000
0000
0000
0000
0000
0000
0000
0000
0000
0000
0000
0000
0000
0000
0000
0000
0000
0000
0000
0000
0000
0000
0000
3100
0000
0000
0000
0000
0000
0010
0000
0000
0000
0000
0000
0001
0000
0000
0000
0000
0000
1000
0000
0000
0000
0000
0000
0010
0000
0000
0000
0000
0000
1000
0000
0000
0000
0000
0000
0001
0000
0000
0000
0000
0000
0100
0000
0000
0000
0000
0000
0010
0000
0000
0000
0000
0000
0000
0000
0000
0000
0000
0000
0000
0000
0000
0000
0000
0000
0000
0000
0000
0000
0000
0000
0010
0000
0000
0000
0000
0000
0000
0000
0000
0000
0000
0000
0000
0000
0000
0000
0000
0000
0000
0000
0000
0000
0000
0000
,  // measure 21
0010
0100
0001
0001
0001
0100
1000
1000
,  // measure 22
1000
0100
0001
0001
0001
0010
0100
0100
,  // measure 23
0100
0010
0001
0001
0001
1000
0001
0100
,  // measure 24
0010
0000
0000
0000
1000
0000
0000
0000
1100
0000
0000
0000
0000
0000
0000
0000
1100
0000
0000
0000
0000
0000
0000
0000
1001
0000
0001
0010
0001
1000
0100
0000
,  // measure 25
1010
0000
0000
0000
0000
0000
0000
0000
0000
0000
0000
0000
0000
0000
0000
0000
0000
0000
0000
0000
0000
0000
0000
0000
0001
0000
0000
0000
0010
0000
0000
0000
0100
0000
0000
0000
1000
0000
0000
0000
0100
0000
0000
0000
0010
0000
0000
0000
0001
0000
0000
0000
0000
0000
0000
0000
0000
0000
0000
0000
1000
0000
0000
0000
0000
0000
0010
0000
0000
0000
0000
0000
0100
0000
0000
0000
0000
0000
0000
0000
0000
0000
0000
0000
0000
0000
0000
0000
0000
0000
0000
0000
0000
0000
0000
0000
0110
0000
0000
0000
0000
0000
0000
0000
0000
0000
0000
0000
0000
0000
0000
0000
0000
0000
0000
0000
0000
0000
0000
0000
0110
0000
0000
0000
0000
0000
0000
0000
0000
0000
0000
0000
0000
0000
0000
0000
0000
0000
0000
0000
0000
0000
0000
0000
1001
0000
0000
0000
0000
0000
0000
0000
0000
0000
0000
0000
0000
0000
0000
0000
0000
0000
0000
0000
0000
0000
0000
0000
0000
0000
0000
0000
0000
0000
0000
0000
0000
0000
0000
0000
0000
0000
0000
0000
0000
0000
0000
0000
0000
0000
0000
0000
,  // measure 26
0002
0010
0003
0000
0200
1000
0300
0000
2000
0010
3000
0000
0200
0001
0300
0000
,  // measure 27
0001
0010
0100
1000
0001
1000
0100
0010
0002
0000
0100
0103
0110
0000
1001
0000
,  // measure 28
0010
0000
1000
0000
0010
0000
0100
0000
0000
0000
0001
0000
0001
0000
0000
0000
0010
0000
0001
0000
1000
0000
0010
0000
0100
0000
0010
0000
1000
0000
0000
0001
,  // measure 29
1000
0010
0100
0001
0010
0000
0100
0010
0001
1000
0001
0100
0010
0000
1000
0000
,  // measure 30
0100
0000
1000
0001
0010
0100
1000
0010
,  // measure 31
0100
0001
0000
0010
0001
1000
0001
0001
,  // measure 32
1000
1000
0010
0010
0100
0100
0010
0010
,  // measure 33
1000
0000
0000
0000
1000
0000
0000
0000
0001
0010
1000
0010
0001
0100
1000
0100
0001
0000
0000
0000
0011
0000
0000
0000
1100
0000
0000
0000
1010
0000
0000
0000
,  // measure 34
0101
0011
1000
0010
0100
0001
0000
1001
,  // measure 35
0100
0000
0000
0000
1001
0000
0000
0000
1010
0000
0000
0000
0110
0000
0001
1000
0001
0000
0000
0000
0101
0000
0000
0000
1010
0000
0000
0000
1100
0000
0000
0000
,  // measure 36
0010
0001
0100
0000
0010
1000
0100
0010
0100
1000
0100
0010
0001
0000
0011
0000
,  // measure 37
0110
0000
0000
0000
1100
0000
0010
1000
0010
0000
0000
0000
0101
0000
1000
0000
1001
0000
0000
0000
0110
0000
0000
0000
0100
0000
0000
0000
0001
0000
0000
0000
,  // measure 38
1000
0000
1001
0100
1001
0011
1010
0110
,  // measure 39
0101
0000
1100
0000
0011
0000
0100
0000
1000
0000
0001
0000
1000
0010
0000
0010
,  // measure 40
0200
0000
0301
0000
0010
0100
0000
0100
,  // measure 41
1000
0000
1000
0010
1000
0001
0010
0100
,  // measure 42
1000
0000
0001
0000
0100
0001
0000
0001
,  // measure 43
1000
0000
1000
0100
0010
0001
0100
0010
,  // measure 44
1000
0001
0100
0000
0010
1000
0010
0100
,  // measure 45
0001
0000
1000
0100
1000
0001
0010
0100
,  // measure 46
1000
0001
0100
0010
0100
0001
0010
0100
,  // measure 47
1000
0000
0000
0001
0000
0000
0200
0000
0000
0000
0000
0000
0000
0000
0000
0000
0000
0000
0301
0000
0010
0000
0001
0000
,  // measure 48
0010
0000
0100
0000
1000
0000
0001
0000
0000
0000
0000
0000
0100
0000
0000
0010
0000
0000
0000
0000
0000
0010
0000
0000
,  // measure 49
1000
0000
0100
0000
0010
0001
0000
0001
,  // measure 50
1000
0000
0010
0000
1000
0001
0000
0001
,  // measure 51
0010
0000
0100
0000
1000
0010
0000
0010
,  // measure 52
0100
0000
0001
0000
0010
0001
0010
0100
,  // measure 53
1000
0000
0001
0000
0100
0010
1000
0001
,  // measure 54
0010
0000
0100
0010
0001
0100
0001
0010
,  // measure 55
0100
0000
1000
0000
0002
0000
1000
1000
1003
0000
0000
0000
0010
0000
0100
0000
,  // measure 56
0000
0100
0001
0000
0010
0001
0010
0100
,  // measure 57
1000
0001
0100
0000
0010
0000
0100
0001
,  // measure 58
0000
0001
1000
0000
1000
0010
1000
0001
,  // measure 59
0010
0100
1000
0000
0001
0000
0010
0001
,  // measure 60
0000
0001
1000
0000
0010
1000
0010
0100
,  // measure 61
0001
0010
0001
1000
0001
0010
0100
0010
,  // measure 62
0001
0100
0010
1000
0002
0000
0000
0000
,  // measure 63
1003
0000
0100
0000
1000
0000
0010
0000
0100
0000
0001
0000
1000
0000
0000
0000
0000
0000
0010
0000
0000
1000
0000
0000
,  // measure 64
0100
0010
0001
0000
0100
0000
0001
0010
,  // measure 65
0001
1000
0100
0000
0010
0001
0010
0100
,  // measure 66
1000
0001
0100
0000
0001
0010
0100
0010
,  // measure 67
0001
0100
1000
0000
0010
1000
0010
0100
,  // measure 68
0001
0010
0001
0100
1000
0100
0001
0010
,  // measure 69
0001
0100
1000
0100
0010
0100
1000
0100
,  // measure 70
0001
0000
0010
0000
0100
0000
1000
0000
0020
0000
0100
0100
0130
0001
1000
0001
,  // measure 71
1000
0000
0100
0000
0010
0000
0001
0000
0100
0000
0000
0000
0000
0000
0010
0000
1000
0000
0010
0000
0100
0000
0001
0000
1000
0000
0010
0100
0010
0000
0100
0001
,  // measure 72
0100
0000
0010
0000
1000
0000
0001
0000
0010
0000
0100
1000
0100
0000
1000
0001
1000
0000
0010
0000
0100
0000
0001
0000
0010
0000
0100
0000
1000
0000
0001
0100
,  // measure 73
0001
0000
0010
0000
0100
0000
1000
0000
0001
0000
0100
0000
0010
0000
1000
0100
1000
0000
0001
0000
0100
0000
0010
0000
1000
0000
0001
0010
0001
0000
0100
0010
,  // measure 74
0100
0001
1000
0010
1000
0000
1000
0000
1000
0000
0100
0000
0010
0000
0010
0000
,  // measure 75
0010
0001
0100
0100
0100
0100
0100
0100
,  // measure 76
0100
0100
0000
0000
0000
0000
0000
0000
;
