#TITLE:NORI NORI NORI;
#ARTIST:JUDY CRYSTAL;
#BANNER:NORI NORI NORI-bn.png;
#BACKGROUND:NORI NORI NORI-bg.png;
#JACKET:NORI NORI NORI-jacket.png;
#DISCIMAGE:;
#MUSIC:NORI NORI NORI.ogg;
#SAMPLESTART:36.84;
#SAMPLELENGTH:20;
#DISPLAYBPM:160;
#BPMS:0=158.628,4=160.307;
#BGCHANGES:0=NORI NORI NORI.mp4=1=0=0=0,
;

//---------------dance-single - ----------------
#NOTES:
     dance-single:
     :
     Beginner:
     4:
     :
0000
0000
0000
0000
,
0000
0000
0000
0000
,
0000
0000
0000
0000
,
0010
0000
0000
0000
,
0001
0000
1000
0000
,
0010
0000
0000
0000
,
0001
0000
1000
0000
,
0001
0000
1000
0000
,
0001
0000
1001
0000
,
0010
0000
0000
0000
,
0100
0000
0000
0000
,
0010
0000
0100
0000
,
0010
0000
0100
0000
,
0001
0001
0000
0000
,
0001
0001
0000
0000
,
1000
1000
0000
0000
,
1000
1000
0000
0000
,
0010
0000
0000
0000
,
0001
0000
0000
0000
,
0010
0000
0000
0000
,
1000
0000
0000
0000
,
0001
0000
0001
0000
,
1000
0000
1000
0000
,
0100
0000
0100
0000
,
1001
0000
0000
0000
,
0001
0001
0001
0000
,
0001
0000
0001
0000
,
0001
0001
0001
0000
,
1001
0000
1001
0000
,
1000
1000
1000
0000
,
1000
0000
1000
0000
,
1000
1000
1000
0000
,
1001
0000
1001
0000
,
0010
0010
0010
0000
,
0001
0000
1000
0000
,
0010
0010
0010
0000
,
1001
0000
1001
0000
,
0100
0100
0100
0000
,
0001
0000
1000
0000
,
0100
0100
0100
0000
,
1001
0000
1001
0000
,
0010
0000
0001
0000
,
0010
0000
1000
0000
,
0100
0000
0100
0000
,
0110
0000
0110
0000
,
0010
0000
0001
0000
,
0010
0000
1000
0000
,
0100
0000
0100
0000
,
0110
0000
0100
0100
,
0000
0000
0000
0000
;

//---------------dance-single - ----------------
#NOTES:
     dance-single:
     :
     Easy:
     5:
     :
0000
0000
0000
0000
,
0000
0000
0000
0000
,
0000
0000
0000
0000
,
0001
0000
1000
0000
,
0010
0010
0010
0010
,
1000
0000
0100
0000
,
1000
1000
1000
1000
,
0200
0000
0000
0300
,
0000
0000
0000
0000
,
0001
0000
1000
0000
,
0001
0000
1000
0000
,
0001
0000
1000
0000
,
0001
0001
0001
0001
,
0010
0000
0100
0000
,
1000
1000
1000
1000
,
0010
0000
0100
0000
,
0001
0000
0000
0000
,
0010
0010
0100
0100
,
0010
0010
0100
0100
,
0002
0003
2000
3000
,
0002
0003
2000
3000
,
0010
0000
0000
0000
,
0010
0000
0000
0000
,
0010
0010
0010
0010
,
0010
0000
0000
0000
,
0001
1000
0001
0000
,
1000
1000
1000
0000
,
0010
0010
0100
0100
,
0010
0010
0000
0000
,
1000
0001
1000
0000
,
0001
0001
0001
0000
,
0010
0010
0100
0100
,
0010
0010
0100
0100
,
0001
1000
0001
0000
,
1000
1000
1000
0000
,
0010
0010
0100
0001
,
1000
0100
0000
0000
,
1000
0001
1000
0000
,
0001
0001
0001
0000
,
0010
0010
0100
1000
,
0001
0000
0000
0000
,
1000
1000
0001
0001
,
0010
0010
0100
0100
,
0001
0001
1000
1000
,
0010
0100
0001
0100
,
0001
0000
0100
0000
,
1000
1000
1000
1000
,
0200
0000
0000
0300
,
0000
0000
0000
0000
;

//---------------dance-single - ----------------
#NOTES:
     dance-single:
     :
     Medium:
     7:
     :
0000
0000
0000
0000
,
0000
0000
0000
0000
,
0000
0000
0000
0000
,
0001
0000
1000
0000
,
0010
0010
0010
0010
,
1000
0000
0100
0000
,
0010
0000
0001
0001
,
2000
0000
0000
0000
0000
3000
0100
0100
,
0000
0000
0000
0000
1000
0001
0000
0000
,
0001
0100
1000
0100
,
0001
0100
1000
0100
,
0001
0001
1000
1000
,
0001
0100
1000
1100
,
0001
0010
1000
0010
,
0001
1000
0100
0000
,
0010
0010
0001
0100
,
1100
0000
1001
0101
,
0010
0000
1000
0000
0001
1000
0100
0000
,
0010
0000
0001
0000
1000
0001
0100
0000
,
0001
0001
0100
0100
,
1000
0010
0100
1001
,
0010
0000
0100
0000
,
0001
0000
1000
0000
,
0010
0010
0100
0100
,
1001
0000
0010
0110
,
0001
1000
0001
0000
,
1000
1000
0100
0000
,
0010
0000
0010
0000
0001
0010
0100
0000
,
1000
1000
0001
0101
,
1000
0001
1000
0000
,
0001
0001
0100
0000
,
0010
0000
0010
0000
1000
0010
0100
0000
,
0001
0001
1000
1100
,
0001
1000
0001
0000
,
1000
0000
1000
0000
0100
0010
0100
0000
,
0110
1001
0110
0001
,
0110
1001
0100
0100
,
1000
0001
1000
0000
,
0001
0000
0001
0000
0100
0010
0100
0000
,
0001
0000
1000
0000
0100
0100
0000
0020
,
0000
0000
0000
0000
0031
0001
0000
0000
,
1000
1000
0001
0001
,
0010
0100
0001
0100
,
0001
0001
1000
1000
,
0010
0100
1000
0100
,
0001
1000
0100
0010
,
1000
0001
1000
0100
,
2000
0000
0000
0000
0000
0000
3100
0100
,
0000
0000
0000
0000
1000
0001
0000
0000
,
0000
0000
0000
0000
;

//---------------dance-single - ----------------
#NOTES:
     dance-single:
     :
     Hard:
     10:
     :
0000
0000
0000
0000
,
0000
0000
0000
0000
,
0000
0000
0000
0000
,
0101
1000
0101
1000
,
0010
1000
0001
1000
0010
1000
0100
0000
,
0001
0001
0100
0000
1000
1000
0100
0000
,
0010
1000
0100
0010
0001
1000
0100
0000
,
2002
0000
0000
0000
0000
3003
0100
0010
,
0000
0000
0000
0000
1001
1001
0000
0000
,
2000
0100
0001
3100
,
0002
0100
1000
0103
,
0020
0000
0001
0000
0100
0000
0031
1000
,
0000
0001
0000
1000
0000
0100
0000
0000
,
0001
0000
0100
0002
0000
0000
0003
0000
,
1000
0000
0100
2000
0000
0001
3001
0000
,
0010
1000
0001
0000
1000
0100
1000
0001
,
0100
0000
1001
0101
,
0000
0001
0000
1000
0000
0100
0000
0001
,
0000
1000
0000
0100
0000
0010
0010
0000
,
0000
1000
0000
0001
0000
0100
0000
1000
,
0000
0001
0000
0100
0000
0010
0010
0000
,
1000
1000
0001
0000
0100
0100
0010
0000
,
0001
0001
0100
0000
0010
0010
1000
0000
,
0010
0000
1000
0100
0000
0001
0000
1100
,
0000
0000
0000
0000
0010
1000
0100
0000
,
0010
1000
0010
1000
0010
1000
0100
0000
,
1001
0000
0101
0000
0010
1000
0100
0000
,
0020
0001
0100
0001
,
0100
0000
0031
0000
1001
0100
0010
0000
,
0010
0001
1000
0001
0010
0001
0100
0000
,
1001
0000
1100
0000
0010
0001
0100
0000
,
0020
1000
0100
1000
,
0100
0000
1030
0000
1001
0100
0010
0000
,
1002
0100
1000
0103
,
2001
0000
0100
0000
0001
0000
3100
0010
,
0000
0001
0100
0000
1000
0100
0000
0001
,
0000
1000
0100
0000
0010
0000
0101
0000
,
2200
0000
3300
0000
0202
0000
0303
2002
,
0000
0000
0000
0000
3003
0000
0110
1000
,
0000
1000
1000
0000
0010
0010
0000
2002
,
0000
0000
0000
3003
0100
0010
0000
0000
,
0001
0100
1000
0000
0001
0100
1000
0000
,
0010
1000
0010
1000
0010
1000
1001
0000
,
1000
0100
0001
0000
1000
0100
0001
0000
,
1000
0010
0100
0001
1000
0001
0101
0000
,
0001
1000
0100
0000
0001
1000
0100
0000
,
0001
0100
0001
0100
0001
1000
1010
0000
,
0220
0000
0000
0000
0000
0330
0001
2000
,
0000
0000
0000
3000
0001
0100
0000
0000
,
0000
0000
0000
0000
;

//---------------dance-single - ----------------
#NOTES:
     dance-single:
     :
     Challenge:
     16:
     :
0000
0000
0000
0000
,
0000
0000
0000
0000
,
0000
0000
0000
0000
,
1010
0000
0000
0000
0001
0100
0001
0100
0000
0010
0000
0010
1000
0001
0000
1000
,
0100
0010
0100
1000
0000
0000
0001
0200
0000
0000
0310
2000
0000
0000
3000
0000
,
0101
0000
0000
0000
1000
0100
0010
0001
0000
1000
0000
0001
0000
0000
0100
0010
,
1000
0001
0000
0001
0010
0100
0000
0100
1000
0010
0000
0100
0002
0000
0000
0000
,
1003
0010
0000
0000
0100
0001
0010
0100
0000
0100
1000
0001
0010
0001
0100
0000
,
0000
0000
0010
1000
0010
0100
0001
0010
0100
1000
0002
0000
0000
0000
0013
0001
,
0100
1000
0001
0010
0001
0010
1000
0100
,
0001
1000
0010
0100
0001
0100
1000
0010
,
1000
0100
0001
0100
0010
1000
0010
0001
,
0010
1000
0001
0100
0001
0010
1000
0100
,
0001
0100
1000
0100
0001
0010
1000
0010
,
0100
0001
1000
0001
0010
1000
0100
0010
,
0001
0100
0010
1000
0010
1000
0100
0001
,
1000
0100
1000
0100
0010
0001
0010
0001
0100
0001
0100
0001
1000
0010
1000
0010
,
0100
0000
0001
0010
0001
0000
1000
0000
0010
0000
0100
0000
0001
0000
0010
0000
,
1000
0000
0100
0000
0001
0000
1000
0000
0010
0000
0100
0000
0010
1000
0001
0000
,
0100
0000
0001
0000
0010
0000
0100
1000
0001
0000
0100
0000
0010
1000
0001
0000
,
0100
0001
0010
0000
0001
0000
1000
0000
0010
1000
0100
0000
1000
0010
0100
0001
,
0010
0100
1000
0010
1000
0100
0001
0010
,
0001
0100
0010
0100
0001
0000
1000
0010
1000
0000
0001
0010
0100
1000
0010
0100
,
0001
0010
0100
0010
0001
0100
0010
0100
0001
0010
0100
0010
0001
0000
1000
0100
,
1000
0000
1100
0000
0000
0100
0001
0000
0101
0000
0010
1000
0010
0100
0001
0010
,
0100
1000
0001
0000
0100
1000
0001
0000
0100
1000
0001
0000
0100
0010
2000
0000
,
0000
0000
3001
0000
0010
0100
1000
0001
1000
0000
0010
0000
0100
0001
2000
0000
,
0000
0000
3010
0100
0010
1000
0001
0010
0100
0000
1000
0000
0001
0000
0100
0000
,
0001
0010
0100
0010
0100
1000
0100
1000
0001
1000
0100
0010
0001
1000
0001
0010
,
0100
1000
0001
0000
0100
1000
0001
0000
0100
1000
0001
0000
0100
0001
0020
0000
,
0000
0000
0031
0000
1000
0010
0100
0010
1000
0001
0010
0000
0100
0000
2000
0000
,
0000
0000
3010
0000
0100
0001
0010
0100
1000
0000
0001
0000
0100
0010
1000
0000
,
0001
0100
0010
1000
0001
0010
0100
1000
0010
0100
0010
0100
0010
1000
0001
0000
,
0100
1000
0001
0000
0100
1000
0001
0000
0100
1000
0001
0000
0010
0100
2000
0000
,
0000
0000
3001
0000
1000
0100
0010
0001
1000
0000
0001
0000
0100
0010
2000
0000
,
0000
0000
3100
0000
1000
0001
0010
0001
0100
0000
0010
0000
1000
0001
0100
0000
,
0001
0010
0100
0010
0001
1000
0010
1000
0100
0010
0001
0000
1000
0001
1000
0010
,
0100
1000
0001
0000
0100
1000
0001
0000
0100
1000
0001
0000
1000
0001
0020
0000
,
0000
0000
0031
0000
1000
0001
1000
0100
0010
0001
0100
0000
0001
1000
0010
0000
,
0100
0001
0100
0000
0010
1000
0100
0010
0001
1000
0001
1000
0100
0010
0002
0000
,
0000
1003
0001
0100
1001
0110
0000
0000
,
1010
0000
0000
0000
0001
0010
0000
0011
0000
0011
0000
0011
0000
0000
1000
0001
,
1000
0010
0000
0010
0100
0001
0000
0001
1000
0100
0000
0100
0020
0000
0000
0030
,
1001
0000
0000
0000
0100
0001
0100
0010
0000
0010
0000
0010
0000
1000
0001
1000
,
0010
0100
0001
1000
0000
0000
0100
0020
0000
0000
0031
2000
0000
0000
3000
0000
,
1100
0000
0000
0000
0001
1000
0001
0100
0000
0010
0000
0010
0000
0000
1000
0001
,
1000
0010
0000
0010
0100
0001
0000
0001
0010
0100
0000
0100
2000
0000
0000
0000
,
3001
0010
0001
1000
0000
0010
0100
0010
1000
0001
0010
0100
1000
0010
0001
0000
,
1000
0100
0010
0100
1000
0010
0100
0010
2000
0000
0002
0000
3003
0000
0000
0000
;

//---------------dance-double - ----------------
#NOTES:
     dance-double:
     :
     Easy:
     5:
     :
00000000
00000000
00000000
00000000
,
00000000
00000000
00000000
00000000
,
00000000
00000000
00000000
00000000
,
00011000
00000000
00011000
00000000
,
00011000
00000000
00001000
00010000
,
00000010
00000000
00000100
00000000
,
00001000
00010000
00001000
00010000
,
00002000
00000000
00000000
00000000
,
00003000
00000000
00000000
00000000
,
00010000
00000000
00100000
00000000
,
00010000
00000000
00001000
00000000
,
00001000
00000000
00010000
00000000
,
00100000
10000000
01000000
01000000
,
00010000
00001000
00010000
00001000
,
00010000
00010000
00010000
00000000
,
00001000
00000000
00010000
00000000
,
00000100
00000000
00000000
00000000
,
00100000
00000000
10000000
00000000
,
01000000
00000000
00010000
00000000
,
00001000
00000000
00000100
00000000
,
00000001
00000001
00000001
00000001
,
00000001
00000000
00000100
00000000
,
00001000
00000000
00010000
00000000
,
00001000
00001000
00010000
00010000
,
00000200
00000000
00000000
00000300
,
00000010
00000100
00000110
00000000
,
00000001
00000000
00000100
00000000
,
00001000
00001000
00010000
00010000
,
01000000
00000000
10000000
00000000
,
00100000
01000000
01100000
00000000
,
10000000
00000000
01000000
00000000
,
00010000
00010000
00001000
00001000
,
00000100
00000000
00000001
00000000
,
00000100
00000100
00000110
00000000
,
00001000
00010000
00001000
00000000
,
00001000
00010000
00001000
00010000
,
00001000
00001000
00010000
00000000
,
01000000
01000000
01100000
00000000
,
00010000
00001000
00010000
00000000
,
00001000
00001000
00000100
00000100
,
00000001
00000000
00001000
00000000
,
00010000
00001000
00010000
00001000
,
00100000
00000000
01000000
00000000
,
10000000
10000000
01000000
01000000
,
00010000
00000000
00001000
00000000
,
00010000
00010000
00001000
00001000
,
00000100
00000000
00000001
00000000
,
00000020
00000000
00000000
00000000
,
00000030
00000000
00000000
00000000
,
00000000
00000000
00000000
00000000
;

//---------------dance-double - ----------------
#NOTES:
     dance-double:
     :
     Medium:
     7:
     :
00000000
00000000
00000000
00000000
,
00000000
00000000
00000000
00000000
,
00000000
00000000
00000000
00000000
,
00011000
00000000
00011000
00000000
,
00011000
01000000
10000000
00100000
,
00001000
00010000
00000010
00001000
,
00011000
00000100
00000001
00000010
,
00002000
00000000
00000000
00000000
00000000
00003000
00010000
00001000
,
00000000
00000000
00000000
00000000
,
00000010
00001000
00100000
00010000
,
00000010
00001000
00100000
00010000
,
00000010
00001000
00100000
00010000
,
10010000
01010000
01001000
00011000
,
00000010
00001000
00000001
00000100
,
00001000
00010000
01000000
00000000
,
00010000
00000000
00001000
00000000
00000100
00000001
00000010
00000000
,
00001100
00000000
00011000
00101000
,
00001000
00000000
00010000
00000000
00001000
00000100
00001000
00000000
,
00010000
00000000
00001000
00000000
00010000
01000000
00010000
00000000
,
00001000
00000000
00010000
00000000
00001000
00010000
00001000
00000000
,
00101000
00110000
10010000
11000000
,
00010000
00001000
00000100
00000001
,
00001000
00000100
00100000
00010000
,
00001000
00001000
00100000
01000000
,
00011000
00000000
00000010
00001000
,
00011000
01001000
10000000
01000000
,
01000000
00000000
00010000
00000000
00001000
00000100
00000001
00000000
,
00001000
00000100
00000001
00000100
,
00001000
00010000
00000010
00000010
,
00011000
00010100
00000001
00000100
,
00000100
00000000
00001000
00000000
00010000
01000000
10000000
00000000
,
00010000
01000000
10000000
01000000
,
00010000
00001000
00010010
00011000
,
00100000
01000000
00100000
00000000
,
00001000
00010000
00001000
00010000
,
00011000
00000000
00001100
00000000
00001000
00010000
00001000
00000000
,
00010000
00001000
00110000
00011000
,
00000010
00000100
00000010
00000000
,
00001000
00000000
00010000
00000000
00001000
00010000
00001000
00000000
,
00001000
00000000
00000100
00000000
00000001
00000010
00000000
00002000
,
00000000
00000000
00000000
00000000
00013000
00100000
00000000
00000000
,
10000000
10000000
01000000
00010000
,
00001000
00000100
00001001
00001100
,
00010000
00010000
00001000
00000100
,
00000101
00001001
00001100
00010100
,
00001000
00010000
01000000
10000000
,
01000000
00000000
00010000
00000000
00010000
00001000
00000100
00000000
,
00000002
00000000
00000000
00000000
00000000
00000000
00000103
00000001
,
00000000
00000000
00000000
00000000
00010000
00001000
00000000
00000000
,
00000000
00000000
00000000
00000000
;

//---------------dance-double - ----------------
#NOTES:
     dance-double:
     :
     Hard:
     11:
     :
00000000
00000000
00000000
00000000
,
00000000
00000000
00000000
00000000
,
00000000
00000000
00000000
00000000
,
00100000
10000000
01000000
00000000
01000000
00010000
00001000
00000000
,
00001000
00000100
00000001
00000010
00000100
00001000
00000001
00000000
,
00000001
00001000
00000100
00000000
00010000
00001000
01000000
00000000
,
00100000
00000000
10000000
00000000
01000000
00010000
00001000
00000000
,
00000200
00000000
00000000
00000000
00000000
00000300
00000001
00000020
,
00000000
00000000
00000000
00000000
00000031
00001000
00000000
00000000
,
00002000
00000100
00000001
00003010
,
00020000
01000000
10000000
00130000
,
00002000
00000100
00000001
00003010
,
00010000
00000000
00001000
00000000
00000010
00001000
00000100
00000000
,
00000001
00000000
00001000
00000000
00000001
00000100
00001000
00000000
,
00010000
00000000
01000000
00000000
10000000
01000000
00100000
00000000
,
00001000
00000000
00010000
00000000
00000010
00001000
00000100
00000000
,
00001001
00000000
00001010
00010010
,
00000010
00001000
00000010
00001000
00001010
00001010
00001100
00010000
,
00001000
00010000
00001000
00010000
00011000
00011000
01001000
01000000
,
00010000
01000000
00010000
01000000
01010000
01010000
10010000
10010000
,
00000000
11000000
00000000
00010000
00000000
01000000
01000000
00000000
,
00100000
10000000
01000000
00010000
00000000
00001000
00000000
00000100
,
00000000
00000001
00000000
00001000
00000000
00000001
00000000
00000000
,
00000001
00000000
00000100
00001000
00000000
00010000
00000000
22000000
,
00000000
00000000
00000000
03000000
00010000
00010000
30010000
00000000
,
01010000
00000000
11000000
00000000
01000000
00010000
00001000
00000000
,
00001000
00000000
00000100
00000000
00000001
00001000
00000100
00000000
,
00000101
00000000
00001010
00000000
00000010
00001000
00000100
00000000
,
00000001
00000100
00001000
00000000
01010000
00000000
10010000
00000000
,
00100000
10000000
01000000
10000000
00100000
10000000
01000000
00000000
,
00020000
00001000
01000000
00031000
,
00000100
00000001
00000100
00000001
00001000
00000010
00001000
00000010
,
00000100
00000001
00000100
00000000
00001010
00000000
00010010
00000000
,
00002000
01000000
00010000
01003000
,
00020000
00000100
00001000
00030100
,
00020000
00100000
10000000
01030000
,
00002000
00000010
00000001
00003100
,
00011000
00000000
01000000
00000000
00011000
00000000
00000100
00000020
,
00000000
00000000
00000030
00011000
,
00100000
10000000
00100000
00000000
00010000
01000000
00010000
20020000
,
00000000
00000000
00000000
30030000
00010000
10000000
00000000
00000000
,
00020000
01000000
00000000
01030000
,
00100000
10000000
01000000
00010000
00001000
00000100
00000001
00000000
,
00002000
00000100
00000000
00003100
,
00000010
00000001
00000100
00001000
00010000
01000000
10000000
00000000
,
00010000
10000000
01000000
00000000
00010000
00001000
00000100
00000000
,
00000001
00000010
00000100
00001000
00000001
00001000
00000100
00000000
,
00000202
00000000
00000000
00000000
00000000
00000303
00002000
00020000
,
00000000
00000000
00003000
00030000
00100000
10000000
00000000
00000000
,
00000000
00000000
00000000
00000000
;
